#TITLE:The Blue Wrath;
#SUBTITLE:;
#ARTIST:I MONSTER;
#TITLETRANSLIT:;
#SUBTITLETRANSLIT:;
#ARTISTTRANSLIT:;
#GENRE:;
#CREDIT:;
#BANNER:the blue wrath-bn.png;
#BACKGROUND:the blue wrath-bg.png;
#JACKET:the blue wrath-jacket.png;
#LYRICSPATH:;
#CDTITLE:;
#MUSIC:The Blue Wrath.ogg;
#OFFSET:-5.256766;
#SAMPLESTART:70.751999;
#SAMPLELENGTH:12.000000;
#SELECTABLE:YES;
#DISPLAYBPM:102.000000;
#BPMS:0.000000=102.050003
,56.000000=102.129997
,60.000000=102.209999
,68.000000=102.309998
,72.000000=102.389999
,79.000000=102.029999
,80.000000=102.050003
,110.000000=102.209999
,110.500000=102.050003
,128.000000=102.089996
,136.000000=102.050003
,151.000000=102.129997
,159.000000=102.089996
,167.000000=101.910004
,168.000000=101.610001
,168.500000=101.570000
,169.000000=100.150002
,169.500000=100.389999
,170.000000=100.089996
,170.500000=96.250000
,171.000000=97.690002
,171.500000=93.169998
,172.000000=92.510002
,172.500000=91.949997
,173.000000=96.169998
;
#STOPS:110.000000=0.587000
;
#BGCHANGES:;
#KEYSOUNDS:;
#ATTACKS:;

//---------------dance-single - ----------------
#NOTES:
     dance-single:
     :
     Challenge:
     16:
     0.710674,0.985429,0.806466,0.009061,0.643361,549.000000,460.000000,89.000000,1.000000,0.000000,0.000000,0.710674,0.985429,0.806466,0.009061,0.643361,549.000000,460.000000,89.000000,1.000000,0.000000,0.000000:
// measure 0
0100
0000
0000
0010
0000
0000
1000
0000
0000
0010
0000
0000
0100
0000
0000
0010
0000
1000
0000
0000
0010
1000
0000
0000
,  // measure 1
0100
0000
0000
0010
0000
0000
0001
0000
0000
0010
0000
0000
0100
0000
0000
0010
0000
0001
0000
0000
0010
0001
0000
0000
,  // measure 2
0100
0000
0000
0010
0000
0000
1000
0000
0000
0010
0000
0000
0100
0000
0000
0010
0000
1000
0000
0000
0010
1000
0000
0000
,  // measure 3
0100
0000
0000
0010
0000
0000
0001
0000
0000
0010
0000
0000
0100
0000
0000
0010
0000
0001
0000
0000
0010
0100
0000
0000
,  // measure 4
0011
0000
0101
0000
1010
0000
1001
0011
,  // measure 5
0101
0000
0000
1010
0000
0000
1000
0000
0000
0010
0000
0000
0100
0000
0000
0010
0000
1000
0000
0000
0010
0100
0000
0000
,  // measure 6
1010
0000
1100
0000
0011
0000
1001
1010
,  // measure 7
0101
0000
0000
0010
0000
0000
1000
0000
0000
0010
0000
0000
0100
0000
0000
0010
0000
1000
0000
0000
0010
0100
0000
0000
,  // measure 8
0011
0000
0101
0000
1010
0000
1001
0011
,  // measure 9
0101
0000
0000
1010
0000
0000
1000
0000
0000
0010
0000
0000
0100
0000
0000
0010
0000
1000
0000
0000
0010
0100
0000
0000
,  // measure 10
1010
0000
1100
0000
0011
0000
1001
1010
,  // measure 11
0101
0010
1000
0010
0100
1010
1100
0110
,  // measure 12
0101
0000
0000
0001
0000
0000
0010
0000
0000
0001
0000
0000
0100
0000
0000
0001
0000
0010
0000
0000
0001
0010
0000
0000
,  // measure 13
0100
1000
0010
1000
0100
0011
1001
1010
,  // measure 14
0101
0000
0000
0010
0000
0000
1000
0000
0000
0010
0000
0000
0100
0000
0000
0010
0000
1000
0000
0000
0010
1000
0000
0000
,  // measure 15
0100
0010
0001
0010
0100
0011
0101
0110
,  // measure 16
1100
0000
0000
1000
0000
0000
0010
0000
0000
1000
0000
0000
0100
0000
0000
1000
0000
0010
0000
0000
1000
0010
0000
0000
,  // measure 17
0100
0001
0010
0001
0100
1010
1001
0011
,  // measure 18
1100
0000
0000
0010
0000
0000
0001
0000
0000
0010
0000
0000
0100
0000
0000
0010
0000
0001
0000
0000
0010
0001
0000
0000
,  // measure 19
0100
0000
0000
0010
0000
0000
1000
0000
0000
0010
0000
0000
0100
0000
0000
0010
0000
1000
0000
0000
0010
1000
0000
0000
,  // measure 20
0010
0000
0010
0100
0000
0100
0001
0000
0001
1000
0000
1000
0100
0000
0100
0010
0000
0010
0001
0000
0001
1000
0000
1000
,  // measure 21
0010
0000
0010
0100
0000
0100
0001
0000
0001
1000
0000
1000
0100
0000
0100
0010
0000
0010
0001
0000
0001
1000
0000
1000
,  // measure 22
0010
0000
0010
0100
0000
0100
0001
0000
0001
1000
0000
1000
0100
0000
0100
0010
0000
0010
0001
0000
0001
1000
0000
1000
,  // measure 23
0010
0000
0010
0100
0000
0100
0001
0000
0001
1000
0000
1000
0100
0000
0100
0010
0000
0010
0001
0000
0001
1000
0000
1000
,  // measure 24
0001
0100
0001
0100
0010
0100
0010
1000
0010
1000
0100
1000
0100
0010
0100
0010
0001
0010
0001
0100
0001
0100
0010
0100
,  // measure 25
0010
1000
0010
1000
0001
1000
0001
0010
0001
0010
0100
0010
0100
1000
0100
1000
0010
1000
0010
0100
0010
0100
0001
0100
,  // measure 26
0001
1000
0001
1000
0100
1000
0100
0010
0100
0010
0001
0010
0001
0100
0001
0100
0010
0100
0010
1000
0010
1000
0001
1000
,  // measure 27
0001
0100
0010
0100
0010
1000
0001
0010
0100
0010
0100
1000
2100
3000
0000
0100
0000
0000
0011
0000
0000
0100
0000
0000
,  // measure 28
1010
0100
0011
0100
1001
0011
0101
1010
,  // measure 29
0100
0000
0000
0010
0000
0000
1000
0100
0010
0100
1000
0100
0010
0100
1000
0100
0000
0000
0011
0000
0000
0100
0000
0000
,  // measure 30
1010
0100
0011
0100
1001
0011
1100
0010
,  // measure 31
0001
0000
0000
0100
0000
0000
0010
0100
0010
1000
0010
0100
0010
1000
0010
0100
0000
0000
1010
0000
0000
0100
0000
0000
,  // measure 32
0011
0100
1010
0100
1001
1010
1100
0011
,  // measure 33
0100
0000
0000
0010
0000
0000
0001
0100
0010
0100
0001
0100
0010
0100
0001
0100
0000
0000
1010
0000
0000
0100
0000
0000
,  // measure 34
0011
0100
1010
0100
1001
1010
0101
0010
,  // measure 35
1000
0100
0010
0011
0101
0110
1100
1000
,  // measure 36
0010
0000
0000
1000
0000
0000
0100
0000
0000
1000
0000
0010
0000
0000
1000
0010
0000
0000
0100
0000
0000
0001
0000
0000
,  // measure 37
0010
0001
0100
1010
1001
0011
1100
0010
,  // measure 38
0001
0000
0000
0010
0000
0000
0100
0000
0000
0010
0000
0001
0000
0000
0010
0001
0000
0000
0100
0000
0000
0010
0000
0000
,  // measure 39
1000
0010
0100
1010
1100
0110
0101
0001
,  // measure 40
0010
0000
0000
0001
0000
0000
0100
0000
0000
0001
0000
0010
0000
0000
0001
0010
0000
0000
0100
0000
0000
1000
0000
0000
,  // measure 41
0010
0000
1000
0000
0100
0000
0011
0000
1001
0000
0101
0000
1010
0000
0100
0001
,  // measure 42
0000
0100
0001
0000
0011
0000
0100
1000
0000
0100
1000
0000
1010
0000
0100
0001
,  // measure 43
0000
1000
0010
0000
1001
0000
0000
0000
0110
0000
0000
0000
0000
0000
0000
0000
;

//---------------dance-single - ----------------
#NOTES:
     dance-single:
     :
     Hard:
     15:
     0.660189,0.650383,0.806466,0.009061,0.466663,510.000000,421.000000,89.000000,1.000000,0.000000,0.000000,0.660189,0.650383,0.806466,0.009061,0.466663,510.000000,421.000000,89.000000,1.000000,0.000000,0.000000:
// measure 0
0100
0000
0000
0010
0000
0000
1000
0000
0000
0010
0000
0000
0100
0000
0000
0010
0000
1000
0000
0000
0010
1000
0000
0000
,  // measure 1
0100
0000
0000
0010
0000
0000
0001
0000
0000
0010
0000
0000
0100
0000
0000
0010
0000
0001
0000
0000
0010
0001
0000
0000
,  // measure 2
0100
0000
0000
0010
0000
0000
1000
0000
0000
0010
0000
0000
0100
0000
0000
0010
0000
1000
0000
0000
0010
1000
0000
0000
,  // measure 3
0100
0000
0000
0010
0000
0000
0001
0000
0000
0010
0000
0000
0100
0000
0000
0010
0000
0001
0000
0000
0010
0100
0000
0000
,  // measure 4
0011
0000
0101
0000
1010
0000
1001
0011
,  // measure 5
0101
0000
0000
1010
0000
0000
1000
0000
0000
0010
0000
0000
0100
0000
0000
0010
0000
1000
0000
0000
0010
0100
0000
0000
,  // measure 6
1010
0000
1100
0000
0011
0000
1001
1010
,  // measure 7
0101
0000
0000
0010
0000
0000
1000
0000
0000
0010
0000
0000
0100
0000
0000
0010
0000
1000
0000
0000
0010
0100
0000
0000
,  // measure 8
0011
0000
0101
0000
1010
0000
1001
0011
,  // measure 9
0101
0000
0000
1010
0000
0000
1000
0000
0000
0010
0000
0000
0100
0000
0000
0010
0000
1000
0000
0000
0010
0100
0000
0000
,  // measure 10
1010
0000
1100
0000
0011
0000
1001
1010
,  // measure 11
0101
0010
1000
0010
0100
1010
1100
0110
,  // measure 12
0101
0000
0000
0001
0000
0000
0010
0000
0000
0001
0000
0000
0100
0000
0000
0001
0000
0010
0000
0000
0001
0010
0000
0000
,  // measure 13
0100
1000
0010
1000
0100
0011
1001
1010
,  // measure 14
0101
0000
0000
0010
0000
0000
1000
0000
0000
0010
0000
0000
0100
0000
0000
0010
0000
1000
0000
0000
0010
1000
0000
0000
,  // measure 15
0100
0010
0001
0010
0100
0011
0101
0110
,  // measure 16
1100
0000
0000
1000
0000
0000
0010
0000
0000
1000
0000
0000
0100
0000
0000
1000
0000
0010
0000
0000
1000
0010
0000
0000
,  // measure 17
0100
0001
0010
0001
0100
1010
1001
0011
,  // measure 18
1100
0000
0000
0010
0000
0000
0001
0000
0000
0010
0000
0000
0100
0000
0000
0010
0000
0001
0000
0000
0010
0001
0000
0000
,  // measure 19
0100
0000
0000
0010
0000
0000
1000
0000
0000
0010
0000
0000
0100
0000
0000
0010
0000
1000
0000
0000
0010
1000
0000
0000
,  // measure 20
0010
0000
0010
0100
0000
0100
0001
0000
0001
1000
0000
1000
0100
0000
0100
0010
0000
0010
0001
0000
0001
1000
0000
0000
,  // measure 21
0010
0000
0010
0100
0000
0100
0001
0000
0001
1000
0000
1000
0100
0000
0100
0010
0000
0010
0001
0000
0001
1000
0000
0000
,  // measure 22
0010
0000
0010
0100
0000
0100
0001
0000
0001
1000
0000
1000
0100
0000
0100
0010
0000
0010
0001
0000
0001
1000
0000
0000
,  // measure 23
0010
0000
0010
0100
0000
0100
0001
0000
0001
1000
0000
1000
0100
0000
0100
0010
0000
0010
0001
0000
0001
1000
0000
0000
,  // measure 24
0001
0000
0001
0100
0000
0100
0010
0000
0010
1000
0000
1000
0100
0000
0100
0010
0000
0010
0001
0000
0001
0100
0000
0100
,  // measure 25
0010
0000
0010
1000
0000
1000
0001
0000
0001
0010
0000
0010
0100
0000
0100
1000
0000
1000
0010
0000
0010
0100
0000
0100
,  // measure 26
0001
0000
0001
1000
0000
1000
0100
0000
0100
0010
0000
0010
0001
0000
0001
0100
0000
0100
0010
0000
0010
1000
0000
1000
,  // measure 27
0001
0000
0100
0010
0000
1000
0001
0000
0010
0100
0000
0000
2001
3000
0000
0100
0000
0000
0011
0000
0000
0100
0000
0000
,  // measure 28
1010
0100
0011
0100
1001
0011
0101
1010
,  // measure 29
0100
0000
0000
0010
0000
0000
1000
0100
1000
0100
1000
0100
1000
0000
0000
0100
0000
0000
0011
0000
0000
0100
0000
0000
,  // measure 30
1010
0100
0011
0100
1001
0011
1100
0010
,  // measure 31
0001
0000
0000
0100
0000
0000
0010
0100
0010
0100
0010
0100
0010
0000
0000
0100
0000
0000
1010
0000
0000
0100
0000
0000
,  // measure 32
0011
0100
1010
0100
1001
1010
1100
0011
,  // measure 33
0100
0000
0000
0010
0000
0000
0001
0100
0001
0100
0001
0100
0001
0000
0000
0100
0000
0000
1010
0000
0000
0100
0000
0000
,  // measure 34
0011
0100
1010
0100
1001
1010
0101
0010
,  // measure 35
1000
0100
0010
0011
0101
0110
1100
1000
,  // measure 36
0010
0000
0000
1000
0000
0000
0100
0000
0000
1000
0000
0010
0000
0000
1000
0010
0000
0000
0100
0000
0000
0001
0000
0000
,  // measure 37
0010
0001
0100
1010
1001
0011
1100
0010
,  // measure 38
0001
0000
0000
0010
0000
0000
0100
0000
0000
0010
0000
0001
0000
0000
0010
0001
0000
0000
0100
0000
0000
0010
0000
0000
,  // measure 39
1000
0010
0100
1010
1100
0110
0101
0001
,  // measure 40
0010
0000
0000
0001
0000
0000
0100
0000
0000
0001
0000
0010
0000
0000
0001
0010
0000
0000
0100
0000
0000
1000
0000
0000
,  // measure 41
0010
0000
1000
0000
0100
0000
0011
0000
1001
0000
0101
0000
1010
0000
0100
0001
,  // measure 42
0000
0100
0001
0000
0011
0000
0100
1000
0000
0100
1000
0000
1010
0000
0100
0001
,  // measure 43
0000
1000
0010
0000
1001
0000
0000
0000
0110
0000
0000
0000
0000
0000
0000
0000
;

//---------------dance-single - ----------------
#NOTES:
     dance-single:
     :
     Medium:
     11:
     0.478961,0.532132,0.661484,0.027184,0.163106,370.000000,297.000000,73.000000,3.000000,0.000000,0.000000,0.478961,0.532132,0.661484,0.027184,0.163106,370.000000,297.000000,73.000000,3.000000,0.000000,0.000000:
// measure 0
0100
0000
0000
0000
0000
0000
0001
0000
0000
0000
0000
0000
0100
0000
0000
0000
0000
0010
0000
0000
1000
0010
0000
0000
,  // measure 1
0100
0000
0000
0000
0000
0000
1000
0000
0000
0000
0000
0000
0100
0000
0000
0000
0000
0010
0000
0000
0001
0010
0000
0000
,  // measure 2
0100
0000
0000
0000
0000
0000
0001
0000
0000
0000
0000
0000
0100
0000
0000
0000
0000
0010
0000
0000
1000
0010
0000
0000
,  // measure 3
0100
0000
0000
0000
0000
0000
1000
0000
0000
0000
0000
0000
0100
0000
0000
0000
0000
0010
0000
0000
0010
0100
0000
0000
,  // measure 4
0011
0000
0101
0000
1010
0000
1001
0011
,  // measure 5
1100
2010
0000
0100
0000
0001
0000
3100
,  // measure 6
1010
0000
1100
0000
0011
0000
1001
0011
,  // measure 7
1100
0000
0000
0000
0000
0000
0001
0000
0000
0000
0000
0000
0100
0000
0000
0000
0000
0010
0000
0000
0010
0100
0000
0000
,  // measure 8
1010
0000
1100
0000
0011
0000
1001
1010
,  // measure 9
0101
0012
0000
0100
0000
1000
0000
0103
,  // measure 10
0011
0000
0101
0000
1010
0000
1001
1010
,  // measure 11
0101
0000
1000
0000
0100
0010
0001
1000
,  // measure 12
0100
0000
0000
0000
0000
0000
0001
0000
0000
0000
0000
0000
0100
0000
0000
0000
0000
1000
0000
0000
0001
0100
0000
0000
,  // measure 13
0100
0000
0001
0000
0100
0010
1000
0001
,  // measure 14
0100
0000
0000
0000
0000
0000
1000
0000
0000
0000
0000
0000
0100
0000
0000
0000
0000
0001
0000
0000
1000
0100
0000
0000
,  // measure 15
0100
0000
1000
0000
0100
0010
0001
1000
,  // measure 16
0100
0000
0000
0000
0000
0000
0001
0000
0000
0000
0000
0000
0100
0000
0000
0000
0000
1000
0000
0000
0001
0100
0000
0000
,  // measure 17
0100
0000
1000
0000
0100
0010
0001
1000
,  // measure 18
0100
0000
0000
0000
0000
0000
0001
0000
0000
0000
0000
0000
0100
0000
0000
0000
0000
0010
0000
0000
1000
0010
0000
0000
,  // measure 19
0100
0100
0100
0100
,  // measure 20
0010
0010
0010
0010
0010
0010
1000
0001
,  // measure 21
0100
0100
0100
0100
0100
0100
0001
0010
,  // measure 22
0001
0001
0001
0001
0001
0001
0100
0010
,  // measure 23
1000
1000
1000
1000
1000
1000
0100
0010
,  // measure 24
0001
0010
0100
0010
0001
0010
0100
0010
,  // measure 25
0100
1000
0010
1000
0100
1000
0010
1000
,  // measure 26
0001
0100
0010
0100
0001
0100
0010
0100
,  // measure 27
0010
0000
0000
1000
0000
0000
0100
0000
0000
0010
0000
0000
0120
0030
0000
0100
0000
0000
0011
0000
0000
0000
0000
0000
,  // measure 28
1001
0000
1010
0000
0101
1001
0011
0110
,  // measure 29
1000
0000
0000
0010
0000
0000
0100
0000
0000
0010
0000
1000
0000
0000
0010
0100
0000
0000
1010
0000
0000
0000
0000
0000
,  // measure 30
1100
0000
0011
0000
1001
0011
1100
0010
,  // measure 31
0001
0000
0000
0010
0000
0000
0100
0000
0000
0010
0000
0001
0000
0000
0010
0100
0000
0000
1010
0000
0000
0000
0000
0000
,  // measure 32
1001
0000
0011
0000
1100
1001
1010
0110
,  // measure 33
0001
0000
0000
0010
0000
0000
0100
0000
0000
0010
0000
0001
0000
0000
0010
0100
0000
0000
0011
0000
0000
0000
0000
0000
,  // measure 34
0101
0000
1010
0000
1001
1010
0101
0010
,  // measure 35
1000
0010
0100
1010
1001
0011
0110
0010
,  // measure 36
0001
0000
0000
0010
0000
0000
0100
0000
0000
0010
0000
0001
0000
0000
0010
0001
0000
0000
0100
0000
0000
0010
0000
0000
,  // measure 37
1000
0010
0100
0101
0011
0110
1100
0010
,  // measure 38
0001
0000
0000
0010
0000
0000
0100
0000
0000
0010
0000
0001
0000
0000
0010
0001
0000
0000
0100
0000
0000
0010
0000
0000
,  // measure 39
1000
0010
0100
0101
1001
1100
0110
0010
,  // measure 40
0001
0000
0000
0010
0000
0000
0100
0000
0000
0010
0000
0001
0000
0000
0010
0001
0000
0000
0100
0000
0000
0010
0000
0000
,  // measure 41
1000
0000
0010
0000
0100
0000
0101
0000
0011
0000
0110
0000
1100
0000
1000
0100
,  // measure 42
0000
1000
0100
0000
0110
0000
0100
0010
0000
0100
0010
0000
0011
0000
0010
0001
,  // measure 43
0000
0010
0001
0000
1001
0000
0000
0000
0110
0000
0000
0000
0000
0000
0000
0000
;

//---------------dance-single - ----------------
#NOTES:
     dance-single:
     :
     Easy:
     8:
     0.341745,0.352716,0.181228,0.063430,0.072491,264.000000,244.000000,20.000000,7.000000,0.000000,0.000000,0.341745,0.352716,0.181228,0.063430,0.072491,264.000000,244.000000,20.000000,7.000000,0.000000,0.000000:
// measure 0
0100
0000
0001
0000
0100
0000
1000
1000
,  // measure 1
0100
0000
1000
0000
0100
0000
0001
0001
,  // measure 2
0100
0000
0001
0000
0100
0000
1000
1000
,  // measure 3
0100
0000
1000
0000
0100
0000
0001
0001
,  // measure 4
0100
0000
0100
0000
0100
0000
0010
0010
,  // measure 5
1000
0001
0000
0001
0000
1000
0000
1000
,  // measure 6
0100
0000
0100
0000
0100
0000
0010
0001
,  // measure 7
0100
0000
0001
0000
1000
0000
0001
1000
,  // measure 8
0010
0000
0010
0000
0010
0000
0100
0100
,  // measure 9
0001
1000
0000
1000
0000
0001
0000
0001
,  // measure 10
0010
0000
0010
0000
0010
0000
0100
1000
,  // measure 11
0010
0000
0100
0000
0001
0010
0100
1000
,  // measure 12
0001
0000
0000
0000
0000
0000
1000
0000
0000
0000
0000
0000
0001
0000
0000
0000
0000
1000
0000
0000
0001
1000
0000
0000
,  // measure 13
0001
0000
0000
0000
0000
0000
1000
0000
0000
0000
0000
0000
0001
0000
0000
0000
0000
1000
0000
0000
0001
1000
0000
0000
,  // measure 14
0100
0000
0001
0000
0100
0000
1000
1000
,  // measure 15
0100
0000
1000
0000
0100
0010
0001
1000
,  // measure 16
0100
0000
0000
0000
0000
0000
0010
0000
0000
0000
0000
0000
0100
0000
0000
0000
0000
0010
0000
0000
0100
0010
0000
0000
,  // measure 17
0001
0000
0000
0000
0000
0000
1000
0000
0000
0000
0000
0000
0001
0000
0000
0000
0000
1000
0000
0000
0001
1000
0000
0000
,  // measure 18
0001
0000
0001
0000
0100
0100
0100
0000
,  // measure 19
1000
0000
1000
0000
0100
0100
0100
0000
,  // measure 20
0010
0010
0010
0010
0010
0010
0010
0000
,  // measure 21
0010
0010
0010
0010
0010
0010
0010
0000
,  // measure 22
0010
0010
0010
0010
0010
0010
0010
0000
,  // measure 23
0010
0010
0010
0010
0010
0010
0010
0000
,  // measure 24
0010
1000
0010
1000
0001
0100
0001
0100
,  // measure 25
0010
0100
0010
0100
0001
0010
0001
0010
,  // measure 26
0100
1000
0100
1000
0001
0100
0001
0100
,  // measure 27
0010
0000
0000
1000
0000
0000
0001
0000
0000
0100
0000
0000
0020
0030
0000
0100
0000
0000
1010
0000
0000
0000
0000
0000
,  // measure 28
0011
0000
1010
0000
0100
0001
0010
0001
,  // measure 29
0000
0000
2002
0000
3003
0100
0011
0000
,  // measure 30
1010
0000
0011
0000
0001
1000
0100
0000
,  // measure 31
0000
0000
2002
0000
3003
0100
1010
0000
,  // measure 32
0011
0000
1010
0000
0100
1000
0010
1000
,  // measure 33
0000
0000
2002
0000
3003
0100
0011
0000
,  // measure 34
1010
0000
0011
0000
1000
0001
0100
0000
,  // measure 35
0000
0000
0001
0010
0100
1000
0001
0000
,  // measure 36
1000
0000
0000
0000
0000
0000
0001
0000
0000
0000
0000
1000
0000
0000
0001
1000
0000
0000
0001
0000
0000
0000
0000
0000
,  // measure 37
1000
0000
0000
0000
0000
0000
0001
0000
0000
0000
0000
1000
0000
0000
0001
1000
0000
0000
0100
0000
0000
0000
0000
0000
,  // measure 38
0001
0000
0100
0000
1000
1000
0100
0000
,  // measure 39
1000
0000
0100
0010
0001
1000
0100
0000
,  // measure 40
0010
0000
0000
0000
0000
0000
0100
0000
0000
0000
0000
0010
0000
0000
0100
0010
0000
0000
0001
0000
0000
0000
0000
0000
,  // measure 41
1000
0000
0000
0000
0000
0000
0001
0000
0000
0000
0000
1000
0000
0000
0001
1000
0000
0000
1001
0000
0000
0000
0000
0000
,  // measure 42
0100
0100
1001
0000
0100
0100
1001
0000
,  // measure 43
0110
1001
0000
0000
;

//---------------dance-single - ----------------
#NOTES:
     dance-single:
     :
     Beginner:
     6:
     0.221357,0.235144,0.018123,0.036246,0.000000,171.000000,169.000000,2.000000,4.000000,0.000000,0.000000,0.221357,0.235144,0.018123,0.036246,0.000000,171.000000,169.000000,2.000000,4.000000,0.000000,0.000000:
// measure 0
0100
0010
0100
0010
,  // measure 1
1000
0001
1000
0001
,  // measure 2
0010
0100
0010
0100
,  // measure 3
1000
0000
0001
0000
1000
0000
0001
0100
,  // measure 4
0010
0000
0010
0000
0010
0000
1000
0010
,  // measure 5
1000
0010
0000
0000
0000
0000
0000
0100
,  // measure 6
0010
0000
0010
0000
0010
0000
1000
0001
,  // measure 7
1000
0000
0000
0000
0000
0000
0000
0100
,  // measure 8
0010
0000
0010
0000
0010
0000
0001
0010
,  // measure 9
0001
0010
0000
0000
0000
0000
0000
0100
,  // measure 10
0010
0000
0010
0000
0010
0000
0001
1000
,  // measure 11
0001
0000
0000
0000
0000
1000
0100
1000
,  // measure 12
0100
0010
0010
0010
,  // measure 13
0010
0000
0000
0000
0000
0001
0100
0001
,  // measure 14
0100
0010
0010
0010
,  // measure 15
0010
0000
0000
0000
0000
1000
0100
1000
,  // measure 16
0100
0010
0010
0010
,  // measure 17
0010
0000
0000
0000
0000
0001
0100
0001
,  // measure 18
0100
0010
0010
0010
,  // measure 19
0100
0010
0010
0010
,  // measure 20
0200
0000
0010
0310
,  // measure 21
0200
0000
0010
0310
,  // measure 22
0200
0000
0010
0310
,  // measure 23
0200
0000
0010
0310
,  // measure 24
0100
0010
1000
0001
,  // measure 25
0100
0010
1000
0001
,  // measure 26
0010
0100
1000
0001
,  // measure 27
0100
0000
0010
0000
0110
0100
0010
0000
,  // measure 28
0010
0000
0010
0000
1000
0010
1000
0010
,  // measure 29
0000
0000
0000
0000
0000
0100
0010
0000
,  // measure 30
0010
0000
0010
0000
1000
0001
1000
0000
,  // measure 31
0000
0000
0000
0000
0000
0100
0010
0000
,  // measure 32
0010
0000
0010
0000
0001
0010
0001
0010
,  // measure 33
0000
0000
0000
0000
0000
0100
0010
0000
,  // measure 34
0010
0000
0010
0000
0001
1000
0001
0000
,  // measure 35
0000
0000
0000
1000
0100
1000
0100
0000
,  // measure 36
0000
0000
0000
0100
0010
0001
0100
0000
,  // measure 37
0000
0000
0000
0001
0100
0001
0100
0000
,  // measure 38
0000
0000
0000
0100
0010
1000
0100
0000
,  // measure 39
0000
0000
0000
1000
0100
1000
0100
0000
,  // measure 40
0000
0000
0000
0100
0010
0001
0100
0000
,  // measure 41
0000
0000
0000
0001
0100
0001
0100
0000
,  // measure 42
0000
0100
0000
0100
,  // measure 43
0000
0110
0000
0000
;
