#TITLE:Snowfall;
#SUBTITLE:;
#ARTIST:Arcsynth;
#TITLETRANSLIT:;
#SUBTITLETRANSLIT:;
#ARTISTTRANSLIT:;
#GENRE:;
#CREDIT:;
#BANNER:Snowfall_BN.png;
#BACKGROUND:Snowfall_BG.png;
#LYRICSPATH:;
#CDTITLE:;
#MUSIC:Snowfall.ogg;
#OFFSET:-0.032703;
#SAMPLESTART:50.240002;
#SAMPLELENGTH:12.800000;
#SELECTABLE:YES;
#BPMS:0.000000=172.000000
,167.000000=81.000000
,184.000000=86.500000
,198.000000=85.599998
,210.000000=86.500000
,214.000000=172.000000
;
#STOPS:80.000000=0.465000,
86.375000=0.230000,
93.687500=0.580000,
100.000000=0.233000,
107.375000=0.580000,
113.687500=0.230000,
121.000000=0.581000,
127.375000=0.230000,
246.000000=0.465000,
252.375000=0.230000,
259.687500=0.580000,
266.000000=0.233000,
273.375000=0.580000,
279.687500=0.230000
;
#BGCHANGES:;
#KEYSOUNDS:;
#ATTACKS:;

//---------------dance-single - B. Batche----------------
#NOTES:
     dance-single:
     B. Batche:
     Challenge:
     15:
     0.564342,0.667823,0.382050,0.053487,1.008611,517.000000,467.000000,50.000000,7.000000,159.000000,8.000000,0.564342,0.667823,0.382050,0.053487,1.008611,517.000000,467.000000,50.000000,7.000000,159.000000,8.000000:
// measure 0
0000
0000
0000
0000
,  // measure 1
0000
0000
0000
0000
,  // measure 2
0000
0000
0000
0000
,  // measure 3
0000
0000
0000
0000
,  // measure 4
1100
0000
1000
0000
0000
0001
0100
0000
0000
MMMM
0000
0000
,  // measure 5
1010
0000
1000
0000
0000
0010
0100
0000
0000
MMMM
0000
0000
,  // measure 6
0101
0000
0100
0000
0000
0010
1000
0000
0000
MMMM
0000
0000
,  // measure 7
0110
0000
0010
0000
0000
1000
0100
0000
0000
MMMM
0000
0000
,  // measure 8
0101
0000
1000
0000
0000
0100
0010
0000
0000
MMMM
0000
0000
,  // measure 9
0011
0000
1000
0000
0000
0001
0100
0000
0000
MMMM
0000
0000
,  // measure 10
1010
0000
0100
0000
0000
0010
0001
0000
0000
MMMM
0000
0000
,  // measure 11
0011
0000
1000
0000
0000
0010
0100
0000
0000
MMMM
0000
0000
,  // measure 12
1010
0000
1001
0000
0000
0100
1000
0000
0000
MMMM
0000
0000
,  // measure 13
0011
0000
1001
0000
0000
0010
0100
0000
0000
MMMM
0000
0000
,  // measure 14
0101
0000
0110
0000
0000
0010
1000
0000
0000
MMMM
0000
0000
,  // measure 15
1100
0000
1001
0000
0000
0001
0100
0000
0000
MMMM
0000
0000
,  // measure 16
1000
0010
0000
1100
0000
0000
1001
0000
0000
0101
0000
0000
,  // measure 17
0001
0010
0000
0101
0000
0000
1001
0000
0000
1100
0000
0000
,  // measure 18
0010
1000
0000
0010
0100
0000
0001
0100
0000
0001
0000
1000
,  // measure 19
0001
0000
0100
0000
0001
0000
0100
0000
0010
0000
1000
0000
0004
4000
0000
0000
0000
0000
0000
0000
0000
0000
3003
0000
,  // measure 20
0001
1000
0100
0000
0010
0001
0000
1000
0010
0000
0100
0001
,  // measure 21
0000
1000
0100
0000
1000
0010
0000
1000
0100
0010
0000
0100
,  // measure 22
1000
0000
0001
0100
0000
0010
1000
0000
0001
0010
0000
0100
,  // measure 23
1000
0000
0001
0100
0001
1000
0001
0010
0000
0100
1000
0000
,  // measure 24
1000
0001
0000
1000
0100
0000
1000
0010
0000
0001
1000
0000
,  // measure 25
0010
0001
1000
0000
0100
1000
0000
0001
0100
0000
0010
1000
,  // measure 26
0000
0001
0010
0000
0100
0010
0000
0001
1000
0000
0001
1000
,  // measure 27
0001
0000
0100
0010
0000
0100
0001
0000
1000
0100
0000
0001
,  // measure 28
0100
0000
1000
0010
0000
0100
0001
1000
0000
0100
1000
0000
,  // measure 29
0010
0100
0000
0001
0100
0000
0010
1000
0000
0001
0010
0100
,  // measure 30
1000
0100
0010
0001
1000
0010
0000
1000
0100
0000
1000
0001
,  // measure 31
0000
0000
0100
0000
0001
0000
0000
0000
0010
0000
0100
1000
0100
0000
0010
0000
0001
0000
1000
0000
0010
0000
1000
0000
,  // measure 32
0001
0000
0010
0100
0000
0010
0001
0000
1000
0010
0000
0100
,  // measure 33
0001
0000
0000
0000
1000
0000
0001
0100
0001
0000
0010
0000
0100
0000
0001
0000
1000
0000
1001
0000
0000
0000
0101
0000
,  // measure 34
0000
0000
1000
0001
0000
0000
MMMM
0000
0000
1001
0000
1100
,  // measure 35
0000
0000
0010
0001
0000
0000
MMMM
0000
0000
1010
0000
0110
,  // measure 36
0000
0000
0100
0001
0000
0000
MMMM
0000
0000
0011
0000
1001
,  // measure 37
0000
0000
0010
1000
0000
0000
MMMM
0000
0001
1000
0000
1000
,  // measure 38
0100
0000
0100
1000
0000
1000
0001
0100
0010
0100
0000
0100
,  // measure 39
0001
0000
0001
1000
0000
1000
0100
0010
0001
0100
0000
0100
,  // measure 40
0010
0000
0010
1000
0000
1000
0010
0100
0001
1000
0000
1000
,  // measure 41
0100
0000
0000
0000
0100
0000
1000
0010
1000
0000
0100
0000
0010
0000
0001
0000
0100
0000
M22M
0000
0000
M00M
0000
0000
,  // measure 42
M00M
M00M
M00M
M00M
M00M
M30M
2M0M
0M0M
,  // measure 43
0M0M
0M0M
0M0M
0M0M
0M0M
0M0M
0M02
0M00
,  // measure 44
0M00
0M00
0M00
0M00
0M00
0M03
0M0M
0M0M
,  // measure 45
0M0M
0000
0000
3M3M
0000
0000
MMMM
0000
0000
MMMM
0000
0000
M1M1
0000
0202
M0M0
0000
0000
M0M0
0000
0000
M0M0
0000
0000
,  // measure 46
M0M0
0000
0000
M0M0
0303
0000
0001
0000
0000
0000
0000
0000
0100
0000
0000
0000
0000
0000
1000
0000
0000
0000
0000
0000
,  // measure 47
0100
1000
0100
0001
,  // measure 48
0010
0001
0100
0010
,  // measure 49
1000
0000
0000
0000
1001
0000
0000
0000
1000
0000
0000
0001
0000
0000
0100
0000
,  // measure 50
0001
0000
0000
0000
0001
0000
1000
0000
0000
0000
0000
0000
1000
0000
0000
0000
1000
0000
0001
0000
0000
0000
0000
0000
0100
0000
0000
0000
0000
0000
0000
0000
0000
0010
0000
0000
0000
0000
0000
0000
0000
0000
1000
0000
0000
0000
0000
0000
,  // measure 51
0100
0000
0000
0000
0100
0000
0010
0000
0000
0000
0000
0000
0001
0000
0000
0000
0001
0000
1000
0000
0000
0000
0000
0000
0010
0000
0000
0000
0000
0000
0000
0000
0000
0100
0000
0000
0000
0000
0000
0000
0000
0000
0001
0000
0000
0000
0000
0000
,  // measure 52
0010
0000
0000
0000
1000
0000
0001
0000
0000
0000
0000
0000
0010
0000
0000
0000
0100
0000
1000
0000
0000
0000
0000
0000
0010
0000
0000
0000
0000
0000
0000
0000
0000
0100
0000
0000
0000
0000
0000
0000
0000
0000
0001
0000
0000
0000
0000
0000
,  // measure 53
1000
0000
1000
0010
0000
0010
0100
0000
0100
0001
1000
0001
1000
0000
0000
0000
1100
0000
0000
0000
0000
0000
1000
0000
,  // measure 54
0001
0000
0000
MMMM
0000
0000
0001
0000
0101
0000
0000
0001
,  // measure 55
1000
0000
0000
MMMM
0000
0000
0010
0000
1010
0000
0000
0001
,  // measure 56
0010
0000
0000
MMMM
0000
0000
0010
0000
0011
0000
0000
1000
,  // measure 57
0010
0000
0000
MMMM
0000
0000
0001
0100
0000
0101
0000
0000
,  // measure 58
1100
0000
0000
0110
0000
0000
0001
0010
0000
0110
0000
0000
,  // measure 59
1100
0000
0000
1001
0000
0000
0001
0100
0000
0010
1000
0000
,  // measure 60
0100
1000
0000
0001
0000
0100
0001
1000
0100
0010
0001
0010
,  // measure 61
0100
0000
1000
0000
0100
0000
0010
0100
0010
0000
0100
0000
1000
0000
0001
0000
0100
0000
0000
0000
1000
0000
0100
0000
,  // measure 62
0000
1000
0010
0000
0100
0001
0000
1000
0100
1000
0001
0100
,  // measure 63
0010
0100
0010
1000
0000
0001
0010
0000
0001
0100
0000
0010
,  // measure 64
1000
0000
0000
0000
0001
0000
0010
0000
0000
0000
0100
0000
1000
0100
1000
0000
0010
0000
0100
0000
0001
0000
1000
0000
,  // measure 65
0001
0100
0000
1000
0100
0000
1000
0010
0000
0100
0001
0000
,  // measure 66
1000
0100
1000
0001
0100
0010
1000
0010
0100
0000
0001
1000
,  // measure 67
0000
0000
0100
0000
1000
0000
0000
0000
0010
0000
0100
0000
0000
0000
0001
0000
1000
0000
0000
0000
0100
0000
1000
0001
,  // measure 68
1000
0010
0100
0001
1000
1000
0001
0000
0001
0100
0000
0100
,  // measure 69
0010
0000
0010
1000
0000
1000
0001
0010
0100
1000
0100
0010
,  // measure 70
0001
0100
0000
0100
0010
0000
0010
1000
0000
1000
0100
0000
,  // measure 71
0100
0000
1000
0000
0000
0000
1000
0000
0010
1000
0010
0000
0100
0000
0001
0000
0100
0000
0010
0000
1010
0000
0000
0000
,  // measure 72
0110
0000
0000
0100
0001
0000
0000
MMMM
0000
0000
0011
0000
,  // measure 73
0110
0000
0000
0100
1000
0000
0000
MMMM
0000
0000
0110
0000
,  // measure 74
0101
0000
0000
1000
0200
0000
0000
M0MM
0000
0000
0000
0000
,  // measure 75
0000
0000
0000
0000
,  // measure 76
0300
0000
0000
0000
;

//---------------dance-single - B. Batche----------------
#NOTES:
     dance-single:
     B. Batche:
     Hard:
     14:
     0.499939,0.638787,0.206307,0.045846,0.859612,458.000000,431.000000,27.000000,6.000000,165.000000,8.000000,0.499939,0.638787,0.206307,0.045846,0.859612,458.000000,431.000000,27.000000,6.000000,165.000000,8.000000:
0000
0000
0000
0000
,
0000
0000
0000
0000
,
0000
0000
0000
0000
,
0000
0000
0000
0000
,
1000
0000
0001
0000
0000
0001
1000
0000
0000
M00M
0000
0000
,
0010
0000
0100
0000
0000
0100
0010
0000
0000
0MM0
0000
0000
,
0010
0000
0001
0000
0000
0001
0100
0000
0000
0M0M
0000
0000
,
0010
0000
1000
0000
0000
1000
0100
0000
0000
MM00
0000
0000
,
0100
0000
0010
0000
0000
1000
0001
0000
0000
M00M
0000
0000
,
0010
0000
0100
0000
0000
1000
0100
0000
0000
MM00
0000
0000
,
0010
0000
0100
0000
0000
1000
0010
0000
0000
M0M0
0000
0000
,
0100
0000
0001
0000
0000
1000
0100
0000
0000
MMMM
0000
0000
,
1000
0000
0100
0000
0000
0001
0100
0000
0000
MM0M
0000
0000
,
0001
0000
0010
0000
0000
1000
0010
0000
0000
M0MM
0000
0000
,
0010
0000
1000
0000
0000
0100
1000
0000
0000
MMM0
0000
0000
,
0010
0000
0001
0000
0000
0100
0001
0000
0000
0MMM
0000
0000
,
1000
0001
0000
0101
0000
0000
1000
0000
0000
1100
0000
0000
,
0010
0110
0101
1001
,
1000
0100
0000
0100
0010
0000
0010
0001
0000
1000
0000
1000
,
0001
0000
0100
0010
0000
0100
0001
1000
0100
1000
0001
0100
,
0001
1000
0001
0000
0001
0100
0000
0100
0010
0000
0010
1000
,
0000
1000
0100
0000
0100
0010
0000
0100
0100
1000
0000
1000
,
0001
0000
0001
0100
0000
0100
0010
0000
0010
1000
0000
1000
,
0100
0000
0100
1000
0000
0001
0100
0001
0000
0001
0100
0000
,
0100
0010
0000
0010
1000
0000
1000
0010
0000
0010
0100
0000
,
0100
0001
1000
0000
1000
0100
0000
0100
1000
0000
1000
0001
,
0000
0001
0100
0000
0100
0010
0000
0010
0100
0000
0001
1000
,
0100
0000
0100
1000
0000
0001
0100
0000
0100
0001
0000
0010
,
0100
0000
0100
0010
0000
0001
0010
0100
0000
0100
0010
0000
,
0001
1000
0000
1000
0010
0000
0100
0001
0000
0001
1000
0000
,
0100
1000
0000
0010
0100
0001
0000
1000
0100
0000
1000
0001
,
0000
0100
0010
0000
1000
0010
0000
0100
0001
0000
1000
0100
,
1000
0000
0010
0100
0000
0001
1000
0000
0100
1000
0000
0001
,
0100
0000
0010
1000
0000
0001
0010
0000
0100
1000
0000
0001
,
0000
0000
0100
0001
0000
0000
MM0M
0000
0000
0001
0000
1000
,
0000
0000
0100
1000
0000
0000
MM0M
0000
0000
0010
0000
0100
,
0000
0000
0001
1000
0000
0000
MMMM
0000
0000
0001
0000
1000
,
0000
0000
0100
0010
0000
0000
MMMM
0000
0000
1000
0000
1100
,
0000
0000
0100
1000
0000
0000
MMMM
0000
0000
0001
0000
0101
,
0000
0000
0100
0001
0000
0000
MMMM
0000
0000
0001
0000
1100
,
0000
0000
0010
0001
0000
0000
MMMM
0000
0000
0100
0000
0000
,
1010
0000
0000
0000
0100
0000
0001
0000
0000
0000
0001
0000
1000
0000
0000
0000
1000
0000
MMM2
0000
0000
MMM0
0000
0000
,
MMM0
MMM0
MMM0
MMM0
MMM0
MMM0
2MM0
0MM0
,
0MM0
0MM0
0MM0
0MM0
0MM0
0MM0
0M20
0M00
,
0M00
0M00
0M00
0M00
0M00
3M33
MMMM
MMMM
,
MMMM
0000
0000
MMMM
0000
0000
MMMM
0000
0000
MMMM
0000
0000
1MM1
0000
2002
0MM0
0000
0000
0MM0
0000
0000
0MM0
3003
0000
,
M01M
0100
1000
0010
1000
0001
0010
0100
,
1000
0001
0100
0001
1000
0100
0010
0001
,
0010
0100
1000
0001
0100
0010
0100
0001
,
1000
0000
0100
0000
0001
0000
0100
0000
1000
0000
0000
0010
0000
0000
1000
0000
,
0001
0000
0100
0000
0001
0000
1000
0000
0100
0000
0000
0010
0000
0000
0001
0000
,
1000
0000
0000
0000
0000
0000
0001
0000
0000
0000
0000
0000
0100
0000
0000
0000
0100
0000
0010
0000
0000
0000
1000
0000
0001
0000
0000
0000
0000
0000
0000
0000
0000
0100
0000
0000
0000
0000
0000
0000
0000
0000
0001
0000
0000
0000
0000
0000
,
1000
0000
0100
0000
0001
0000
0100
0000
1000
0000
0000
0010
0000
0000
0100
0000
,
0001
0000
0000
1000
0000
0000
0100
0000
0100
1000
0000
1000
0001
0000
0000
0000
0101
0000
0000
0000
0000
0000
0001
0000
,
1000
0000
0000
MMMM
0000
0000
1000
0000
1010
0000
0000
0010
,
0100
0000
0000
MMMM
0000
0000
0010
0000
1100
0000
0000
0001
,
0100
0000
0000
MMMM
0000
0000
0010
0000
0101
0000
0000
1000
,
0010
0000
0000
MMMM
0000
0000
1000
0100
0000
1100
0000
0000
,
0110
0000
0000
0011
0000
0000
0001
0100
0000
0101
0000
0000
,
0110
0000
0000
1010
0000
0000
1000
0100
0000
1000
0010
0000
,
1000
0001
0000
0010
0000
0100
1000
0100
1000
0001
1000
0001
,
0100
0001
0100
0010
0100
0010
1000
0001
1000
0000
1000
0010
,
0000
0010
0100
0000
0100
0001
0000
0001
0010
0000
0010
0100
,
0000
0010
0010
0001
0000
0001
1000
0000
1000
0010
0000
0010
,
0100
0000
0100
0001
0000
0001
0010
0000
0010
0001
0000
1000
,
0010
1000
0000
1000
0010
0000
0010
0100
0000
0100
0001
0000
,
0001
0100
0000
0100
0010
0000
0010
1000
0001
0000
0001
0010
,
0000
0010
0001
0000
0001
1000
0000
1000
0010
0000
0010
0100
,
0000
0100
0010
0000
1000
0001
0010
0000
0010
0001
0000
1000
,
0010
0000
0010
1000
0000
0100
0010
0000
0010
0100
0000
1000
,
0100
0010
0000
0010
0100
0000
1000
0001
0000
0001
0100
0000
,
0010
1000
0000
1000
0001
0000
0010
0001
0000
1000
1010
0000
,
1100
0000
0000
0001
1000
0000
0000
MMMM
0000
0000
0011
0000
,
0101
0000
0000
0001
1000
0000
0000
MMMM
0000
0000
1010
0000
,
0110
0000
0000
0100
0002
0000
0000
MMM0
0000
0000
0000
0000
,
0000
0000
0000
0000
,
0003
0000
0000
0000
;

//---------------dance-single - B. Batche----------------
#NOTES:
     dance-single:
     B. Batche:
     Medium:
     11:
     0.366768,0.493608,0.481383,0.045846,0.557793,336.000000,273.000000,63.000000,6.000000,69.000000,0.000000,0.366768,0.493608,0.481383,0.045846,0.557793,336.000000,273.000000,63.000000,6.000000,69.000000,0.000000:
0000
0000
0000
0000
,
0000
0000
0000
0000
,
0000
0000
0000
0000
,
0000
0000
0000
0000
,
1000
0000
1000
0000
0000
0000
0101
0000
0000
0000
0000
0000
,
0001
0000
0001
0000
0000
0000
1010
0000
0000
0000
0000
0000
,
0100
0000
0100
0000
0000
0000
1010
0000
0000
0000
0000
0000
,
0001
0000
0001
0000
0000
0000
1100
0000
0000
0000
0000
0000
,
0010
0000
0100
0000
0000
0000
0011
0000
0000
0000
0000
0000
,
0100
0000
1000
0000
0000
0000
0101
0000
0000
0000
0000
0000
,
0010
0000
1000
0000
0000
0000
0011
0000
0000
0000
0000
0000
,
0100
0000
1000
0000
0000
0000
0101
0000
0000
0000
0000
0000
,
0010
0000
1000
0000
0000
0000
1001
0000
0000
0000
0000
0000
,
0010
0000
0001
0000
0000
0000
1001
0000
0000
0000
0000
0000
,
0100
0000
1000
0000
0000
0000
0110
0000
0000
0000
0000
0000
,
0100
0000
0001
0000
0000
0000
0110
0000
0000
0000
0000
0000
,
0100
1010
0100
0011
,
1000
0101
0010
1100
,
1001
0101
0110
1010
,
1001
0000
0000
0110
0000
0000
4000
0004
0000
0000
0000
3003
,
0100
0000
1000
0000
0000
0100
0000
0000
1000
0000
0000
0010
,
0000
0000
0100
0000
0000
0001
0000
1000
0000
1000
0000
0000
,
0010
1000
0100
0010
,
0001
0000
0000
0100
0000
0001
0000
1000
0000
0000
0100
0000
,
0000
1000
0000
0000
0001
0000
0000
0100
0000
0000
1000
0000
,
0100
0000
1000
0000
0000
0100
0000
0000
0001
0000
0000
1000
,
0000
0000
0001
0000
0000
0010
0000
0000
0100
0000
1000
0000
,
0001
0101
0010
1100
,
0110
0000
0000
0001
0000
0101
0000
0010
0000
0000
1000
0000
,
0000
1100
0000
0000
0110
0000
0000
0011
0000
0000
0001
0000
,
0000
1100
0000
1001
0000
0101
0000
0000
0010
0000
0000
1100
,
0000
0000
0010
0000
0000
0001
0000
0000
1000
0000
1010
0000
,
0110
0100
0101
1000
,
1100
0000
0000
0110
0000
0000
0011
0000
0000
0010
0000
0100
,
0000
0000
0000
0011
0000
0000
0000
0000
0000
0100
0000
1000
,
0000
0000
0000
0101
0000
0000
0000
0000
0000
0010
0000
1000
,
0000
0000
0000
0011
0000
0000
0000
0000
0000
0100
0000
1000
,
0000
0000
0000
0101
0000
0000
0000
0000
0000
1000
0000
0001
,
0000
0000
0000
0101
0000
0000
0000
0000
0000
0010
0000
1000
,
0000
0000
0000
0101
0000
0000
0000
0000
0000
0010
0000
0100
,
0000
0000
0000
0101
0000
0000
0000
0000
0000
0100
0000
1000
,
0000
0000
0000
0000
1001
0000
0000
0000
0110
0000
0000
0000
20M2
0M00
00M0
0M00
,
00M0
0000
0M00
0000
00M0
0000
0M00
0000
00M0
0000
0M00
0000
00M0
0000
0M00
0000
00M0
0000
0M00
0000
00M0
0000
0M00
0003
00M2
0000
0M00
0000
00M0
0000
0M00
0000
,
00M0
0000
0M00
0000
00M0
0000
0M00
0000
00M0
0000
0M00
0000
00M0
0000
0M00
0000
00M0
0000
0M00
0000
00M0
0000
0M00
0003
00M2
0000
0M00
0000
00M0
0000
0M00
0000
,
00M0
0M00
00M0
0M00
00M0
0M00
00M0
0M00
30M3
M000
000M
0M00
00M0
M000
000M
0M00
,
00M0
0000
0000
M000
0000
0000
000M
0000
0000
0M00
0000
0000
00M0
0000
0000
M000
0000
0000
000M
0000
0000
0M00
0000
0000
001M
0000
0000
M000
0020
0000
0M00
0000
0000
000M
0000
0000
M000
0000
0000
0M00
0000
0000
000M
0000
0000
M000
0000
0000
,
1M30
1000
0001
0001
,
1000
1000
0001
0001
,
1000
1000
0001
0001
,
1000
0000
0000
0000
1000
0000
0000
0000
0001
0000
0000
0001
0000
0000
0001
0000
,
1000
0000
0000
0000
0010
0000
0000
0000
0100
0000
0000
0001
0000
0000
0100
0000
,
0010
0000
0000
0000
1000
0000
0000
0000
0001
0000
0000
0010
0000
0000
0100
0000
,
1000
0000
0000
0000
0001
0000
0000
0000
0100
0000
0000
0001
0000
0000
1000
0000
,
0100
0000
0000
1000
0000
0000
0010
0000
0000
0100
0000
0000
0001
0000
0000
0000
1000
0000
0000
0000
0000
0000
0000
0000
,
1100
0000
0000
0000
0000
0000
1000
0000
0001
0000
0000
0000
,
0101
0000
0000
0000
0000
0000
0010
0000
1000
0000
0000
0000
,
1100
0000
0000
0000
0000
0000
0010
0000
0001
0000
0000
0000
,
0101
0000
0000
0000
0000
0000
0001
1000
0000
1100
0000
0000
,
0010
0000
0000
0001
0000
0000
1000
0001
0000
0101
0000
0000
,
0010
0000
0000
1000
0000
0000
0001
1000
0000
0001
1000
0000
,
0001
1000
0000
0001
0000
0000
0010
0000
0000
0100
0000
0000
,
0001
1000
0100
0010
0100
1000
0100
0000
0001
0000
0000
0100
,
0000
0000
0001
0000
0000
0010
0000
0000
0100
0000
0000
1000
,
0000
0001
0000
1000
0000
0000
0100
0000
0000
1000
0000
0000
,
0010
0000
0000
0100
0000
0000
0001
0000
0000
0100
0000
0001
,
0000
0001
0000
0000
0100
0000
0000
0001
0000
0000
1000
0000
,
0000
0100
0000
0000
0001
0000
0100
0000
1000
0000
0000
0010
,
0000
0000
0001
0000
0000
1000
0000
0000
0001
0000
0000
0100
,
0000
0000
0010
0000
1000
0000
1000
0000
0000
1100
0000
0000
,
0010
0000
0000
0101
0000
0000
0110
0000
0000
1000
0000
1100
,
0000
0100
0000
0000
1000
0000
0000
1010
0000
0000
0110
0000
,
0000
0101
0000
0000
0001
0000
0000
1010
0000
0001
1000
0000
,
0100
0000
0000
0100
1000
0000
0000
0000
0000
0000
0001
0000
,
0100
0000
0000
0100
0001
0000
0000
0000
0000
0000
0010
0000
,
0100
0000
0000
0100
0020
0000
0000
0000
0000
0000
0000
0000
,
0000
0000
0000
0000
,
0030
0000
0000
0000
;

//---------------dance-single - B. Batche----------------
#NOTES:
     dance-single:
     B. Batche:
     Easy:
     9:
     0.259794,0.551680,0.191025,0.045846,0.259794,238.000000,213.000000,25.000000,6.000000,0.000000,0.000000,0.259794,0.551680,0.191025,0.045846,0.259794,238.000000,213.000000,25.000000,6.000000,0.000000,0.000000:
0000
0000
0000
0000
,
0000
0000
0000
0000
,
0000
0000
0000
0000
,
0000
0000
0000
0000
,
1000
0000
1000
0000
,
0001
0000
0001
0000
,
0010
0000
0010
0000
,
0100
0000
0100
0000
,
0010
0000
0010
0000
,
0100
0000
0100
0000
,
1000
0000
1000
0000
,
0001
0000
0001
0000
,
1000
0000
0100
0000
,
0001
0000
0100
0000
,
1000
0000
0010
0000
,
0001
0000
0010
0000
,
0100
0010
1000
0100
,
0010
0001
0010
0100
,
1000
0001
0100
0010
,
1000
0001
0100
0010
,
0100
0000
0001
0000
0000
1000
0000
0000
0100
0000
0000
1000
,
0000
0000
0001
0000
0000
0100
0000
0000
0000
0010
0000
0000
,
1000
0001
0100
0001
,
1000
0000
0000
0100
0000
0000
0000
0010
0000
0000
0001
0000
,
0000
1000
0000
0000
0001
0000
0000
0010
0000
0000
0100
0000
,
0000
0000
1000
0000
0000
0010
0000
0000
0100
0000
0000
0010
,
0000
0000
1000
0000
0000
0001
0000
0000
0010
0000
0000
0000
,
0100
0010
0100
1000
,
0001
0000
0000
0100
0000
0000
0000
0010
0000
0000
1000
0000
,
0000
0010
0000
0000
0100
0000
0000
0001
0000
0000
1000
0000
,
0000
0100
0000
0000
0000
0010
0000
0000
0100
0000
0000
1000
,
0000
0000
0001
0000
0000
0100
0000
0000
0010
0000
0000
0000
,
1000
0010
0100
0010
,
1000
0001
0010
0001
,
0000
0101
0000
1000
,
0000
1100
0000
0001
,
0000
0011
0000
1000
,
0000
1010
0000
0010
,
0000
0101
0000
0010
,
0000
1100
0000
0001
,
0000
0110
0000
1010
,
0000
1001
0000
0020
,
0000
0000
0000
0230
,
0000
0000
0000
0020
,
0000
0000
0000
0330
,
0000
0000
0002
0000
,
1003
0001
0100
0010
,
0100
0001
1000
0100
,
0010
0100
1000
0001
,
0100
0010
0100
0001
,
1000
0000
0100
1000
,
0001
0000
0010
0001
,
1000
0000
0010
1000
,
0001
0000
0010
0000
,
1100
0000
0010
0000
,
0101
0000
1000
0000
,
1100
0000
0001
0000
,
0011
0000
0110
0100
,
1000
0010
0110
0100
,
0001
0010
0110
1100
,
1001
0101
0110
1001
,
1000
0001
1000
0001
1000
0001
1000
0000
0001
0000
0000
1000
,
0000
0000
0010
0000
0000
1000
0000
0000
0001
0000
0000
0010
,
0000
0010
0001
1000
,
0100
1000
0001
0100
,
0000
0100
0000
0000
0001
0000
0000
1000
0000
0000
0001
0000
,
0000
0100
0000
0000
0010
0000
0000
0000
0001
0000
0000
0100
,
0000
0000
0010
0000
0000
0100
0000
0000
0001
0000
0000
1000
,
0000
0000
0100
0000
0000
0000
0010
0000
0000
0100
0000
0000
,
0010
0001
1000
0100
,
0000
0010
0000
0000
0001
0000
0000
0010
0000
0000
0100
0000
,
0000
1000
0000
0000
0001
0000
0000
0100
0000
0000
0010
0000
,
0000
0000
0000
0000
0101
0000
0000
0000
0000
0000
0010
0000
,
0000
0000
0000
0000
1100
0000
0000
0000
0000
0000
0101
0000
,
0000
0000
0000
0000
0220
0000
0000
0000
0000
0000
0000
0000
,
0000
0000
0000
0000
,
0330
0000
0000
0000
;

//---------------dance-single - B. Batche----------------
#NOTES:
     dance-single:
     B. Batche:
     Beginner:
     5:
     0.130988,0.225664,0.030564,0.000000,0.114615,120.000000,116.000000,4.000000,0.000000,0.000000,0.000000,0.130988,0.225664,0.030564,0.000000,0.114615,120.000000,116.000000,4.000000,0.000000,0.000000,0.000000:
0000
0000
0000
0000
,
0000
0000
0000
0000
,
0000
0000
0000
0000
,
0000
0000
0000
0000
,
1000
0000
0000
0000
,
0001
0000
0000
0000
,
0100
0000
0000
0000
,
0010
0000
0000
0000
,
0100
0000
0000
0000
,
0001
0000
0000
0000
,
1000
0000
0000
0000
,
0100
0000
0000
0000
,
0010
0000
0000
0000
,
0100
0000
0000
0000
,
1000
0000
0000
0000
,
0001
0000
0000
0000
,
0100
0000
0100
0000
,
0010
0000
0010
0000
,
1000
0000
1000
0000
,
0001
0000
0001
0000
,
1001
0000
0000
0000
0000
0100
0000
0000
0000
0000
0000
0100
,
0000
0000
0000
0000
0000
0100
0000
0000
0000
0000
0000
0000
,
0000
0001
0000
0001
,
0000
0000
0000
0001
0000
0000
0000
0000
0000
0000
1000
0000
,
0000
0000
0000
0000
1000
0000
0000
0000
0000
0000
1000
0000
,
0000
0000
0000
0000
0000
0000
0000
0000
0010
0000
0000
0000
,
0000
0000
0010
0000
0000
0000
0000
0000
0010
0000
0000
0000
,
0000
0100
0000
0001
,
0000
0100
0000
0000
,
0000
0010
0000
0000
0000
0000
0000
1000
0000
0000
0000
0000
,
0000
0010
0000
0000
0000
0000
0000
0000
1000
0000
0000
0000
,
0000
0000
0100
0000
0000
0000
0000
0000
1000
0000
0000
0000
,
0000
0000
0001
0000
,
0010
0000
0001
0001
,
0000
0000
0000
1000
,
0000
0000
0000
0010
,
0000
0000
0000
0100
,
0000
0000
0000
0001
,
0000
0001
0000
1000
,
0000
1000
0000
0010
,
0000
0010
0000
0100
,
0000
0100
0000
1001
,
0000
0000
0000
0000
,
0000
0000
0000
0000
,
0000
0000
0000
0000
,
0000
0000
0110
0000
,
0000
0000
0100
0000
,
0100
0000
0010
0000
,
0010
0000
1000
0000
,
1000
0000
0001
0000
,
0001
0000
0100
0000
,
0010
0000
1000
0000
,
0001
0000
0010
0000
,
0100
0000
1000
0000
,
1000
0000
0001
0000
,
0001
0000
0010
0000
,
0010
0000
0100
0000
,
0100
0000
1000
1000
,
1000
0000
0001
0001
,
0001
0000
0010
0010
,
0010
0000
0100
0100
,
0100
0000
0000
0100
0000
0000
0100
0000
0000
0000
0000
0010
,
0000
0000
0000
0000
0000
0010
0000
0000
0000
0000
0000
0010
,
0000
0000
0000
0001
,
0000
0001
0000
0001
,
0000
0000
0000
0000
1000
0000
0000
0000
0000
0000
1000
0000
,
0000
0000
0000
0000
1000
0000
0000
0000
0000
0000
0000
0000
,
0000
0000
0100
0000
0000
0000
0000
0000
0100
0000
0000
0000
,
0000
0000
0100
0000
0000
0000
0000
0000
0000
0010
0000
0000
,
0000
0001
0000
0010
,
0000
0000
0000
0000
0000
0000
0000
0100
0000
0000
0000
0000
,
0000
1000
0000
0000
0000
0000
0000
0100
0000
0000
0100
0000
,
0000
0000
0000
0000
0000
0000
0000
0000
0000
0000
0010
0000
,
0000
0000
0000
0000
0000
0000
0000
0000
0000
0000
1001
0000
;
