#VERSION:0.83;
#TITLE:SODA GALAXY;
#SUBTITLE:;
#ARTIST:KO3;
#TITLETRANSLIT:;
#SUBTITLETRANSLIT:;
#ARTISTTRANSLIT:;
#GENRE:;
#ORIGIN:;
#CREDIT:;
#BANNER:SODA GALAXY.png;
#BACKGROUND:;
#PREVIEWVID:;
#JACKET:SODA GALAXY-jacket.png;
#CDIMAGE:;
#DISCIMAGE:;
#LYRICSPATH:;
#CDTITLE:;
#MUSIC:SODA GALAXY.ogg;
#OFFSET:0.000000;
#SAMPLESTART:86.961014;
#SAMPLELENGTH:15.000000;
#SELECTABLE:YES;
#BPMS:0.000=178.000;
#STOPS:;
#DELAYS:;
#WARPS:;
#TIMESIGNATURES:0.000=4=4;
#TICKCOUNTS:0.000=4;
#COMBOS:0.000=1;
#SPEEDS:0.000=1.000=0.000=0;
#SCROLLS:0.000=1.000;
#FAKES:;
#LABELS:0.000=Song Start;
#BGCHANGES:;
#KEYSOUNDS:;
#ATTACKS:
;

//---------------dance-single - ----------------
#NOTEDATA:;
#CHARTNAME:;
#STEPSTYPE:dance-single;
#DESCRIPTION:;
#CHARTSTYLE:;
#DIFFICULTY:Challenge;
#METER:14;
#RADARVALUES:0.718889,0.891123,0.741591,0.097113,0.110356,570.000000,486.000000,84.000000,11.000000,0.000000,0.000000,0.000000,0.000000,0.000000,0.718889,0.891123,0.741591,0.097113,0.110356,570.000000,486.000000,84.000000,11.000000,0.000000,0.000000,0.000000,0.000000,0.000000;
#CREDIT:;
#NOTES:
// measure 0
0000
0000
0000
0000
,  // measure 1
0000
0000
0000
0000
,  // measure 2
0000
0000
0000
0000
,  // measure 3
0000
0000
0000
0000
,  // measure 4
0000
0000
0000
0000
,  // measure 5
0100
0000
0100
0000
1010
0000
0010
1000
,  // measure 6
0100
1000
0000
0001
0011
0000
0001
0010
,  // measure 7
0100
0000
0100
0000
0011
0000
0001
0010
,  // measure 8
0010
0100
0000
1000
0010
0100
0010
1000
,  // measure 9
1100
0000
0000
1000
0010
0000
0100
0000
0010
0000
1000
0000
0100
0000
0010
0000
,  // measure 10
0001
0000
0000
0001
0010
0000
0100
0000
0010
0000
0001
0000
0100
0000
0010
0000
,  // measure 11
1000
0000
0000
1000
0100
0000
1000
0000
0010
0000
0100
0000
0001
0000
0010
0000
,  // measure 12
0001
0000
0000
0001
0100
0000
0010
0000
1000
0000
0100
0000
0001
0000
0100
0000
,  // measure 13
1100
1000
0010
0010
0100
0001
0010
0010
,  // measure 14
0100
0010
0001
0001
0100
0010
1000
1000
,  // measure 15
0100
1000
0100
1000
0001
0100
0001
0100
0010
1000
0010
1000
0001
1000
0010
0000
,  // measure 16
0000
1001
0000
0101
0000
1000
0010
0100
,  // measure 17
0101
0000
1010
0000
0010
0100
0001
0011
,  // measure 18
0000
1100
0000
0001
1001
0000
0100
0010
,  // measure 19
0110
0000
0101
0000
1001
1000
0100
0110
,  // measure 20
0000
0011
0000
1000
1010
0000
0101
0000
,  // measure 21
1001
0000
0100
0000
1010
0100
0001
0011
,  // measure 22
0000
1100
0000
0001
1001
0010
0100
0000
,  // measure 23
1100
1000
0001
0100
0110
0010
0100
0010
,  // measure 24
0000
0101
0000
1000
1001
0001
0010
0100
,  // measure 25
0110
0000
0001
0000
0100
0000
0000
0000
0101
0000
0000
1010
0000
0000
1001
0000
,  // measure 26
0000
0010
0000
0100
1001
0000
0010
0000
,  // measure 27
1100
0000
0101
0000
0010
0100
0001
0011
,  // measure 28
0000
1100
0000
0001
1001
0100
0010
0000
,  // measure 29
0101
0000
1000
0000
1010
0100
0001
0011
,  // measure 30
0000
1001
0000
0010
0110
1000
0001
0000
,  // measure 31
0110
0010
1000
0010
0110
0100
0001
0011
,  // measure 32
0000
1100
0000
0001
0101
0010
1000
0010
,  // measure 33
0100
0001
0020
0000
0130
1000
0020
0000
,  // measure 34
0130
0001
2000
0000
3100
1000
0002
0000
,  // measure 35
0103
1000
0200
0000
0301
0010
0001
2000
,  // measure 36
0000
3020
0000
0032
0000
0013
1000
0001
,  // measure 37
0100
0000
0100
0000
1010
0000
0010
1000
,  // measure 38
0100
1000
0000
0001
0011
0000
0001
0010
,  // measure 39
0100
0000
0100
0000
0011
0000
0010
0001
,  // measure 40
0100
0001
0000
1000
0010
0100
0001
0010
,  // measure 41
0001
0000
0000
1000
0100
0001
0000
0100
,  // measure 42
0000
1000
0000
0010
0000
0100
0001
0010
,  // measure 43
0001
0000
0000
0010
0001
1000
0100
0010
,  // measure 44
0000
1000
0000
0010
0000
0000
0001
0000
,  // measure 45
1000
0000
0000
0010
0100
0001
0000
1000
,  // measure 46
0000
0100
0000
1000
0000
0010
0100
0001
,  // measure 47
1000
0000
0000
0001
1000
0001
0100
0010
,  // measure 48
0000
0100
0000
0000
0001
0100
0001
1000
,  // measure 49
1010
0000
0000
1000
0010
0100
0000
1100
,  // measure 50
0000
0101
0000
1001
0000
0100
0001
1000
,  // measure 51
0010
0000
0000
0010
1000
0001
0100
0001
,  // measure 52
0000
0011
0000
1100
0000
0000
1001
0000
,  // measure 53
0110
0000
0000
0010
0100
0001
0000
1100
,  // measure 54
0000
0101
0000
1001
0000
1000
0100
0001
,  // measure 55
0100
0000
0000
1000
0010
1000
0100
0010
,  // measure 56
0000
0011
0000
1010
0000
0000
1001
0000
,  // measure 57
0100
0010
0100
0010
1000
0010
0100
0001
,  // measure 58
0010
0100
0010
0100
1000
0100
0010
0001
,  // measure 59
1000
0010
1000
0010
0100
0001
0010
0001
,  // measure 60
1000
0100
0010
0100
1000
0010
0100
0010
,  // measure 61
1000
0100
1000
0100
0010
0001
0010
0001
,  // measure 62
1000
0010
1000
0010
0100
0001
0100
0001
,  // measure 63
1000
0100
1000
0100
0010
0100
0010
0100
0010
0001
0010
0001
1000
0001
1000
0002
,  // measure 64
2000
0000
0000
3003
0010
0100
0010
1000
,  // measure 65
0001
0010
0100
0010
0001
0100
0010
0100
,  // measure 66
0001
0010
0100
1000
0010
0100
0001
0100
,  // measure 67
0010
1000
0100
0010
0100
1000
0010
0100
,  // measure 68
0010
1000
0100
0010
0001
1000
0010
0100
,  // measure 69
0001
1000
0100
0001
0100
1000
0010
0100
,  // measure 70
0001
0010
1000
0010
0001
0100
0010
1000
,  // measure 71
0100
0001
0100
1000
0010
0001
0010
1000
,  // measure 72
0000
0101
0000
0101
0000
0101
1000
0100
,  // measure 73
0101
0000
0000
0001
0110
1000
0000
0101
,  // measure 74
0000
0101
0000
1000
1010
0100
0001
1000
,  // measure 75
1100
0000
0000
1000
0110
0001
1000
1010
,  // measure 76
0000
0011
0000
1000
1100
0000
0001
0000
,  // measure 77
0011
0000
0100
1010
0000
0100
0011
0100
,  // measure 78
1010
0000
0000
0000
0100
0000
0011
0000
0000
0000
0100
0000
1010
0000
1000
0001
,  // measure 79
0100
0000
0010
0000
1000
0000
0001
0000
1000
0100
1000
0001
0010
0001
1000
0010
,  // measure 80
0200
0000
0000
0310
;
