#TITLE:Knight Rider;
#SUBTITLE:;
#ARTIST:USAO;
#TITLETRANSLIT:;
#SUBTITLETRANSLIT:;
#ARTISTTRANSLIT:;
#GENRE:;
#CREDIT:;
#BANNER:Knight Rider-bn.png;
#BACKGROUND:Knight Rider-bg.png;
#LYRICSPATH:;
#CDTITLE:;
#MUSIC:Knight Rider.ogg;
#OFFSET:-2.825351;
#SAMPLESTART:50.819962;
#SAMPLELENGTH:13.000000;
#SELECTABLE:YES;
#DISPLAYBPM:200.000000;
#BPMS:0.000000=200.000000
,96.000000=100.000000
,112.000000=200.000000
,207.000000=100.000000
,223.000000=200.000000
;
#STOPS:112.000000=0.150000,
175.500000=0.150000,
319.000000=0.150000,
350.500000=0.150000
;
#BGCHANGES:;
#KEYSOUNDS:;
#ATTACKS:;

//---------------dance-single - ----------------
#NOTES:
     dance-single:
     :
     Hard:
     17:
     0.923298,1.335343,0.435016,0.302957,0.524349,832.000000,776.000000,56.000000,39.000000,0.000000,0.000000,0.923298,1.335343,0.435016,0.302957,0.524349,832.000000,776.000000,56.000000,39.000000,0.000000,0.000000:
0000
0000
0000
0000
,
0000
0000
0000
0000
,
0000
0000
0000
0000
,
0000
0000
0000
0000
,
0001
0100
0010
0100
0001
0010
0100
1000
,
0010
0100
0010
1000
0100
0010
0001
0010
,
0100
0000
1000
0000
0010
0000
0100
0000
0001
0000
0010
0000
0100
1000
0100
1000
,
0200
0000
0010
0000
0001
0000
1000
1000
,
1300
0010
0100
0010
1000
0100
0010
0000
,
0201
0000
1300
0100
0002
0000
0010
0000
,
0103
0010
1000
0100
0010
0100
1000
0010
,
1010
0000
0000
0000
0101
0000
0001
0000
0010
0000
0100
0000
1000
0010
1000
0010
,
0100
0001
0010
1000
0010
0001
0100
0010
,
1000
0100
0001
0100
1000
0010
0100
0000
,
0011
0100
1000
0000
1010
0100
0001
0000
,
0100
0000
0100
0000
0010
0000
0010
0000
1000
0100
0010
0001
1000
0000
0000
0000
,
0102
0010
0000
0013
2100
0010
0000
3010
,
0101
0000
0010
0000
0100
0000
1000
0000
0010
0000
0100
0000
0010
0000
1000
0100
,
0010
0000
0001
0000
0010
0000
0100
0000
1000
0000
0100
0000
1000
0010
1000
0010
,
0100
0001
0010
0100
1000
0010
0001
0000
,
0120
0100
0130
0000
2100
0010
0000
3010
,
0101
0010
0100
1000
0010
0100
0001
0010
,
0100
1000
0100
1000
0001
0010
0001
0010
0100
0010
0100
0010
0100
1000
0100
1000
,
0001
1000
0001
1000
0010
0100
0010
0100
0010
0000
0000
0000
1001
0000
0000
0000
,
0101
0000
0001
0000
0010
0000
0001
0000
0200
0000
0000
0000
0310
0000
0010
0100
0001
0000
0010
0000
0100
0000
0010
0000
0011
0000
0000
0000
1100
0000
0000
0000
,
1010
0000
1000
0000
0100
0000
1000
0000
0020
0000
0000
0000
0100
0000
0130
0010
1000
0000
0100
0000
0010
0000
0001
0000
1000
0001
1000
0000
0010
0000
0000
0000
,
0101
0001
0010
0100
0010
0001
0100
0010
1000
0100
0010
0100
1000
0010
0100
0010
,
1000
0100
0010
1000
0010
0100
1000
0010
0100
1000
0100
0010
1000
0001
0100
0100
,
1200
0300
0000
0000
0110
0000
0000
0000
0000
0000
0000
0000
0100
0000
0000
0000
0001
0000
0000
0000
0010
0000
0000
0000
0100
0000
0000
0000
0010
0000
0000
0000
,
0001
0100
0010
1000
0100
0010
0100
1000
,
0010
0000
0100
0000
0001
0000
0010
0000
1000
0000
0010
0001
0010
0001
0010
0000
,
0000
0000
0100
0000
0000
0000
1010
0000
0000
0000
1000
0000
0001
0100
0001
0000
,
0010
0100
0010
0001
0100
0010
1000
0100
,
0010
0100
1000
0010
0100
0001
0010
0100
,
0100
0000
1000
0000
0001
0000
0100
0000
0010
0000
1000
0100
0010
0001
1000
0000
,
0001
1000
0000
0110
0000
1000
0001
1001
,
0010
1000
0010
0100
0010
1000
0100
0010
,
0001
0010
0100
1000
0010
0100
0000
0001
,
0010
0001
0010
0100
0010
0001
0100
0010
,
1000
0000
0010
0000
0100
0000
0001
0000
0010
0000
0100
0000
1000
0001
0100
0000
,
0001
0011
0000
1100
1000
0010
0000
0110
,
0000
1100
0000
1010
0000
0101
0100
0010
,
1000
0200
0000
0010
0000
1000
0000
0301
,
0100
0000
0000
0000
1000
0000
0000
0000
0020
0000
0000
0000
0000
0000
0000
0000
0130
0000
0000
0000
0001
0000
0000
0000
0020
0000
0000
0000
0200
0330
0000
0000
,
1001
0100
0001
0010
0100
1000
0010
0100
,
0010
1000
0100
0010
0101
0000
1000
0100
,
1000
0010
0100
0001
0010
0100
0010
0001
,
0100
0010
1000
0100
0011
0000
0100
0000
,
1010
0000
0100
0010
0011
0000
0100
0010
,
1010
0000
0010
0100
1001
0000
0001
0000
,
0100
0020
0000
1000
0000
0001
0000
1000
,
0000
0000
0002
0000
0000
0000
0000
0000
0033
0000
0000
0000
1000
0200
0000
0320
,
0000
0000
0130
0000
1000
0000
0001
0000
0100
0000
0010
0000
0100
0000
0002
0000
0000
0000
1003
0000
0100
0010
0100
0010
0100
0000
2000
0000
0000
0000
3020
0000
,
0000
0000
0130
0000
0010
0000
0100
0000
0001
0000
0020
0000
0000
0000
0230
0000
0000
0000
1300
0000
0100
1000
0100
1000
0200
0000
0000
0000
0000
0000
0320
0000
,
0000
0000
0031
0000
0100
0000
0001
0000
1000
0000
0010
0000
0100
0000
0002
0000
0000
0000
1003
0000
0100
0010
0100
0010
0200
0000
0000
0000
0010
0000
0000
0000
,
0301
0100
1000
0000
1010
0000
0101
0000
0011
0000
1001
0000
0201
0000
0010
0000
,
0000
0010
0000
1000
0000
0310
2100
0010
,
0000
0010
0000
0001
0001
3001
0012
0100
,
0000
0100
0000
1000
0000
0103
2010
0100
,
0000
0100
0000
0001
3001
0000
1000
0100
,
0001
0100
1000
0010
0100
0001
1000
0010
,
0001
0000
0010
0000
1000
0000
0100
0000
0010
0000
0001
0000
1000
0100
1000
0100
,
0010
0001
0010
0001
1000
0100
0010
0100
1000
0010
0100
0001
0020
0000
0000
0000
,
0230
0000
2300
0000
0001
0001
3001
0100
,
1000
0100
0001
0010
0100
1000
0010
0100
,
0010
0000
1000
0000
0100
0000
0010
0000
0001
0010
0001
0010
0001
0000
0100
0000
,
0010
0100
0001
0010
0100
1000
0010
0100
,
0010
0000
1000
0000
0100
0000
0010
0000
0100
1000
0100
1000
0100
0000
0100
0000
,
0100
0000
0010
0001
0100
0010
1000
0010
,
0100
0000
0001
0000
0010
0000
0100
0000
1000
0010
1000
0010
1000
0000
0100
0000
,
0001
0000
0100
0000
1000
0000
0010
0000
0100
0000
0010
0100
0001
0000
0000
0000
,
1100
0000
0000
0000
0001
0100
0010
1000
0001
0000
0000
0000
0110
0000
0010
0000
,
1000
0010
0001
1000
0100
0010
1000
0100
,
0010
0000
0001
0000
0010
0000
0100
0000
1000
0010
0100
0010
1000
0000
0100
0000
,
0010
0100
1000
0010
0100
0001
0010
1000
,
0001
0000
0100
0000
1000
0000
0010
0000
0100
0001
1000
0001
0100
0000
0010
0000
,
1000
0100
0010
0001
0010
1000
0001
0100
,
1000
0000
0010
0000
0100
0000
0001
0000
0010
0100
1000
0100
0010
0000
0000
0000
,
0000
0000
0001
0000
0101
0000
0000
0000
0000
0000
1000
0100
0010
0000
0000
0000
,
0011
0000
0000
0000
0000
0000
0000
0000
1000
0000
0100
0000
0010
0000
0001
0000
1000
0000
0000
0000
0000
0000
0000
0000
0220
0330
0000
0000
1001
0000
0000
0000
,
0100
0000
0001
0000
0100
0000
1000
0000
0100
0000
0001
0000
0010
0000
0100
1000
,
0100
1000
0100
0000
0010
0000
0100
0010
0100
0010
0100
0000
0010
0000
0001
0000
,
0010
0000
0001
0000
1000
0000
0010
0000
1000
0000
0010
0000
0100
0000
0001
0100
,
0001
0100
0001
0000
0010
0000
0100
0010
0100
0010
0100
0000
1000
0000
1010
0000
,
0000
0100
0001
0011
0000
0010
1000
1100
,
0000
0010
0001
0101
0000
2000
0100
0100
,
3100
0002
0100
0100
0103
0001
0010
1000
,
0010
0000
0000
0000
0100
0000
1000
0000
0100
0000
1000
0000
0001
0000
0010
0000
0001
0000
0010
0000
0200
0300
0000
0000
0110
0000
0000
0000
0001
0000
0000
0000
,
0010
0001
0010
0100
1000
0010
0001
0010
,
1000
0000
0100
0000
1000
0010
0100
0001
1000
0000
0010
0000
1000
0000
0010
0000
,
0100
0001
0010
0100
1000
0010
0100
0010
,
1000
0100
0010
0001
1000
0000
0000
0000
0001
0000
0100
0000
0001
0000
0100
0000
,
1000
0100
0001
0010
0001
0010
1000
0010
,
0001
0000
0100
0000
0010
1000
0001
0100
0010
0000
1000
0000
0100
0000
0010
0000
,
0001
0000
0100
0000
0010
0000
1000
0000
0100
1000
0100
1000
0001
0010
0001
0010
,
0100
0010
0110
0000
1001
0000
0000
0000
;

//---------------dance-single - ----------------
#NOTES:
     dance-single:
     :
     Challenge:
     18:
     0.990992,1.520807,0.403943,0.349566,0.714669,893.000000,841.000000,52.000000,45.000000,0.000000,0.000000,0.990992,1.520807,0.403943,0.349566,0.714669,893.000000,841.000000,52.000000,45.000000,0.000000,0.000000:
0000
0000
0000
0000
,
0000
0000
0000
0000
,
0000
0000
0000
0000
,
0000
0000
0000
0000
,
0001
0100
1000
0100
0001
0010
0100
1000
,
0010
0001
0010
1000
0100
0010
0001
0010
,
0100
0000
1000
0000
0010
0000
0100
0000
0001
0000
0010
0000
0100
1000
0010
0100
,
0002
0000
0023
0000
2030
0000
0100
3100
,
1100
0010
0100
1000
0010
0001
0100
0000
,
0201
0000
1300
0100
0002
0000
0010
0003
,
0101
0010
1000
0100
0010
0100
1000
0010
,
1010
0000
0000
0000
0101
0000
0001
0000
0010
0000
0100
0000
1000
0010
0100
0001
,
0010
0001
0010
1000
0010
0001
0100
0010
,
1000
0100
0001
0100
1000
0010
0100
0000
,
0011
0100
1000
0010
1010
0100
0001
0010
,
0100
0000
0100
0000
0010
0000
0010
0000
0001
0100
1000
0100
0001
0000
0000
0000
,
0102
0010
0010
0013
2100
0010
0010
3010
,
0101
0000
0010
0000
0100
0000
1000
0000
0010
0000
0100
0000
0010
0000
1000
0100
,
0010
0000
0001
0000
0010
0000
0100
0000
1000
0000
0100
0000
1000
0010
0100
0010
,
1000
0000
0001
0000
0010
0000
0100
0000
1000
0000
0010
0000
0100
0001
0010
0001
,
0020
0100
0130
0000
2100
0010
0010
3010
,
0101
0010
0100
1000
0010
0100
0001
0010
,
0100
1000
0010
0100
0010
0100
0001
0010
0100
0010
0100
1000
0010
0100
0010
1000
,
0100
0010
0001
0010
0100
1000
0010
0100
0001
0000
0000
0000
1001
0000
0000
0000
,
0101
0000
0001
0000
0010
0000
0001
0000
0200
0000
0000
0000
0310
0000
0010
0100
0001
0000
0010
0000
0100
0000
0010
0000
0011
0000
0100
0000
1100
0000
0000
0000
,
1010
0000
1000
0000
0100
0000
1000
0000
0020
0000
0000
0000
0130
0010
0100
0010
2000
0000
0100
0000
3010
0100
0010
0100
2000
0000
0010
0000
3100
0001
0100
0001
,
0010
1000
0010
0001
0100
1000
0100
0010
1000
0100
0010
0100
1000
0001
0100
1000
,
0001
0010
1000
0100
0001
1000
0010
0001
0100
1000
0100
0010
1000
0001
0100
0100
,
1200
0300
0000
0000
0110
0000
0000
0000
0000
0000
0000
0000
1010
0000
0000
0000
0001
0000
0000
0000
0010
0000
0000
0000
0100
0000
0000
0000
0010
0000
0000
0000
,
0001
0000
0100
0000
0010
0000
1000
0000
0100
0000
0010
0100
0010
0100
1000
0000
,
0010
0000
0100
0000
0001
0000
0010
0000
1000
0000
0010
0001
0100
0001
0010
0000
,
0000
0000
0100
1000
0010
1000
0100
0000
0000
0000
1000
0001
0100
0010
1000
0000
,
0010
0100
0010
0001
0100
0010
1000
0100
,
0001
0010
1000
0010
0100
1000
0010
0001
,
0100
0000
1000
0000
0010
0000
0001
0000
0010
0000
1000
0100
0010
0001
1000
0000
,
0001
1000
0000
0110
0000
0100
0100
1001
,
0010
0000
1000
0000
0010
0000
0100
0000
0010
0000
1000
0100
0010
0100
1000
0000
,
0010
0000
0100
0001
1000
0001
0100
0000
0010
0000
1000
0100
0010
0001
1000
0000
,
0010
0001
0010
0100
0010
1000
0100
0010
,
0001
0000
0010
0000
0100
0000
1000
0000
0010
0000
0100
0000
0001
1000
0100
0000
,
1000
0000
1010
0000
0000
0000
0101
0000
0001
0000
0010
0100
0010
0100
1000
0000
,
0010
0000
0100
0001
0100
0001
0010
0000
0100
0000
1000
0010
0100
0001
0010
0000
,
0001
0200
0000
0010
0000
0001
0000
1300
,
0100
0000
0000
0000
0001
0000
0000
0000
0020
0000
0000
0000
0000
0000
0000
0000
0130
0000
0000
0000
1000
0000
0000
0000
0020
0000
0000
0000
0200
0330
0000
0000
,
1001
0100
0001
0010
1000
0100
0001
0100
,
1000
0010
0001
0100
1010
0000
1000
0100
,
0001
0010
0100
0001
0010
0100
0010
1000
,
0100
0010
0001
0100
1010
0000
0100
0000
,
1010
0000
0101
0001
0011
0000
0100
0010
,
1010
0000
0000
0000
0110
0000
0100
0000
1001
0000
0001
0100
0010
0000
0000
0000
,
0100
0020
0000
1000
0000
0001
0000
1000
,
0000
0000
0002
0000
0000
0000
0000
0000
0033
0000
0000
0000
1000
0200
0000
0320
,
0000
0000
0130
0000
1000
0000
0001
0000
0100
0000
0010
0000
0100
0000
0002
0000
0000
0000
1003
0000
0100
0001
0100
1000
0100
0000
2000
0000
0000
0000
3020
0000
,
0000
0000
0130
0000
0010
0000
0100
0000
0001
0000
0020
0000
0000
0000
0230
0000
0000
0000
1300
0000
0100
1000
0010
0100
0002
0000
0000
0000
0000
0000
0023
0000
,
0000
0000
0130
0000
1000
0000
0010
0000
0001
0000
0010
0000
0100
0000
0002
0000
0000
0000
1003
0000
0100
0001
0100
1000
0200
0000
0000
0000
0320
0000
0000
0000
,
0031
0000
0100
0000
1000
0000
0100
0000
0001
0000
0020
0000
0000
0000
0031
0000
0100
0010
1000
0100
0010
0001
0100
0010
0200
0000
0000
0000
0010
0000
0000
0000
,
0000
0010
0000
1000
0010
0310
2100
0010
,
0000
0000
0001
0000
0000
0000
0010
0000
3100
0001
0100
0001
0020
0000
0100
0000
,
0000
0100
0000
1000
0100
0130
2010
0100
,
0000
0000
0001
0000
0000
0000
0100
0000
3010
0001
0100
0010
1000
0000
0100
0000
,
0001
0100
1000
0010
0100
0001
1000
0010
,
0001
0000
0010
0000
1000
0000
0100
0000
0010
0000
0001
0000
1000
0100
0010
0100
,
1000
0010
0100
0001
0010
0100
0010
0001
0100
0010
1000
0100
0020
0000
0000
0000
,
0230
0000
2300
0000
0001
0001
3001
0100
,
1000
0100
0001
0010
0100
1000
0010
0100
,
0010
0000
1000
0000
0100
0000
0010
0000
0001
0010
0100
1000
0001
0000
0100
0000
,
0010
0100
0001
0010
0100
1000
0010
0100
,
0010
0000
1000
0000
0100
0000
0010
0000
0100
1000
0010
0100
0001
0000
0001
0000
,
0001
0000
0010
0001
0100
0010
1000
0010
,
0100
0000
0001
0000
0010
0000
0100
0000
1000
0010
0100
0001
0100
0000
0001
0000
,
0010
0000
1000
0000
0100
0000
0010
0000
0001
0000
0100
0010
1000
0000
0000
0000
,
1100
0000
0000
0000
0001
0100
0010
1000
0001
0000
0000
0000
0110
0000
0010
0000
,
1000
0010
0001
1000
0100
0010
1000
0100
,
0010
0000
0001
0000
0010
0000
0100
0000
1000
0010
0001
0010
1000
0000
0100
0000
,
0010
0100
1000
0010
0100
0001
0010
1000
,
0001
0000
0100
0000
1000
0000
0010
0000
1000
0100
0001
0100
1000
0000
0010
0000
,
1000
0100
0010
0001
0010
1000
0001
0100
,
1000
0000
0010
0000
0100
0000
0001
0000
0010
1000
0010
0001
0010
0000
0000
0000
,
0000
0000
0001
0000
0101
0000
0000
0000
0000
0000
1000
0100
0001
0000
0000
0000
,
0110
0000
0000
0000
0000
0000
0000
0000
0001
0000
0100
0000
0010
0000
1000
0000
0001
0000
0000
0000
0000
0000
0000
0000
0220
0330
0000
0000
1001
0000
0000
0000
,
0100
0000
0001
0000
0100
0000
1000
0000
0100
0000
0001
0000
0010
0000
0100
1000
,
0010
0100
0001
0000
0010
0000
0100
1000
0010
0100
0001
0000
0010
0000
0100
0000
,
1000
0000
0100
0000
0010
0000
0001
0000
0010
0000
1000
0000
0010
0000
0001
0100
,
0010
1000
0100
0000
0010
0000
0001
0010
0100
1000
0010
0000
0100
0000
0101
0000
,
0000
0010
0100
1100
0000
0011
1000
1100
,
0000
1010
0001
0101
0000
2001
0100
0100
,
3100
1002
0100
0100
0103
0001
0010
1000
,
0010
0000
0000
0000
0100
0000
1000
0000
0010
0000
0100
0000
0001
0000
0010
0000
1000
0000
0010
0000
0200
0300
0000
0000
0110
0000
0000
0000
0001
0000
0000
0000
,
0010
0001
0010
0100
1000
0010
0001
0010
,
1000
0000
0100
0000
1000
0010
0100
0001
1000
0000
0010
0000
1000
0000
0010
0000
,
0100
0000
0001
0000
0010
0100
1000
0010
0100
0000
0010
0000
0100
0000
0001
0000
,
0010
0100
1000
0010
0100
0010
0100
0001
0010
0000
0100
0000
1000
0000
0010
0000
,
0001
0010
1000
0100
0010
0001
0010
0001
,
0100
0000
0010
0000
1000
0000
0010
0000
0100
0001
0100
0001
1000
0100
1000
0100
,
0010
0001
0010
0001
1000
0010
1000
0010
0100
0001
1000
0100
0010
0001
0010
0100
,
1000
0001
0110
0000
1001
0000
0000
0000
;

//---------------dance-single - ----------------
#NOTES:
     dance-single:
     :
     Medium:
     14:
     0.717998,1.075693,0.388407,0.349566,0.139826,647.000000,597.000000,50.000000,45.000000,0.000000,0.000000,0.717998,1.075693,0.388407,0.349566,0.139826,647.000000,597.000000,50.000000,45.000000,0.000000,0.000000:
0000
0000
0000
0000
,
0000
0000
0000
0000
,
0000
0000
0000
0000
,
0000
0000
0000
0000
,
0001
0100
0010
0000
1000
0100
0010
0000
,
0001
0010
0100
0000
1000
0010
0100
0000
,
0010
0000
1000
0000
0100
0000
0010
0000
0001
0000
0100
0000
0010
0100
0010
0100
,
0010
0000
0000
0000
,
0100
0001
0010
0100
0010
0001
0100
0000
,
1010
0000
1000
0100
1000
0000
0110
0000
,
0100
1000
0010
0100
0010
1000
0100
0000
,
0010
0000
0001
0000
0010
0000
0001
0000
1000
0000
0000
0000
0001
0100
0001
0100
,
0001
0000
0100
0010
1000
0010
0100
0000
,
0101
0000
0010
0100
1000
0000
0011
0000
,
0100
0001
1000
0100
0010
0100
1000
0010
,
0100
0000
0010
0000
0100
0000
0010
0000
1000
0001
1000
0001
1000
0000
0000
0000
,
0002
0000
0103
0001
2000
0000
3100
1000
,
0020
0000
0130
0010
1000
0100
0010
0000
,
0011
0000
1100
0000
0010
0100
0001
0000
,
0110
2100
3001
0012
,
0103
0100
0100
0000
0010
1000
0010
0100
,
0001
0000
0100
0010
1000
0000
0001
0000
,
0010
0000
0001
0000
0100
0000
0010
0000
1000
0000
0100
0000
0010
0100
0010
0100
,
0020
0100
0130
1001
,
0110
0000
0100
0000
1001
0000
0100
0000
0001
0100
0001
1000
0100
0000
0010
0000
,
0110
0000
0100
0000
1001
0000
0100
0000
0010
1000
0100
1000
0001
0010
0100
0000
,
0100
1000
0001
0000
0100
0001
0010
0000
0100
1000
0010
0000
0100
0001
1000
0000
,
0100
0010
0100
0010
0001
0010
0001
0010
0100
1000
0010
0100
0001
0000
0010
0100
,
0220
0330
0000
0000
1001
0000
0000
0000
0000
0000
0000
0000
0100
0000
0000
0000
0001
0000
0000
0000
0010
0000
0000
0000
0100
0000
0000
0000
2000
0000
0000
0000
,
0000
3001
0100
0002
0000
0010
0000
1003
,
0000
0101
0000
0010
1000
0100
0010
0001
,
0010
0100
1000
0010
0100
0001
0100
0010
,
0000
1001
0000
0100
1000
0010
0100
0020
,
0000
0130
0001
0020
0000
1000
0000
0130
,
1000
0010
0100
0001
0100
0010
1000
0100
,
0010
0001
0010
0200
0000
0010
0000
0310
,
0000
0001
0100
1000
0100
0010
1000
0100
,
0010
0001
0010
0100
0000
0001
0000
0110
,
0000
0100
0010
1000
0010
0001
0010
0100
,
0010
1000
0100
0010
0000
1000
0000
0011
,
0000
0001
0100
1000
0100
0001
0000
0010
,
0100
1000
0000
1010
0000
0101
0000
2001
,
0000
0010
0000
0100
0000
0010
3000
0102
,
0000
0000
0000
0000
1003
0000
0000
0000
2100
0000
0000
0000
0000
0000
0000
0000
3010
0000
0000
0000
0110
0000
0000
0000
0000
0000
0000
0000
2002
3003
0000
0000
,
0110
0010
1000
0010
0100
0001
0010
0100
,
1000
0100
0010
0000
0001
0000
1001
0000
,
0010
0100
0010
1000
0010
0100
0001
0010
,
1000
0010
0001
0000
0100
0000
1010
0000
,
0102
0000
1003
0100
2000
0000
3020
0000
,
0100
0000
0032
0000
1000
0000
0013
0001
,
0100
0001
0010
1000
0100
1000
0020
0000
,
0000
0000
0000
0230
,
0000
0302
0000
2003
,
0000
0000
0000
0000
3200
0000
0000
0000
0320
0000
0000
0000
0031
0000
0000
0010
,
0000
0100
0010
0000
0001
0100
0000
0010
0000
1000
0010
0100
0001
0000
1000
0000
,
0010
1000
0100
0000
0010
0000
0101
0000
0100
0000
1000
0010
0200
0000
0010
0000
,
0000
1000
0000
0001
0000
0310
2000
0100
,
0000
0001
0000
0010
0000
3001
0020
0100
,
0000
1000
0000
0001
0000
0130
2000
0010
,
0000
0100
0000
0001
0000
3010
0100
1000
,
0100
1000
0001
0100
0001
0100
0010
1000
,
0010
1000
0001
0010
0001
0010
0100
1000
,
0001
0000
0100
0000
0010
0000
1000
0000
0100
0010
0100
0010
0200
0000
0000
0000
,
0001
0000
1000
0000
0010
0000
0310
0001
,
0100
1000
0100
0001
0010
0000
0100
1000
,
0010
0001
0010
1000
0100
0010
0001
0010
,
0100
1000
0010
0001
0010
0000
1000
0100
,
0010
0001
0100
1000
0100
0000
0100
0001
,
0010
0100
1000
0010
0100
0010
1000
0100
,
0010
0001
0100
0010
1000
0100
0010
0100
,
1000
0010
0100
0001
0010
0100
2000
0000
,
0010
0000
0001
3000
0100
0001
0011
0000
,
0110
1000
0001
0100
0010
0100
0001
0010
,
0100
1000
0010
0000
1000
0000
0011
0000
,
0100
0000
0010
0001
0010
0100
1000
0010
,
0001
0010
1000
0000
0001
0000
0110
0000
,
1000
0000
0010
1000
0100
0000
0012
0000
,
1000
0000
0100
0000
0010
0010
0023
0000
,
0100
1000
0032
0203
,
0310
0000
0000
0000
2000
0000
0000
0000
0000
0000
0000
0000
3001
0000
0000
0000
1000
0000
0000
0000
0000
0000
0000
0000
0220
0330
0000
0000
1001
0000
0000
0000
,
0100
0001
1000
0100
0010
0001
0010
1000
,
0010
0100
0000
1000
0000
0011
0000
0100
,
0000
0001
0010
1000
0010
0001
0100
0010
,
1000
0100
0000
0001
0000
1000
0000
1020
,
0000
0130
0001
0020
0000
0230
0000
0001
,
0000
1000
0000
0301
0100
1000
0010
0100
,
0010
0001
0010
0100
0010
1000
0100
0010
,
0100
0000
0000
0000
1000
0000
0000
0000
0010
0000
0000
0000
0100
0000
0010
0000
0100
0000
0010
0000
0200
0300
0000
0000
1001
0000
0000
0000
0000
0000
0000
0000
,
0100
0001
0010
0001
0100
0000
1001
0000
,
0100
1000
0010
1000
0010
0000
0101
0000
,
0010
1000
0100
0010
0100
0000
0011
0000
,
1010
0010
0100
0000
0010
0100
0001
0010
,
0100
1000
0001
0100
0001
0010
0100
1000
,
0010
0100
0001
1000
0100
0010
0100
0010
,
0100
0010
0100
0010
0110
0000
1001
0000
,
0010
0100
1001
0000
0110
0000
0000
0000
;

//---------------dance-single - ----------------
#NOTES:
     dance-single:
     :
     Easy:
     11:
     0.492722,0.667671,0.155363,0.683596,0.000000,444.000000,424.000000,20.000000,88.000000,0.000000,0.000000,0.492722,0.667671,0.155363,0.683596,0.000000,444.000000,424.000000,20.000000,88.000000,0.000000,0.000000:
// measure 0
0000
0000
0000
0000
,  // measure 1
0000
0000
0000
0000
,  // measure 2
0000
0000
0000
0000
,  // measure 3
0000
0000
0000
0000
,  // measure 4
1000
0000
0100
0000
0010
0001
0010
0000
,  // measure 5
0001
0000
0100
0000
0010
1000
0010
0000
,  // measure 6
0100
0001
0100
0000
0001
1000
0001
0000
,  // measure 7
2000
3200
0320
0032
,  // measure 8
1003
1000
0001
0001
,  // measure 9
1000
0000
0001
0100
0010
0000
0100
0000
,  // measure 10
0001
0001
1000
1000
,  // measure 11
0200
0320
0032
2003
,  // measure 12
3010
0010
0100
0100
,  // measure 13
0001
0000
1000
0001
1000
0000
0100
0000
,  // measure 14
0010
0001
0010
0000
0100
1000
0100
0000
,  // measure 15
0020
0032
0203
0310
,  // measure 16
2000
0100
3002
0100
,  // measure 17
2003
3020
0230
0302
,  // measure 18
0013
0000
0100
0000
1000
0100
1000
0000
,  // measure 19
0020
0230
0302
2003
,  // measure 20
3002
0100
2003
0100
,  // measure 21
3002
0023
0230
2300
,  // measure 22
3010
0000
0100
0000
0001
0100
0001
0000
,  // measure 23
0020
0230
2300
3001
,  // measure 24
0101
0100
0001
1000
0100
0100
0100
0000
,  // measure 25
0110
0100
1000
0010
0100
0100
0100
0000
,  // measure 26
0001
0010
0001
0010
0100
1000
0100
1000
,  // measure 27
0001
1000
0100
0010
0001
0100
0010
0010
,  // measure 28
0010
0000
0000
0100
0000
0100
0000
0001
,  // measure 29
0000
1000
0000
0100
0000
0010
0000
0110
,  // measure 30
0000
0000
0000
0010
0000
0100
0000
1100
,  // measure 31
0000
1000
0000
0010
0000
0100
0000
0101
,  // measure 32
0000
0001
0000
1000
0100
1000
0000
0001
,  // measure 33
0000
1000
0000
0001
0100
0001
0000
1000
,  // measure 34
0000
0010
0000
0100
0001
0010
0000
0200
,  // measure 35
0000
2300
0000
3020
0000
0230
0000
0301
,  // measure 36
0000
0010
0000
0100
1000
0100
0000
1000
,  // measure 37
0001
1000
0000
0001
0100
0001
0000
1000
,  // measure 38
0000
0010
0000
0100
0001
0100
0000
0001
,  // measure 39
1000
0001
0000
1000
0100
1000
0000
0001
,  // measure 40
0000
0100
0000
0010
0100
0010
0000
2000
,  // measure 41
0000
3200
0000
0320
0000
0032
0000
1003
,  // measure 42
0000
0001
0000
0100
0000
0010
0000
2000
,  // measure 43
0000
3001
2000
0000
3001
2000
0000
3100
,  // measure 44
0000
0010
0100
1000
,  // measure 45
1000
0000
0001
0100
0001
0000
1000
0000
,  // measure 46
0000
0010
0100
0001
,  // measure 47
0001
0000
1000
0100
1000
0000
0010
0000
,  // measure 48
0100
0000
0001
0010
0001
0000
2000
0000
,  // measure 49
3200
0320
0032
1003
,  // measure 50
1000
0001
0001
0220
,  // measure 51
0000
0000
0330
0200
,  // measure 52
0000
0320
0000
2030
,  // measure 53
0000
0000
3002
0000
2003
0000
3200
0010
,  // measure 54
0010
0010
0320
0001
0001
0001
0032
1000
,  // measure 55
1000
1000
1003
0100
0010
0001
2100
0000
,  // measure 56
0100
0100
3100
0102
,  // measure 57
0100
0100
0103
2010
,  // measure 58
0010
0010
3010
0012
,  // measure 59
0010
0010
0013
1200
,  // measure 60
1300
0201
0301
1020
,  // measure 61
1030
0021
0031
1100
,  // measure 62
0101
1010
0011
2002
,  // measure 63
0000
0000
3003
0100
,  // measure 64
0010
0000
1000
0100
0010
0000
0100
0000
,  // measure 65
1000
0000
0010
0100
0010
0000
0100
0000
,  // measure 66
0001
0000
0010
0100
1000
0000
0100
0000
,  // measure 67
0010
0000
0001
1000
0001
0000
0100
0010
,  // measure 68
0100
0000
0010
1000
0100
0000
0010
0100
,  // measure 69
0010
0000
0001
0100
0010
0000
1000
0000
,  // measure 70
0001
0000
0100
0010
1000
0000
0002
0000
,  // measure 71
0023
0230
2300
3001
,  // measure 72
0100
0000
0010
1000
0100
0000
0020
0000
,  // measure 73
0001
0032
1000
1003
,  // measure 74
0010
0000
0100
0001
0010
0000
0200
0000
,  // measure 75
1000
2300
0001
3001
,  // measure 76
0010
0000
0100
1000
0010
0000
0200
0000
,  // measure 77
0302
2003
3200
0310
,  // measure 78
0001
1000
0010
0200
,  // measure 79
0301
0200
0000
0301
0200
0000
0310
0000
,  // measure 80
0000
0100
0000
0001
0000
1000
0000
0100
,  // measure 81
0000
0010
0001
0010
0000
0100
0000
0000
,  // measure 82
0000
1000
0000
0001
0000
0100
0000
0010
,  // measure 83
0000
1000
0100
1000
0000
0010
0000
0100
,  // measure 84
0000
0001
0100
0001
0000
0020
0000
0230
,  // measure 85
0000
2300
0000
3002
0000
0103
0000
0100
,  // measure 86
0000
0010
0000
0010
0000
1000
0001
1000
,  // measure 87
0001
0100
0010
0100
0010
0100
0000
0000
,  // measure 88
0010
0010
1000
0000
,  // measure 89
0001
1000
0100
0000
,  // measure 90
0010
0010
0002
0203
,  // measure 91
0320
2030
3001
0010
,  // measure 92
0100
1000
0010
0000
1000
0000
0100
0000
,  // measure 93
0010
0001
0100
0000
0010
1000
0100
0000
,  // measure 94
0010
0001
0100
0000
0001
1000
0001
1000
,  // measure 95
0001
1000
0001
0000
1001
0000
0000
0000
;

//---------------dance-single - ----------------
#NOTES:
     dance-single:
     :
     Beginner:
     8:
     0.302957,0.370929,0.054377,0.108754,0.000000,273.000000,266.000000,7.000000,14.000000,0.000000,0.000000,0.302957,0.370929,0.054377,0.108754,0.000000,273.000000,266.000000,7.000000,14.000000,0.000000,0.000000:
// measure 0
0000
0000
0000
0000
,  // measure 1
0000
0000
0000
0000
,  // measure 2
0000
0000
0000
0000
,  // measure 3
0000
0000
0000
0000
,  // measure 4
1000
0000
0001
0000
,  // measure 5
1000
0000
0001
0000
,  // measure 6
0010
0100
0010
0100
,  // measure 7
0110
0000
0000
0000
,  // measure 8
0100
0100
1000
1000
,  // measure 9
0001
1000
0001
0000
,  // measure 10
0100
0100
0001
0001
,  // measure 11
1000
0001
1000
0000
,  // measure 12
0001
0001
1000
1000
,  // measure 13
0010
0100
0010
0000
,  // measure 14
1000
1000
0001
0001
,  // measure 15
0010
0100
0010
0000
,  // measure 16
0002
0000
0203
0000
,  // measure 17
0320
0100
0130
0000
,  // measure 18
0010
0100
0010
0000
,  // measure 19
1000
0001
1000
0000
,  // measure 20
2000
0000
3200
0000
,  // measure 21
0320
0100
0130
0000
,  // measure 22
0010
0100
0010
0000
,  // measure 23
0001
1000
0001
0000
,  // measure 24
0100
0000
0100
0100
,  // measure 25
0010
0000
0010
0010
,  // measure 26
1000
0000
1000
1000
,  // measure 27
0001
0000
1000
0001
,  // measure 28
1000
0000
0000
0000
0000
0000
0000
1000
,  // measure 29
0000
0000
0000
0001
0000
0100
0000
0001
,  // measure 30
0000
0000
0000
0000
0000
0000
0000
0010
,  // measure 31
0000
0000
0000
0100
0000
1000
0000
0100
,  // measure 32
0000
0000
0000
0100
0000
0000
0000
0010
,  // measure 33
0000
0000
0000
0010
0000
0000
0000
0001
,  // measure 34
0000
0000
0000
1000
0000
0000
0000
0010
,  // measure 35
0000
0100
0000
0010
0000
0100
0000
0010
,  // measure 36
0000
0000
0000
1000
0000
0000
0000
0001
,  // measure 37
0000
0100
0000
0001
0000
0000
0000
0010
,  // measure 38
0000
0000
0000
0001
0000
0000
0000
1000
,  // measure 39
0000
0100
0000
1000
0000
0000
0000
0001
,  // measure 40
0000
1000
0000
0001
0000
0000
0000
0100
,  // measure 41
0000
0010
0000
0100
0000
0000
0000
0010
,  // measure 42
0000
1000
0000
0010
0000
1000
0000
0001
,  // measure 43
0000
0100
0000
0001
0000
0100
0000
0010
,  // measure 44
0000
0000
0000
0100
,  // measure 45
0001
0100
0001
0100
,  // measure 46
0000
0000
0000
0010
,  // measure 47
1000
0010
1000
0010
,  // measure 48
0000
0100
0000
0001
,  // measure 49
1000
0001
0000
0010
,  // measure 50
0100
0010
0000
0001
,  // measure 51
1000
0001
0000
0200
,  // measure 52
0000
0320
0000
0230
,  // measure 53
0000
0320
0000
2030
,  // measure 54
0000
3002
0000
2003
,  // measure 55
0000
3002
0000
1003
,  // measure 56
0000
0000
0000
0101
,  // measure 57
0000
0000
0000
0001
,  // measure 58
0000
0000
0000
1100
,  // measure 59
0000
0000
0000
0010
,  // measure 60
0000
0010
0000
0100
,  // measure 61
0000
0100
0000
1000
,  // measure 62
0001
1000
0001
1001
,  // measure 63
0000
0000
0000
0010
,  // measure 64
0100
0010
0100
0010
,  // measure 65
1000
0001
0000
0010
,  // measure 66
0100
0010
0100
0010
,  // measure 67
0001
1000
0000
0001
,  // measure 68
0100
0001
0100
0010
,  // measure 69
1000
0001
0000
1000
,  // measure 70
0100
1000
0100
0010
,  // measure 71
0001
1000
0000
0001
,  // measure 72
1000
0001
1000
0100
,  // measure 73
0010
0100
0010
0001
,  // measure 74
0010
0001
0010
0100
,  // measure 75
1000
0010
0000
1000
,  // measure 76
0001
1000
0001
0100
,  // measure 77
0010
0100
0010
1000
,  // measure 78
0010
1000
0010
0100
,  // measure 79
0001
1000
0000
1001
,  // measure 80
0000
0000
0000
0000
0000
0010
0000
0100
,  // measure 81
0000
0010
0000
0000
0000
1001
0000
0000
,  // measure 82
0000
0000
0000
0000
0000
0100
0000
0010
,  // measure 83
0000
0100
0000
0000
0000
1001
0000
1000
,  // measure 84
0000
0001
0000
1000
0000
0010
0000
0100
,  // measure 85
0000
0010
0000
0100
0000
0001
0000
0010
,  // measure 86
0000
0100
0000
1000
0000
0001
0000
0010
,  // measure 87
0000
0100
0000
1000
0000
0001
0000
0000
,  // measure 88
0100
0100
0001
0000
,  // measure 89
1000
0100
1000
0000
,  // measure 90
0100
0100
1000
0000
,  // measure 91
0001
0100
0001
1000
,  // measure 92
0001
1000
0010
0100
,  // measure 93
0010
0100
0001
1000
,  // measure 94
0010
0100
0001
0010
,  // measure 95
0100
1000
0001
0000
;
