#TITLE:Halloween;
#SUBTITLE:(Speedy Mix);
#ARTIST:Aqua;
#TITLETRANSLIT:;
#SUBTITLETRANSLIT:;
#ARTISTTRANSLIT:;
#GENRE:;
#CREDIT:;
#BANNER:Halloween (Speedy Mix)_BN.png;
#BACKGROUND:Halloween (Speedy Mix)_BG.png;
#LYRICSPATH:;
#CDTITLE:;
#MUSIC:Halloween (Speedy Mix).mp3;
#OFFSET:0.025707;
#SAMPLESTART:43.337002;
#SAMPLELENGTH:11.871000;
#SELECTABLE:YES;
#BPMS:0.000000=164.000000
,180.000000=41.000000
,188.000000=82.000000
,196.000000=164.199997
;
#STOPS:12.000000=1.098000,
115.000000=0.366000,
196.000000=1.098000
;
#BGCHANGES:;
#KEYSOUNDS:;
#ATTACKS:;

//---------------dance-single - ----------------
#NOTES:
     dance-single:
     :
     Hard:
     13:
     0.570118,0.977775,0.215488,0.362019,0.129293,463.000000,438.000000,25.000000,42.000000,0.000000,0.000000,0.570118,0.977775,0.215488,0.362019,0.129293,463.000000,438.000000,25.000000,42.000000,0.000000,0.000000:
0000
0000
0000
0000
,
0000
0000
0000
0000
,
0000
0000
0000
0000
,
2002
3003
0100
1000
0010
0000
1010
0000
,
0100
0000
0100
0001
0010
0000
0011
0000
,
0100
0000
1000
0001
0100
0000
0001
1000
,
0100
0000
0000
0000
1000
0000
0100
0000
0010
0000
0001
0000
0010
0001
0010
0001
,
0010
0100
1000
0010
0100
0001
1000
0000
,
0001
0000
0010
0100
1000
0100
0010
0000
,
0001
0000
0100
0010
1000
0000
0100
0010
,
0001
0000
0000
0000
1000
0000
0100
0000
0010
0000
0001
0000
0010
0001
0010
0001
,
0010
0100
1000
0010
0100
0020
0000
1030
,
0000
0010
0100
0001
0010
0200
0000
1300
,
0000
0010
0200
0000
0302
0000
2003
0000
,
3100
0000
0000
0000
1000
0000
0100
0000
0010
0000
0001
0000
0010
0001
0010
0001
,
0010
0100
1000
0010
0100
0002
0000
0000
,
0000
1003
0001
1000
0010
2000
0000
0000
,
3000
0001
0100
0000
0010
0100
0010
0000
,
1010
0000
1000
0100
0010
0001
0010
0000
,
1001
0000
0100
0001
1000
0100
2000
0000
,
0001
0000
3100
1000
0020
0000
0130
0001
,
0020
0000
0130
1000
0001
0100
0002
0000
,
1000
0000
0103
0001
0010
0000
0010
0100
,
1000
0000
1000
0010
0100
0000
0101
0000
,
1010
0000
0010
1000
0200
0000
0310
0001
,
0200
0000
0310
1000
0010
1000
0001
0100
,
0001
0100
0010
1000
0100
0010
0001
0000
,
1001
0000
0010
0100
0010
1000
0100
0000
,
0100
0000
0010
0000
0011
0000
0000
1001
0000
0000
1010
0000
0220
0000
0330
0000
,
0010
1000
0010
1000
0001
0100
0001
0020
,
0000
0130
1000
0020
0000
0130
0001
2000
,
0000
0001
0000
0100
0000
0001
0000
3010
,
1000
0200
0000
0310
0001
0100
0010
1000
,
0001
0000
0011
0000
0100
1000
0010
0200
,
0000
0301
0010
0200
0000
1300
0001
2000
,
0000
0001
0000
0100
0000
0001
0000
3010
,
1000
0200
0000
0310
0001
0100
0010
0000
,
1000
0010
1000
0010
0100
0001
0100
0001
,
0010
0100
0010
0100
1000
0010
1000
0010
,
0100
0001
0100
0010
1000
0010
0100
0001
,
1000
0100
0010
0001
0010
0100
1000
0100
,
0010
0001
0010
0001
1000
0100
1000
0100
,
0010
0100
0010
0100
1000
0001
1000
0001
,
0100
0010
1000
0010
0100
0001
0100
0010
,
1000
0100
0010
0001
0010
0100
1000
0100
,
0010
0000
0000
0000
1001
0000
0000
0001
0100
0000
0100
0000
1010
0000
0000
0000
0100
0000
0000
0000
0011
0000
0000
0001
0100
0000
0100
0000
1010
0000
0000
0000
,
0001
0000
0000
0000
1100
0000
0000
0010
0001
0000
0001
0000
0110
0000
0000
0000
0100
0000
0000
0000
0101
0000
0000
0001
0010
0000
0010
0000
1100
0000
0000
0000
,
1000
0000
0100
2000
0000
3001
0100
0002
0000
1003
0100
2000
0000
3001
0100
0002
,
0000
1003
0010
0200
0000
0301
0010
0200
1300
0010
1000
0010
0100
0001
0100
0001
,
1001
0000
0010
1000
0010
1000
0001
0100
,
0001
0020
0000
0130
1000
0020
0000
0130
,
0001
2000
0000
0001
0000
0100
0000
0001
,
0000
3010
1000
0200
0000
0310
0001
0100
,
0010
1000
0001
0000
0011
0000
0100
1000
,
0010
0200
0000
0301
0010
0200
0000
1300
,
0001
2000
0000
0001
0000
0100
0000
0001
,
0000
3010
1000
0200
0000
0310
0001
0100
,
0010
2002
0000
3003
,
0110
0000
1000
0010
1000
0010
0100
0001
,
0100
0001
0010
0100
0010
0100
1000
0010
,
1000
0010
0100
0001
0100
0010
1000
0010
,
0100
0001
1000
0100
0010
0001
0010
0100
,
1000
0100
0010
0001
0010
0001
1000
0100
,
1000
0100
0010
0100
0010
0100
1000
0001
,
1000
0001
0100
0010
1000
0010
0100
0001
,
0100
0010
1000
0100
0010
0001
0010
0100
,
1000
0100
0020
0000
0000
0000
0000
0000
,
0000
0000
0000
0000
,
0000
0000
0000
0030
;

//---------------dance-single - ----------------
#NOTES:
     dance-single:
     :
     Easy:
     7:
     0.304145,0.355231,0.043098,0.103434,0.000000,247.000000,242.000000,5.000000,12.000000,0.000000,0.000000,0.304145,0.355231,0.043098,0.103434,0.000000,247.000000,242.000000,5.000000,12.000000,0.000000,0.000000:
// measure 0
0000
0000
0000
0000
,  // measure 1
0000
0000
0000
0000
,  // measure 2
0000
0000
0000
0000
,  // measure 3
1001
1000
0100
1000
,  // measure 4
0000
0001
0100
0001
,  // measure 5
0000
1000
0010
0100
,  // measure 6
0001
0010
0100
1000
,  // measure 7
0000
0001
0100
0001
,  // measure 8
0000
1000
0100
1000
,  // measure 9
0000
0010
0100
0001
,  // measure 10
0010
0100
1000
0010
,  // measure 11
0000
0001
0010
0100
,  // measure 12
0000
1000
0010
0100
,  // measure 13
0000
0001
1000
0010
,  // measure 14
0100
0001
0010
0100
,  // measure 15
0000
1000
0010
0001
,  // measure 16
0000
0001
0010
1000
,  // measure 17
0000
0010
0100
0001
,  // measure 18
0010
0100
1000
0010
,  // measure 19
0000
0001
0100
1000
,  // measure 20
0100
0001
0010
1000
,  // measure 21
0010
0001
0100
1000
,  // measure 22
0100
0001
0010
1000
,  // measure 23
0010
0001
0100
0010
,  // measure 24
1000
0010
0100
0001
,  // measure 25
1000
0100
0010
0001
,  // measure 26
0010
0100
1000
0010
,  // measure 27
0100
0001
1000
0100
,  // measure 28
0010
0001
1000
1001
,  // measure 29
0002
1000
1000
1003
,  // measure 30
0010
0100
0001
1000
,  // measure 31
0200
0010
0010
0310
,  // measure 32
0001
0100
0001
0100
,  // measure 33
0020
1000
1000
1030
,  // measure 34
0010
0100
0001
1000
,  // measure 35
0200
0010
0010
0310
,  // measure 36
0001
0100
0010
1000
,  // measure 37
0001
0100
0001
0010
,  // measure 38
0100
1000
0010
1000
,  // measure 39
0100
0010
0001
0100
,  // measure 40
0001
0010
0100
1000
,  // measure 41
0010
0100
0001
0100
,  // measure 42
0010
1000
0100
1000
,  // measure 43
0010
0100
0001
0010
,  // measure 44
0100
1000
0010
0100
,  // measure 45
0001
1000
0010
0100
,  // measure 46
0001
0001
0001
0100
1000
1000
1000
0000
,  // measure 47
1000
0100
1000
0001
,  // measure 48
0001
0100
0001
1000
,  // measure 49
0110
2000
0001
0001
,  // measure 50
3001
0100
0010
1000
,  // measure 51
0001
0020
0100
0100
,  // measure 52
0130
1000
0010
1000
,  // measure 53
0010
0200
0001
0001
,  // measure 54
0301
0100
0010
1000
,  // measure 55
0001
0020
0100
0100
,  // measure 56
0130
1000
0010
0100
,  // measure 57
0001
2002
0000
0000
,  // measure 58
3003
1000
0010
1000
,  // measure 59
0100
0010
0001
0100
,  // measure 60
0001
0010
0100
1000
,  // measure 61
0010
1000
0100
0010
,  // measure 62
0001
0100
0010
1000
,  // measure 63
0010
0100
0001
0010
,  // measure 64
0001
0100
0010
1000
,  // measure 65
0100
0010
0001
0100
,  // measure 66
0010
2002
0000
0000
,  // measure 67
0000
0000
0000
0000
,  // measure 68
0000
0000
0000
0000
0000
0000
0000
0000
0000
0000
0000
3003
0000
0000
0000
0000
;

//---------------dance-single - ----------------
#NOTES:
     dance-single:
     :
     Medium:
     10:
     0.428512,0.621655,0.508551,0.068956,0.021549,348.000000,289.000000,59.000000,8.000000,0.000000,0.000000,0.428512,0.621655,0.508551,0.068956,0.021549,348.000000,289.000000,59.000000,8.000000,0.000000,0.000000:
0000
0000
0000
0000
,
0000
0000
0000
0000
,
0000
0000
0000
0000
,
0100
1000
1100
1001
,
0100
0001
0101
1001
,
0100
1000
0010
0100
,
0001
1000
0100
0010
,
0001
1000
1010
1001
,
0100
0010
0011
1001
,
0100
0010
1000
0010
,
0100
0001
0010
0001
,
0100
0000
0010
1000
0010
1000
0000
0000
,
0100
0000
0010
0001
0010
0001
0000
0000
,
0100
1010
0100
0011
,
0100
1100
0101
1010
,
0011
0000
1000
0010
0100
0001
0000
0000
,
0000
0000
0001
0010
0100
1000
0000
0000
,
0000
0001
0100
0010
,
1000
1100
0101
1010
,
0011
0000
1000
0100
2000
0000
0001
0000
,
3001
1000
1000
0010
,
0100
0000
0001
0100
0002
0000
1000
0000
,
1003
0001
0001
0010
,
0100
0000
1000
0001
2000
0000
0010
0000
,
3010
0100
0100
0001
,
0010
0000
0001
1000
0002
0000
0100
0000
,
0103
0010
0010
1000
,
0100
0000
0010
0001
0010
0000
1100
0000
,
0010
0000
0000
0000
0100
0000
0000
0001
0000
0000
1000
0000
1001
0000
0000
0000
,
1000
0100
1000
0000
0001
0100
0001
0000
,
0010
1100
0010
0101
,
0001
0010
0001
0000
1000
0010
1000
0000
,
0100
0100
0010
0010
,
0001
0100
0001
0000
1000
0100
1000
0000
,
0010
1100
0101
1001
,
1000
0010
1000
0000
0001
0010
0001
0000
,
0010
0010
0100
0100
,
1000
1100
1001
0101
,
0010
0100
1000
0010
,
0001
0101
1001
1100
,
0010
0001
0010
0100
,
1000
1010
0110
0101
,
0010
0100
1000
0010
,
0100
0011
0110
1010
,
0010
0100
0001
0010
,
0100
0000
1000
0000
0001
0100
0001
0000
1000
0000
0100
0000
0010
0001
0010
0000
,
0100
0000
1000
0000
0001
0100
0001
0000
1000
0000
0100
0000
0010
0001
0100
0000
,
0010
1100
0010
0101
,
0010
0100
1000
0000
0010
0100
0001
0000
,
1001
0000
0001
0010
0001
0000
1000
0010
,
1000
0100
0011
0100
,
1010
0000
1000
0100
1000
0000
0001
0100
,
0001
0010
0010
0100
,
0100
0000
1000
0010
1000
0000
0001
0010
,
0001
0100
0011
1010
,
1001
0000
0001
0100
0001
0000
1000
0100
,
1000
0100
0010
0001
,
1000
0220
0000
0000
,
0330
0001
0011
1001
,
1010
0100
0010
0001
,
0100
1000
1010
1001
,
0011
0100
1000
0100
,
0010
0001
0101
0110
,
1010
0100
0010
0001
,
0100
0010
1100
0110
,
0101
0100
0010
1000
,
0100
2002
0000
0000
,
0000
0000
0000
0000
,
0000
0000
0000
0000
0000
0000
0000
0000
0000
0000
0000
3003
0000
0000
0000
0000
;

//---------------dance-single - ----------------
#NOTES:
     dance-single:
     :
     Challenge:
     14:
     0.663702,1.274070,0.586126,0.215488,0.219797,539.000000,471.000000,68.000000,25.000000,0.000000,0.000000,0.663702,1.274070,0.586126,0.215488,0.219797,539.000000,471.000000,68.000000,25.000000,0.000000,0.000000:
0000
0000
0000
0000
,
0000
0000
0000
0000
,
0000
0000
0000
0000
,
2002
3003
0010
1000
0100
0010
0001
0000
,
0101
0000
0010
0001
0100
0010
1000
0000
,
1100
0000
1000
0010
0200
0000
0301
0010
,
0200
0000
0000
0000
1300
0000
0010
0000
0100
0000
0010
0000
1000
0100
0010
0100
,
1000
0001
0010
0100
1000
0100
0011
0000
,
0101
0000
0010
0100
0001
0100
1010
0000
,
1100
0000
0010
0001
0200
0000
0310
1000
,
0200
0000
0000
0000
0310
0000
0001
0000
0010
0000
0100
0000
1000
0010
0100
0010
,
1000
0001
0102
0000
0013
0021
0000
0100
,
0000
1030
0010
0001
0100
0201
0000
0010
,
0000
0301
0011
0000
1010
0000
0101
0000
,
1001
0000
0000
0000
1000
0000
0100
0000
0010
0000
0001
0000
0010
0001
0100
0001
,
1000
0100
0010
0001
0100
0102
0000
0010
,
0000
1003
0010
1000
0100
2100
0000
0010
,
0000
3001
0100
0001
0010
0000
0100
1000
,
0010
0110
1001
0110
,
1001
0000
1000
0100
0001
0100
2000
0000
,
0010
0000
3001
0010
2000
0000
3010
0001
,
0200
0000
0301
0100
1000
0100
0002
0000
,
0010
0000
1003
0010
0002
0000
0013
1000
,
0200
0000
1300
0100
0001
0000
0101
0000
,
1100
0000
1000
0010
0001
0000
0001
0010
,
1000
0000
1000
0100
0001
0100
1000
0100
,
0001
0100
1000
0010
0100
0001
0011
0000
,
1100
0000
0010
0100
0001
0010
0110
0000
,
0100
0000
1000
0000
1010
0000
0000
0110
0000
0000
0101
0000
0011
0000
0000
0000
,
0100
1000
0100
1000
0100
1000
0010
0010
,
0000
0001
0010
0010
0000
1000
0010
0100
,
0001
0000
0011
0000
1100
0000
0101
0100
,
0010
2000
0000
3100
0010
0001
1000
0001
,
0100
0001
0100
0001
0100
0001
0010
0010
,
0000
1000
0010
0010
0000
0001
0010
0100
,
1000
0000
1010
0000
0101
0000
1100
0100
,
0010
0002
0000
0103
0010
1000
1001
0000
,
1000
0000
0100
0000
0010
0000
0100
0000
1000
0010
1000
0000
0001
0010
0001
0000
,
0010
0000
0100
0000
1000
0000
0100
0000
0010
0001
0010
0000
0100
1000
0100
0000
,
0010
0000
0001
0000
0100
0000
0010
0000
1000
0100
1000
0000
0001
0100
0001
0000
,
0010
1000
0010
0001
0010
1000
0010
0001
,
0010
0000
0100
0000
1000
0000
0100
0000
0010
0001
0100
0000
0010
1000
0100
0000
,
0010
0000
0001
0000
0010
0000
0100
0000
1000
0010
0100
0000
0001
0010
0100
0000
,
1000
0100
0010
0001
0010
0100
1000
0010
,
0001
0010
1000
0100
0001
0100
1000
0010
,
0100
0000
0000
0000
1001
0000
0000
0010
0110
0000
1100
0000
1001
0000
0000
0000
0100
0000
0000
0000
1010
0000
0000
0001
0101
0000
1010
0000
0011
0000
0000
0000
,
0100
0000
0000
0000
1001
0000
0000
0010
0110
0000
0101
0000
1001
0000
0000
0000
0100
0000
0000
0000
0011
0000
0000
1000
1100
0000
0011
0000
1001
0000
0000
0000
,
1000
0001
0101
0100
0000
1000
1100
0100
0000
0001
0101
0100
0000
1000
1100
0100
,
0010
0001
0101
0100
0010
1000
1100
0100
0010
0001
0100
1000
0100
0001
0010
0100
,
1000
0000
0100
1000
0100
1000
0100
1000
,
0010
0010
0000
0001
0010
0010
0000
1000
,
0010
0100
0001
0000
0011
0000
1100
0000
,
0101
0100
0010
2000
0000
3100
0010
0001
,
1000
0001
0100
0001
0100
0001
0100
0001
,
0010
0010
0000
1000
0010
0010
0000
0001
,
0010
0100
1000
0000
1010
0000
0101
0000
,
1100
0100
0010
0002
0000
0103
0010
1000
,
1001
0220
0000
0330
,
1001
0000
0000
0000
1000
0000
0100
0000
0010
0000
0100
0000
1000
0010
1000
0000
,
0001
0010
0001
0000
0010
0000
0100
0000
1000
0000
0100
0000
0010
0001
0010
0000
,
0100
1000
0100
0000
0010
0000
0001
0000
0100
0000
0010
0000
1000
0100
1000
0000
,
0001
0100
0001
0000
0010
0000
1000
0000
0010
0000
0001
0000
0010
0000
1000
0000
,
0010
0000
0001
0000
0010
0000
0100
0000
1000
0000
0100
0000
0010
0001
0100
0000
,
0010
1000
0100
0000
0010
0000
0001
0000
0010
0000
0100
0000
1000
0010
0100
0000
,
0001
0010
0100
0000
1000
0000
0100
0000
0010
0000
0001
0000
0010
0000
0100
0000
,
1000
0010
0001
0010
1000
0100
0001
0100
,
1000
0010
0220
0000
0000
0000
0000
0000
,
0000
0000
0000
0000
,
0000
0000
0000
0330
;

//---------------dance-single - ----------------
#NOTES:
     dance-single:
     :
     Beginner:
     4:
     0.189629,0.236821,0.025859,0.086195,0.000000,154.000000,151.000000,3.000000,10.000000,0.000000,0.000000,0.189629,0.236821,0.025859,0.086195,0.000000,154.000000,151.000000,3.000000,10.000000,0.000000,0.000000:
0000
0000
0000
0000
,
0000
0000
0000
0000
,
0000
0000
0000
0000
,
1001
0000
0100
0000
,
0100
0000
0010
0000
,
0010
0000
1000
0000
,
1000
0000
0001
0000
,
0001
0000
0010
0000
,
0100
0000
0010
0000
,
0100
0000
1000
0000
,
0001
0000
1000
0000
,
0001
0001
0001
0001
,
0000
1000
1000
1000
,
0000
0010
0010
0010
,
0000
0100
0100
0100
,
0000
0001
0000
1000
,
0000
0010
0000
0100
,
0000
0001
0001
0001
,
0000
1000
1000
1000
,
0000
0010
0010
0010
,
0010
0020
0000
0130
,
0000
0100
0100
0100
,
0100
0200
0000
0310
,
0000
1000
1000
1000
,
1000
2000
0000
3001
,
0000
0001
0001
0001
,
0001
0002
0000
1003
,
0000
0010
0000
0100
,
0000
1001
0000
0000
,
0000
0010
0000
0010
,
0000
1000
0000
0001
,
0000
0010
0000
0010
,
0000
0100
0000
1000
,
0000
0001
0000
0001
,
0000
0100
0000
0010
,
0000
1000
0000
1000
,
0000
0100
0100
0100
,
0000
0010
0010
0010
,
0000
0100
0000
0100
,
0000
1000
1000
1000
,
0000
0001
0000
0001
,
0000
0100
0100
0100
,
0000
0010
0000
0010
,
0000
1000
1000
1000
,
0000
0001
0000
0001
,
0002
0003
0200
0300
,
0020
0030
2000
3000
,
0001
0000
0001
0000
,
1000
0000
1000
0000
,
0110
0000
0010
0000
,
0010
0000
1000
0000
,
0001
0000
0010
0000
,
0010
0000
0100
0000
,
1000
0000
0001
0000
,
0001
0000
0100
0000
,
0010
0000
1000
0000
,
1000
0000
0100
0100
,
0100
0200
0000
0000
,
0300
0000
0010
0010
,
0010
0000
0100
0000
,
0100
0000
1000
1000
,
1000
0000
0001
0000
,
0001
0000
0100
0100
,
0100
0000
0010
0000
,
0010
0000
1000
1000
,
1000
0000
0001
0000
,
0001
0002
0000
0000
,
0000
0000
0000
0000
,
0000
0000
0000
0000
0000
0000
0000
0000
0000
0000
0000
0003
0000
0000
0000
0000
;
