#TITLE:BLSTR;
#SUBTITLE:;
#ARTIST:Ujico*;
#TITLETRANSLIT:;
#SUBTITLETRANSLIT:;
#ARTISTTRANSLIT:;
#GENRE:;
#CREDIT:;
#BANNER:BLSTR-bn.png;
#BACKGROUND:;
#LYRICSPATH:;
#CDTITLE:;
#MUSIC:BLSTR.ogg;
#OFFSET:0.003020;
#SAMPLESTART:73.480003;
#SAMPLELENGTH:15.000000;
#SELECTABLE:YES;
#BPMS:0.000000=159.979996
;
#STOPS:
;
#BGCHANGES:;
#KEYSOUNDS:;
#ATTACKS:;

//---------------dance-single - ----------------
#NOTES:
     dance-single:
     :
     Challenge:
     17:
     0.924444,1.067000,0.240000,0.391111,1.297778,728.000000,701.000000,27.000000,44.000000,0.000000,0.000000,0.924444,1.067000,0.240000,0.391111,1.297778,728.000000,701.000000,27.000000,44.000000,0.000000,0.000000:
0000
0000
0000
0000
,
0000
0000
0000
0000
,
0000
0000
0000
0000
,
0000
0000
0000
0000
,
0000
0000
0000
0000
,
0010
0000
0001
0000
0010
0000
1000
0000
0010
0100
1000
0000
0010
0000
0000
0000
,
0100
0000
0001
0000
0100
0000
1000
0000
0100
0001
0010
0000
0100
0000
0000
0000
,
1000
0000
0100
0000
1000
0000
0001
0000
1000
0010
0100
0000
0001
0000
0000
0000
,
0100
0000
0001
0000
1000
0000
0100
0000
0001
0100
1000
0000
1000
0010
0100
0000
,
0001
0100
0001
0100
0000
0010
1000
0000
0100
1000
0100
1000
0000
0010
0100
0000
,
0001
0010
0001
0010
0000
0100
0010
0000
0100
0000
1000
0000
0001
0000
0100
0000
,
0010
1000
0010
1000
0000
0001
0100
0000
0001
0010
0001
0010
0000
0100
1000
0000
,
0001
1000
0001
1000
0000
0010
0100
0000
0010
0000
1000
0000
0100
0000
0010
0000
,
0001
0010
0100
0010
0000
0010
0001
0000
1000
0001
0100
0000
0100
0001
1000
0000
,
0010
1000
0010
0100
0000
0100
0010
0000
1000
0100
0010
0100
1000
0001
1000
0000
,
0100
0010
0001
0010
0000
0010
0100
0000
1000
0001
0100
0000
0010
1000
0100
0000
,
0010
0001
0100
0000
0010
1000
0100
0000
0010
0001
0100
0010
1000
0100
0010
0001
,
1000
0000
0100
0010
0000
0022
0000
0033
,
0000
0000
0100
0000
1000
0000
0010
0100
0000
0000
1000
0000
0100
0000
0001
0000
,
0000
0000
0022
0000
0000
0000
0033
0000
0000
0000
0100
0000
1000
0000
0010
1000
,
0000
0202
0000
0303
0000
1000
0100
0001
,
0000
0022
0000
0033
0000
0100
1000
0001
,
0000
0000
0101
0000
0000
0000
1010
0000
0000
0000
0100
0001
0010
0000
0200
0000
,
0000
0000
0000
0300
,
0000
0000
0000
0000
1000
0100
0010
0100
1000
0010
0100
0001
0010
0100
0010
0001
,
0100
0020
0000
0000
0130
0010
0100
0010
1000
0010
0100
0010
0100
0001
0100
0010
,
1000
0100
0010
0100
0010
0100
1000
0100
0010
0001
0010
0100
2000
0000
0000
0000
,
3010
0200
0000
0000
0310
0100
0010
0100
0001
0100
0010
1000
0000
1000
0100
0001
,
0000
0001
0100
1000
0000
1000
0010
0100
0001
1000
0100
0010
0001
1000
0000
0000
,
0010
0200
0000
0000
0310
0100
0010
0100
0001
0100
0010
0100
0010
1000
0010
0100
,
0001
0010
0100
0010
0100
0010
0001
0010
0100
1000
0100
0010
0002
0000
0000
0000
,
0103
0020
0000
0000
0130
0010
0100
0010
1000
0010
0100
0001
0000
0001
0010
0100
,
0010
0000
0010
0001
0000
0001
0100
0000
0100
1000
0000
1000
0010
0100
0001
0010
,
0100
0020
0000
0000
0130
0000
1000
0000
0001
0100
0010
0000
0100
0001
1000
0000
,
2002
0000
0000
3003
0100
0000
0001
0000
0010
0100
1000
0000
0010
1000
0100
0000
,
0010
0200
0000
0000
0310
0001
0100
0000
0010
1000
0100
0010
0000
0010
0001
0100
,
0000
0100
1000
0010
0000
0010
0001
0100
0010
1000
0010
1000
0001
0100
0010
1000
,
0010
0000
0101
0000
0000
0001
0011
0000
,
0100
0000
1010
0000
0000
0100
0110
0000
,
0101
1000
1100
0001
,
0011
0000
0000
1010
0000
0000
1100
0000
0000
0101
0000
0000
0011
0000
0000
0000
,
0110
0000
0000
0000
0100
1000
0001
0100
0010
1000
0100
1000
0001
0100
1000
0100
,
0001
0010
0100
1000
0010
0100
0010
1000
0100
0010
0001
0010
0002
0000
0000
0003
,
2200
0000
0000
3300
0100
1000
0001
0100
0010
1000
0100
1000
0001
0100
0010
1000
,
0100
0001
0100
1000
0010
0100
0001
0010
1000
0010
0001
0100
0000
0000
0000
0000
,
0220
0000
0000
0330
0100
0001
1000
0100
0010
0100
1000
0001
0010
0001
0100
1000
,
0100
0001
0010
0100
1000
0010
0001
0010
1000
0100
0001
0100
0020
0000
0000
0000
,
0230
0000
0000
0000
1300
0001
0100
0001
0010
0001
0100
0001
0010
0100
1000
0100
,
0010
0001
1000
0100
0010
0001
0000
0001
0100
0001
0010
0001
0100
0010
1000
0100
,
1000
0010
1000
0010
0000
0100
0001
0000
0010
0001
0010
0001
0000
1000
0100
0000
,
0010
0100
0010
0100
0000
1000
0001
0000
1000
0010
0100
0000
0001
0010
0100
0000
,
0010
0001
0010
0001
0000
1000
0100
0000
1000
0010
1000
0010
0000
0100
0001
0000
,
0010
0100
0010
0100
0000
1000
0001
0000
0010
0001
0100
0000
0010
1000
0100
0000
,
0010
0001
0010
0100
0000
1000
0010
0000
1000
0010
0100
0010
0000
0100
0001
0000
,
0010
0100
1000
0100
0000
0010
0001
0000
1000
0100
0001
0000
0001
0100
1000
0000
,
0001
0010
0001
0010
0100
0000
1000
0000
0010
0100
0010
0100
0001
0000
1000
0000
,
0100
0010
0001
0000
0100
0010
1000
0000
0010
0000
0100
0001
0010
0000
0200
0000
,
0000
0320
0000
0000
0000
0031
0100
0020
,
0000
0000
0000
0000
0000
0000
0130
0000
0010
0000
0100
0000
0010
0000
0000
0000
0000
0000
0100
0000
0000
0000
0000
0000
0001
0000
0000
0000
0000
0000
1000
0000
0000
0000
0000
0000
0100
0000
0000
1000
0000
0000
0000
0000
0000
0001
0000
0000
,
0100
0000
0001
0000
0100
0000
0001
0000
0000
0000
0000
0000
0100
0000
0000
0010
0000
0000
0100
0000
0000
0010
0000
0000
1000
0000
0000
0010
0000
0000
0100
0000
0000
0001
0000
0000
0010
0000
0000
0100
0000
0000
0010
0000
0000
0001
0000
0000
,
1000
0000
0000
0100
0000
0000
0000
0000
0000
1000
0000
0000
0010
0000
1000
0000
0010
0000
1000
0000
0000
0001
0000
0000
0100
0000
0000
0010
0000
0000
1000
0000
0000
0001
0000
0000
0100
0000
0000
0010
0000
0000
1000
0000
0000
0001
0000
0000
,
0100
0020
0000
0000
0130
0001
1000
0100
0010
0001
0010
0100
1000
0010
0100
0010
,
0220
0330
0100
0001
1000
0100
0010
0001
0010
0100
1000
0001
0100
0010
1000
0000
,
2020
3030
0100
1000
0100
1000
2002
3003
0100
0001
0100
0001
2002
3003
0000
0000
,
0220
0000
0000
0330
0100
1000
0001
0100
0010
1000
0100
0010
0001
0100
0010
1000
,
0002
0000
0000
0000
,
0203
0000
0000
0000
,
2300
0000
0000
0000
,
3020
0000
0030
1001
,
0001
0100
1000
0100
0001
0010
0100
1000
0100
0001
0100
1000
0010
0100
0010
1000
,
0100
0010
0001
0010
1000
0010
0001
0100
0010
1000
0010
0001
0010
1000
0100
0010
,
0001
0100
1000
0100
0001
0010
0100
1000
0010
0001
1000
0100
0001
1000
0100
0010
,
0001
0010
1000
0001
0100
1000
0010
0100
0001
0010
0100
1000
0010
0000
0000
0000
;
