#TITLE:Avenger;
#SUBTITLE:;
#ARTIST:USAO;
#TITLETRANSLIT:;
#SUBTITLETRANSLIT:;
#ARTISTTRANSLIT:;
#GENRE:;
#CREDIT:;
#BANNER:;
#BACKGROUND:;
#LYRICSPATH:;
#CDTITLE:;
#MUSIC:Avenger.ogg;
#OFFSET:0.000000;
#SAMPLESTART:78.088997;
#SAMPLELENGTH:15.000000;
#SELECTABLE:YES;
#BPMS:0.000000=200.000000
,32.000000=100.000000
,34.000000=200.000000
,190.000000=100.000000
,214.000000=200.000000
,306.000000=100.000000
,308.000000=200.000000
,316.000000=400.000000
;
#STOPS:190.000000=1.200000
;
#BGCHANGES:;
#KEYSOUNDS:;
#ATTACKS:;

//---------------dance-single - ----------------
#NOTES:
     dance-single:
     :
     Challenge:
     18:
     1.041259,1.582196,0.647209,0.115573,0.597128,946.000000,862.000000,84.000000,15.000000,0.000000,0.000000,1.041259,1.582196,0.647209,0.115573,0.597128,946.000000,862.000000,84.000000,15.000000,0.000000,0.000000:
// measure 0
0000
0000
0000
0000
,  // measure 1
0000
0000
0000
0000
,  // measure 2
0000
0000
0000
0000
,  // measure 3
0000
0000
0000
0000
,  // measure 4
0000
0000
0000
0000
,  // measure 5
0100
0000
0100
0000
0010
0000
1000
0100
1000
0000
1000
0000
0010
0000
0100
0000
,  // measure 6
0001
0010
0001
0000
0100
0000
0010
0000
1000
0000
0100
0000
0110
0000
0000
0000
,  // measure 7
1001
0000
0001
0000
1000
0000
0100
0000
0010
0001
0010
0001
1000
0100
1000
0100
,  // measure 8
0020
0000
0030
1001
0001
0100
1000
0100
,  // measure 9
1000
0100
1000
0100
0001
0100
1000
0100
,  // measure 10
0001
0010
1000
0000
1000
0100
0001
0100
,  // measure 11
0001
0100
0001
0100
1000
0100
0001
0100
,  // measure 12
1000
0010
0001
0000
0110
0110
0110
0000
,  // measure 13
0001
0100
1000
0001
0010
1000
0100
0001
,  // measure 14
1000
0000
0010
0000
0001
0000
0100
0000
0010
0100
0010
0100
0001
0100
0010
1000
,  // measure 15
0100
1000
0100
1000
0010
1000
0100
0010
0001
0000
0000
0000
0010
0000
0200
0000
,  // measure 16
0020
0000
0000
0000
0330
0000
0000
0000
1000
0100
1000
0000
0010
0000
0100
0000
,  // measure 17
0001
0100
0001
0000
1000
0010
1000
0010
0100
0001
0100
0000
0001
0010
0001
0010
,  // measure 18
0100
1000
0100
0000
1000
0001
1000
0000
0010
0100
0001
0000
0010
0000
0100
0000
,  // measure 19
0020
0000
0000
0000
0031
0000
0100
0000
1010
0000
1000
0100
0000
0000
0110
0000
,  // measure 20
0011
0000
0001
0100
0000
0000
0110
0000
1001
0000
1001
0000
1001
0000
0000
0000
,  // measure 21
1000
0100
1000
0000
0001
0010
0001
0010
0100
1000
0100
0000
1000
0010
1000
0010
,  // measure 22
0100
0001
0100
0000
0001
1000
0001
0000
0010
0100
1000
0000
0010
0000
0100
0000
,  // measure 23
0020
0000
0031
0010
1000
0000
1100
0000
,  // measure 24
2001
0000
0000
0000
3001
0100
0010
1000
0001
0100
0001
0000
0010
0000
0100
0000
,  // measure 25
0020
0000
0031
0100
0010
1000
0100
0001
,  // measure 26
0100
1000
0010
0100
0001
0001
0010
0100
,  // measure 27
1000
0100
1000
0000
0010
0000
0100
0000
0001
0100
0001
0000
0010
0000
0100
0000
,  // measure 28
1000
0000
0000
0100
0000
0000
1000
0000
0000
0000
0000
0000
0010
0000
0000
0100
0000
0000
0001
0000
0000
1000
0000
0000
0100
0000
0000
0000
0000
0000
0000
0000
0010
0000
0000
0000
0001
0000
0000
0000
0000
0000
0000
0000
1000
0000
0000
0000
,  // measure 29
0100
0000
0001
0100
0000
0010
1000
0000
0001
1000
0000
0001
,  // measure 30
0100
0010
1000
0001
0000
0001
1000
0000
1100
0000
0010
0001
,  // measure 31
0100
0000
0101
0000
0010
1000
0200
0000
0000
0000
0000
0000
,  // measure 32
0310
0000
0000
0000
0010
0001
0010
0100
,  // measure 33
0010
0001
0000
0000
1000
0000
0100
0000
0010
0000
0001
0000
0010
0000
0100
0000
,  // measure 34
1000
0010
0100
0001
0010
0100
1000
0100
,  // measure 35
0010
0001
0000
0000
1000
0000
0100
0000
1000
0000
0010
0000
0100
0000
0001
0000
,  // measure 36
0100
0000
0010
0000
1000
0000
0100
0000
0010
0000
0001
0000
0100
0001
0100
0001
,  // measure 37
0020
0000
0130
1000
0010
0100
0001
0100
,  // measure 38
1000
0000
0100
0000
0001
0000
0010
0000
0100
0000
1000
0000
0001
0100
0001
0100
,  // measure 39
0020
0000
0000
0000
0130
0000
0001
0000
1000
0100
1000
0100
0010
0001
0010
0001
,  // measure 40
1000
0100
0010
0100
1000
0001
0100
0010
0100
0000
0001
0000
0010
0000
0100
0000
,  // measure 41
1010
0000
0101
0001
1000
0100
0001
0100
,  // measure 42
1000
0010
0001
1000
0100
0100
0010
1000
,  // measure 43
0100
1000
0100
0000
0010
0000
0001
0000
0100
0001
0100
0000
0010
0000
1000
0000
,  // measure 44
0100
1000
0100
0000
0010
0000
0001
0000
1100
0000
1000
0000
0010
0000
0100
0000
,  // measure 45
0101
0001
0010
0100
1001
0100
0010
0100
,  // measure 46
1001
0000
0010
0000
0100
0000
0010
0000
0001
0100
0010
1000
0100
0010
0001
0100
,  // measure 47
0010
1000
0100
0001
0100
1000
0010
0100
0002
0003
1000
0000
0101
0000
1100
0000
,  // measure 48
0011
0000
0000
0000
1010
0000
0000
0000
1001
0000
0000
0000
0010
0000
0100
0000
0101
0000
0000
0000
1100
0000
0000
0000
0001
0100
0001
0100
0001
0000
0010
0000
,  // measure 49
0100
1000
1100
0000
0101
0000
0010
0000
1001
0000
0100
0000
1010
0000
0011
0000
,  // measure 50
0101
0000
0000
0000
1100
0000
0000
0000
1001
0000
0000
0000
0010
0000
0000
0000
0110
0000
0100
0001
0010
0000
0000
0000
0110
0000
0000
0000
1001
0000
0000
0000
,  // measure 51
0100
0000
0100
0000
0010
0000
1000
0100
1000
0100
1000
0000
0010
0000
0100
0000
0101
0000
0000
0000
0011
0000
0000
0000
0100
0000
1000
0000
1010
0000
0000
0000
,  // measure 52
0100
0001
0011
0000
0100
1000
1010
0000
1001
0000
0110
0000
0100
0001
0011
0000
,  // measure 53
0100
1000
1010
0000
0100
0000
1001
0000
0001
0100
0001
0000
0010
0000
0100
0000
,  // measure 54
0020
0000
0000
0000
0031
0000
0100
0000
0010
1000
0100
0000
0010
0000
0100
0000
,  // measure 55
0010
0001
0100
0000
0010
0000
0100
0000
0010
1000
0100
0010
0001
0100
0010
1000
,  // measure 56
0100
0010
0001
0100
0010
1000
0100
0010
0100
0000
0000
0000
0000
0000
0000
0000
,  // measure 57
0000
0000
0000
0000
0000
0000
0000
0000
1000
0100
0010
0000
0100
0000
1000
0000
,  // measure 58
0020
0000
0000
0000
1030
0000
0100
0000
0010
0000
0001
0100
0010
0000
1000
0100
,  // measure 59
0010
0000
0001
0010
0100
0000
1000
0010
0100
0000
0100
0000
0001
0000
0010
0000
,  // measure 60
0100
0001
0100
0000
1000
0000
0010
0000
0100
1000
0100
0000
0001
0000
0010
0000
,  // measure 61
0100
0001
0100
0000
1000
0010
0100
0001
1001
0000
1001
0000
1001
0000
0000
0000
,  // measure 62
0020
0000
0000
0000
0031
0000
0100
0000
0010
0000
1000
0100
0010
0000
0001
0100
,  // measure 63
0010
0000
1000
0010
0100
0000
0001
0010
0100
0000
1000
0000
0010
0000
0100
0000
,  // measure 64
1001
0000
0000
0000
0110
0000
0100
0000
0010
0000
1000
0100
0010
0000
0001
0100
,  // measure 65
0010
0000
0100
0001
0010
0000
0000
0000
1001
0000
1001
0000
1001
0000
0000
0000
,  // measure 66
0020
0000
0000
0000
1030
0000
0100
0000
0010
0000
0100
1000
0010
0000
0010
1000
,  // measure 67
0100
0000
0100
0001
0010
0000
0010
0001
0100
0000
0010
0000
1000
0000
0100
0000
,  // measure 68
0110
0000
0000
0000
1000
0000
0001
0000
0101
0000
0010
1000
0000
0000
1001
0000
,  // measure 69
0011
0000
0100
1000
0000
0000
0110
0000
0101
0000
0001
0000
1000
0000
0100
0000
,  // measure 70
0110
0010
0011
0001
1001
1000
0010
0100
,  // measure 71
0001
0000
0010
0000
0100
0000
1000
0000
0001
0100
0010
0100
0001
0010
0100
1000
,  // measure 72
0010
0100
0010
1000
0100
0010
0001
0100
0010
0000
0000
0000
0000
0000
0000
0000
,  // measure 73
0000
0000
0000
0000
0000
0000
0000
0000
1001
0000
0000
0000
0010
0001
0100
0010
,  // measure 74
0100
0000
0000
0000
0010
1000
0100
0010
0100
0000
0000
0000
0010
0001
0100
1000
,  // measure 75
0100
0000
0000
0000
0010
1000
0100
0001
0100
0000
1000
0000
0010
0000
0001
0000
,  // measure 76
1000
0100
0001
0010
0100
0000
0000
1001
,  // measure 77
0001
0000
1000
0100
1000
0000
0001
0100
0001
1000
0001
0000
1000
0000
0100
0000
,  // measure 78
0110
1001
0110
0000
,  // measure 79
0010
0100
0001
0100
0010
0100
0001
0100
,  // measure 80
0010
0100
0001
0100
0010
0100
0001
0100
,  // measure 81
0010
0100
0001
0100
0010
0100
0001
0100
,  // measure 82
0010
0100
0001
0100
0010
0000
0000
0000
,  // measure 83
1000
0010
0100
0010
1000
0010
0100
0010
,  // measure 84
1000
0010
0100
0010
1000
0010
0100
0010
,  // measure 85
1000
0000
0000
0101
0000
0000
1100
0000
,  // measure 86
1000
0001
0100
0000
0110
0000
0000
0000
,  // measure 87
0010
1000
0100
1000
0010
0000
0100
0001
,  // measure 88
0010
0000
0100
1000
0000
0001
0010
0001
,  // measure 89
0100
0001
0010
0001
0100
0000
0000
0110
,  // measure 90
0000
1001
0110
1001
,  // measure 91
0001
0010
0001
0100
,  // measure 92
0010
1000
0100
0010
,  // measure 93
0001
0100
0010
0000
1000
0100
0010
0000
,  // measure 94
0001
0100
0010
0000
1001
0000
0000
0000
,  // measure 95
1000
0100
0010
0100
1000
0010
0100
0010
,  // measure 96
1000
0100
0010
0100
1000
0010
0100
0010
,  // measure 97
1000
0100
0010
0100
1000
0010
0100
0010
,  // measure 98
1000
0100
0010
0001
1000
0000
0000
0000
,  // measure 99
0001
0100
0010
0100
0001
0010
0100
0010
,  // measure 100
0001
0100
0010
0100
0001
0010
0100
0010
,  // measure 101
0001
0000
0000
0101
0000
0000
1100
0000
,  // measure 102
0010
0001
0100
0000
0110
0000
0000
0000
,  // measure 103
1000
0100
0001
0100
1000
0100
0001
0100
,  // measure 104
1000
0000
0010
0100
0000
0010
0100
0000
,  // measure 105
0001
0100
1000
0100
0001
0000
0001
0010
,  // measure 106
0000
0100
1000
0000
0010
0000
0100
0000
,  // measure 107
0001
0010
0001
0000
0100
0000
0010
0000
,  // measure 108
1000
0100
1000
0000
0010
0000
0100
0000
,  // measure 109
0001
0010
0100
1000
0010
0100
0010
1000
,  // measure 110
0001
0010
1000
0010
0001
0100
1000
0100
,  // measure 111
0001
0000
0000
0000
;
