#TITLE:Waiwai World Dr. Slump (Arale);
#SUBTITLE:From Manga of Akira Toriyama;
#ARTIST:Ado Mizumori and Koorogi '73;
#TITLETRANSLIT:;
#SUBTITLETRANSLIT:;
#ARTISTTRANSLIT:;
#GENRE:;
#CREDIT:P-noX;
#BANNER:Banner.png;
#BACKGROUND:Bkgnd.jpg;
#LYRICSPATH:;
#CDTITLE:CDTitle.png;
#MUSIC:Slump.mp3;
#OFFSET:-0.111999;
#SAMPLESTART:31.820011;
#SAMPLELENGTH:20.000000;
#SELECTABLE:YES;
#BPMS:0.000000=132.000000
;
#STOPS:
;
#BGCHANGES:0.000=slump720.mp4=1.000=0=0=0=StretchNoLoop====,
99999=-nosongbg-=1.000=0=0=0 // don't automatically add -songbackground-
;
#KEYSOUNDS:;
#ATTACKS:;

//---------------dance-single - Hard----------------
#NOTES:
     dance-single:
     Hard:
     Hard:
     7:
     0.425212,0.450924,0.128174,0.000000,0.000000,209.000000,200.000000,9.000000,0.000000,0.000000,0.000000,0.425212,0.450924,0.128174,0.000000,0.000000,209.000000,200.000000,9.000000,0.000000,0.000000,0.000000:
// measure 0
0000
0000
0000
0000
,  // measure 1
1000
0000
0001
0000
,  // measure 2
1000
0000
0001
0000
,  // measure 3
0011
0110
1100
1001
,  // measure 4
0110
1001
0011
0110
,  // measure 5
1000
0001
0100
0010
1000
0000
0001
0000
,  // measure 6
0010
0100
1000
0001
0100
0010
1000
0001
,  // measure 7
0010
0000
0100
1000
0000
0001
0100
0010
,  // measure 8
1000
0000
0001
0010
0100
0000
1000
0000
,  // measure 9
1000
0000
0100
0010
0001
0100
0010
0000
,  // measure 10
1000
0100
0010
0001
0100
0000
0001
0000
,  // measure 11
1000
0000
0001
0100
0010
1000
0001
0000
,  // measure 12
0010
0000
0100
1000
0001
0000
0100
0000
,  // measure 13
0010
0000
1000
0001
0010
0100
1000
0000
,  // measure 14
0001
0100
0010
1000
0001
0000
0100
0000
,  // measure 15
0010
0000
1000
0001
0010
0100
1000
0000
,  // measure 16
0001
0010
0100
0000
1000
0000
0010
0001
,  // measure 17
0000
1000
0100
0000
0010
0000
0001
0100
,  // measure 18
0010
1000
0001
0000
0010
0100
1000
0001
,  // measure 19
0100
0000
0001
0000
0010
0100
1000
0001
,  // measure 20
0100
0010
1000
0000
0001
0010
0100
1000
,  // measure 21
0001
0000
0100
0000
0010
1000
0010
0100
,  // measure 22
0001
1000
1000
1000
0100
0010
0001
0100
,  // measure 23
0010
0000
1000
0000
0001
0000
0010
0100
,  // measure 24
1000
0000
0001
0000
0100
0010
0100
0010
,  // measure 25
0100
0000
0001
0000
0010
1000
0010
0001
,  // measure 26
0100
0000
0001
0000
1000
0100
1000
0001
,  // measure 27
0100
0000
0001
0000
1000
0010
1000
0000
,  // measure 28
0001
0010
0001
0010
0001
1000
0100
1000
,  // measure 29
0001
0100
0001
0010
,  // measure 30
0100
1000
0000
0000
0001
0000
1000
0000
,  // measure 31
0010
0100
0000
0000
0001
0000
0010
0000
,  // measure 32
0100
1000
0001
0000
0100
0010
1000
0001
,  // measure 33
0010
0100
1000
0001
,  // measure 34
0100
0010
0000
0000
1000
0000
0001
0000
,  // measure 35
0010
0100
0000
0000
1000
0000
0001
0000
,  // measure 36
0100
0010
1000
0001
0010
0100
1000
0010
,  // measure 37
0100
1001
0000
0000
;

//---------------dance-single - Challenge----------------
#NOTES:
     dance-single:
     Challenge:
     Challenge:
     9:
     0.537110,0.651552,0.227865,0.000000,0.192261,264.000000,248.000000,16.000000,0.000000,0.000000,0.000000,0.537110,0.651552,0.227865,0.000000,0.192261,264.000000,248.000000,16.000000,0.000000,0.000000,0.000000:
0000
0000
0000
0000
,
1001
0000
1000
0000
0001
0010
0100
0000
,
1000
0010
0100
0000
0001
1000
0010
0000
,
0011
0010
0110
0100
1100
1000
1001
0001
,
0101
0100
0110
0010
1010
1000
1001
0000
,
1000
0100
0000
0010
0001
0000
0100
0000
0010
0000
0000
0001
1000
0000
0000
0000
,
1000
0001
0000
0100
1000
0000
0001
0000
0100
0000
0010
0000
1000
0000
0001
0000
,
1000
0000
0000
0001
0100
0000
0010
0000
0000
0000
0001
0000
0100
0000
0010
0000
,
1000
0000
0000
1000
0001
0000
1000
0000
0001
0000
0000
0000
0010
0000
0000
0000
,
0100
0000
1000
0010
0100
0010
1000
0000
,
0001
1000
0001
1000
0001
0000
1000
0000
0001
0000
0000
0000
1000
0000
0000
0000
,
0001
0000
0000
0010
0100
0000
1000
0000
0000
0000
0001
0000
1000
0000
0000
0000
,
0001
0000
0010
0100
1000
0000
1000
0000
,
0001
0000
0100
0010
1000
0001
0010
0000
,
0100
1000
0010
0100
0001
0000
1000
0000
,
0001
0000
0000
0001
1000
0000
0100
0000
0010
0000
0001
1000
0100
0000
0000
1000
,
0001
0010
0100
0000
1000
0001
1000
0001
,
1000
0001
0000
0001
1000
0000
0001
0000
1000
0000
0000
0000
0001
0000
0010
0000
,
0100
1000
0001
0000
0100
0010
1000
0001
,
0010
0000
0100
0000
1000
0100
0010
0001
,
0100
1000
0100
0000
0001
0010
0100
1000
,
0010
0000
0100
0000
0001
0010
0100
1000
,
0010
1001
1001
1001
1000
0100
0010
0001
,
0100
0000
0010
0100
0010
0000
0000
0000
1000
0000
0000
0000
0001
0000
0010
0000
,
0100
1000
0001
0000
0100
0010
1000
0001
,
0010
0000
0100
0000
1000
0010
0001
0010
,
1000
0100
0010
0000
0001
0100
0010
1000
,
0001
0000
0010
0000
0100
1000
0001
1000
,
0001
0110
0110
0110
1000
0001
0010
0100
,
1000
0000
0001
1000
0001
0000
0000
0000
1000
0000
0100
0000
0010
0000
0000
1000
,
0001
0000
1000
0000
0000
0000
0000
0000
0010
0000
0000
0010
0100
0000
0001
0000
,
1000
0000
0100
0000
0000
0000
0000
0000
1000
0000
0000
1000
0100
0000
0010
0000
,
0001
0000
0100
0000
0010
0000
0000
0000
1000
0001
0000
0001
0010
0000
0100
0000
,
0001
0000
0000
0000
1000
0000
0000
0000
0001
0000
0000
0000
0010
0100
0000
1000
,
0100
0000
1000
0000
0000
0000
0000
0000
0001
0000
0000
0010
0100
0000
0000
0100
,
0010
0000
1000
0000
0000
0000
0000
0000
0001
0000
0000
0000
0010
0000
0000
0001
,
0100
1000
0001
0100
0010
1000
0001
0010
,
0100
1001
0000
0000
,
0000
1000
0000
0000
0000
0000
0000
0000
,
;
