#TITLE:NEW Super Mario Bros.;
#SUBTITLE:From Nintendo DS Game;
#ARTIST:近藤浩治;
#TITLETRANSLIT:;
#SUBTITLETRANSLIT:;
#ARTISTTRANSLIT:Koji Kondo;
#GENRE:VideoGames Music;
#CREDIT:P-noX;
#BANNER:banner.png;
#BACKGROUND:background.jpg;
#LYRICSPATH:;
#CDTITLE:CDTitle.png;
#MUSIC:NSMB - Overworld.mp3;
#OFFSET:-0.101161;
#SAMPLESTART:2.460000;
#SAMPLELENGTH:12.000000;
#SELECTABLE:YES;
#BPMS:0.000000=99.980003
;
#STOPS:100.000000=0.300000,
100.500000=0.300000,
101.000000=0.300000,
103.500000=0.450000,
105.750000=0.300000,
106.250000=0.300000,
106.750000=0.300000,
109.250000=0.450000,
111.500000=0.300000,
112.000000=0.300000,
112.500000=0.300000,
115.000000=0.450000,
117.250000=0.300000,
117.750000=0.300000,
118.250000=0.300000
;
#BGCHANGES:0.500=Nsmb HD.mp4=1.000=0=0=0=StretchNoLoop====,
99999=-nosongbg-=1.000=0=0=0 // don't automatically add -songbackground-
;
#KEYSOUNDS:;
#ATTACKS:;

//---------------dance-single - ----------------
#NOTES:
     dance-single:
     :
     Hard:
     8:
     0.565786,0.587774,0.180845,0.307436,0.953957,438.000000,418.000000,20.000000,34.000000,0.000000,0.000000,0.565786,0.587774,0.180845,0.307436,0.953957,438.000000,418.000000,20.000000,34.000000,0.000000,0.000000:
// measure 0
0000
0000
0000
0000
0000
0000
0000
1001
,  // measure 1
1000
0100
0010
0001
0100
0010
1000
0100
0010
0100
0010
0100
0010
0001
1000
0010
,  // measure 2
0100
0010
0100
0001
0010
0100
1000
0001
0000
1001
0000
0000
1001
0000
0000
0000
,  // measure 3
1000
0100
0010
0001
0100
0010
1000
0100
0010
0001
0100
0010
1000
0100
0010
0100
,  // measure 4
0010
0001
1000
0010
0100
0010
0100
0001
0000
1001
0000
0000
2002
0000
0000
3000
,  // measure 5
0003
0000
1000
0100
0010
0001
0000
0100
0000
0010
0000
1000
0002
0000
0010
0000
,  // measure 6
0103
0000
1000
0001
1000
0001
0000
0100
0000
0010
0000
1000
0002
0000
0010
0000
,  // measure 7
0103
0000
0010
0100
0010
0100
0000
1000
0000
0001
0000
0100
0020
0000
1000
0000
,  // measure 8
0130
0000
1000
0001
1000
0001
0000
0010
0000
0100
0000
1000
0100
0000
1000
0000
,  // measure 9
0001
0000
0100
0010
1000
0010
0000
1000
0000
0001
0000
0010
0002
0000
0000
0000
,  // measure 10
0003
0000
0000
0000
1000
0000
0000
0000
0100
0000
0000
0000
0010
0000
0000
0000
0001
0000
0000
0000
0010
0000
0000
0000
0202
0000
0000
0000
0000
0000
0000
0000
0000
0000
0000
0000
0000
0000
0000
0000
0303
0000
0000
0000
0000
1000
0000
0000
,  // measure 11
0100
0010
0001
0010
0000
0010
0001
1000
0100
0000
0000
1000
0001
0000
0100
0000
,  // measure 12
0010
0000
1000
0010
0000
0010
0000
1000
0020
0000
0000
0230
0000
0000
0300
0001
,  // measure 13
0010
0100
1000
0001
0000
0010
0100
1000
0002
0000
0000
0000
0203
0000
0000
0000
,  // measure 14
0020
0000
0000
0000
0000
0000
0000
0330
0000
1001
0000
0000
1001
0000
0000
0000
,  // measure 15
1000
0000
0100
0010
0001
0100
0000
0010
0000
1000
0000
0001
0010
0000
0100
0000
,  // measure 16
1000
0000
0001
0100
0001
0100
0000
0010
0000
1000
0000
0100
1000
0000
0100
0000
,  // measure 17
0010
0000
0100
1000
0100
1000
0000
0001
0000
0100
0000
0010
1000
0000
0001
0000
,  // measure 18
0010
0000
0100
1000
0010
0100
0000
0001
0000
0010
0000
0001
1000
0000
0010
0000
,  // measure 19
0100
0000
0001
1000
0001
1000
0000
0010
0000
0100
0000
0001
0020
0000
0000
0000
,  // measure 20
0030
0000
0000
0000
1000
0000
0000
0000
0100
0000
0000
0000
0001
0000
0000
0000
0100
0000
0000
0000
1000
0000
0000
0000
2002
0000
0000
0000
0000
0000
0000
0000
3000
0000
0000
0000
1000
0000
0000
0000
0003
0000
0000
0000
0000
1000
0000
0000
,  // measure 21
0100
0010
0001
0100
0000
0100
0010
1000
0200
0000
0000
0000
0310
0000
0001
0000
,  // measure 22
0100
0000
0001
0010
0000
0100
0000
1000
0002
0000
0000
1000
0000
0000
0003
1000
,  // measure 23
0100
0010
0001
0100
0000
0100
0010
1000
0002
0000
0000
0000
0023
0000
0000
0000
,  // measure 24
0230
0000
0000
0000
0000
0000
0300
0000
0000
1001
0000
0000
2002
3003
0000
0001
,  // measure 25
0100
0100
0010
0001
0010
0100
1000
0001
0100
0010
2000
0000
3000
0001
0010
0010
,  // measure 26
0100
0000
0100
1000
0000
0000
0001
0100
0100
0010
0010
1000
1000
0100
0010
0001
,  // measure 27
0100
0020
0000
0000
0130
0010
0010
0100
0000
1000
0001
0000
0000
0100
0010
1000
,  // measure 28
0100
0010
0001
0001
0010
0100
1000
0001
0200
0000
0000
0310
1000
0001
0010
0000
,  // measure 29
0010
0100
0000
0000
1000
0001
0100
0001
0010
0100
1000
0001
0100
0010
1000
0200
,  // measure 30
0000
0000
0000
0000
0310
0001
0100
0020
0000
0000
0000
1030
0000
0000
0100
0020
,  // measure 31
0000
0000
0031
0200
0000
0000
0310
2000
0000
0000
3100
0010
0001
0100
0000
0020
,  // measure 32
0000
0000
0000
0000
0000
0000
0030
0000
1001
0000
0000
1001
0000
0000
0000
1000
,  // measure 33
0100
0010
0001
0100
0010
1000
0100
0010
0001
0100
0010
1000
0010
1000
0010
0100
,  // measure 34
0001
0010
0100
1000
0010
0100
0001
0000
1001
0000
0000
1001
0000
0000
0000
1000
,  // measure 35
0100
0010
0001
0100
0010
1000
0001
0010
0001
0010
0100
1000
0001
0100
0010
1000
,  // measure 36
0001
0010
0100
1000
0001
0100
0010
0000
1001
0000
0000
1001
0000
0000
0000
1000
,  // measure 37
0100
0010
0001
0100
1000
0100
0001
0010
0100
1000
0001
0100
0010
1000
0010
0001
,  // measure 38
0010
1000
0100
0010
0001
0100
0010
0000
1001
0000
0000
1001
0000
0000
0000
1000
,  // measure 39
0100
0010
0001
0100
0010
0100
0001
0010
0100
0010
1000
0010
0001
0010
0001
0100
,  // measure 40
0010
1000
0001
0010
0100
1000
0001
0000
0100
0000
0010
0100
0001
0000
0010
2002
,  // measure 41
0000
0000
0000
0000
0000
0000
0000
0000
0000
0000
0000
0000
0000
0000
0000
3003
;
