#TITLE:Mining Melancholy;
#SUBTITLE:Donkey Kong Country 2;
#ARTIST:David Wise;
#TITLETRANSLIT:;
#SUBTITLETRANSLIT:;
#ARTISTTRANSLIT:;
#GENRE:VideoGames Music;
#CREDIT:P-noX;
#BANNER:banner.png;
#BACKGROUND:background.jpg;
#LYRICSPATH:;
#CDTITLE:CDTitle.png;
#MUSIC:Mining Melancholy.mp3;
#OFFSET:-0.013231;
#SAMPLESTART:40.460030;
#SAMPLELENGTH:15.000000;
#SELECTABLE:YES;
#BPMS:0.000000=187.960007
;
#STOPS:
;
#BGCHANGES:0.000=DKC2 MINE.mp4=1.000=0=0=0=StretchNoLoop====,
99999=-nosongbg-=1.000=0=0=0 // don't automatically add -songbackground-
;
#KEYSOUNDS:;
#ATTACKS:;

//---------------dance-single - SMANIAC----------------
#NOTES:
     dance-single:
     Challenge:
     Challenge:
     8:
     0.461792,0.694907,0.486232,0.432207,0.000000,359.000000,305.000000,54.000000,48.000000,0.000000,3.000000,0.461792,0.694907,0.486232,0.432207,0.000000,359.000000,305.000000,54.000000,48.000000,0.000000,3.000000:
// measure 0
0000
0000
0000
0000
,  // measure 1
0000
0000
0000
0000
,  // measure 2
0000
0000
0000
0000
,  // measure 3
0000
0000
0000
0000
,  // measure 4
1001
0000
0000
0000
0110
0000
0000
0100
,  // measure 5
1000
0001
1000
0001
0010
0100
0000
0010
,  // measure 6
0100
0000
0001
0000
1001
0000
0000
1000
,  // measure 7
0001
0000
1001
0000
0010
0100
0000
0100
,  // measure 8
1001
0000
1001
0000
0110
0001
0000
0001
,  // measure 9
0110
0000
0110
0000
1000
0100
0000
0010
,  // measure 10
1001
0000
0110
0000
1001
0100
0000
0100
,  // measure 11
0010
0000
0010
0000
1000
1000
0000
0010
,  // measure 12
1001
0000
0011
0000
1100
0010
0000
0010
,  // measure 13
0011
0000
0011
0000
1000
0001
0000
0100
,  // measure 14
0001
0100
0000
0100
0001
0000
1000
0100
,  // measure 15
0000
0100
0010
0000
0001
1000
0100
0000
,  // measure 16
1001
0000
0000
0000
1001
0000
0000
0100
,  // measure 17
0010
0000
0010
0000
1001
0000
0000
0010
,  // measure 18
1001
0000
0000
0000
1100
0000
0000
0010
,  // measure 19
0001
0000
1000
0000
0010
0000
0000
0001
,  // measure 20
0110
0000
0011
0000
1100
0010
0000
0010
,  // measure 21
0011
0000
0011
0000
1000
0001
0000
0100
,  // measure 22
1001
0000
0000
0000
1001
0000
0000
1000
,  // measure 23
0001
0000
0001
0000
1000
0100
0000
0010
,  // measure 24
1001
0000
0000
0000
1001
0000
0000
0100
,  // measure 25
0010
0000
0010
0000
1001
0000
0000
0010
,  // measure 26
1001
0000
0000
0000
1100
0000
0000
0010
,  // measure 27
0001
0000
1000
0000
0010
0000
0000
0001
,  // measure 28
0110
0000
0000
0000
1001
0000
0000
0100
,  // measure 29
0010
0001
1000
0001
1000
0001
0000
0010
,  // measure 30
0100
0010
1000
0100
0010
0001
0100
0010
,  // measure 31
1000
0000
1000
0001
0100
0000
1000
0010
,  // measure 32
0001
0000
1000
0010
0001
0000
0000
1000
,  // measure 33
0200
0000
0000
0000
,  // measure 34
2000
0000
0000
0300
0020
0000
0000
3000
,  // measure 35
0002
0000
0000
0000
0000
0030
0200
0003
,  // measure 36
2000
0000
0000
0000
0000
0000
3300
1000
,  // measure 37
0002
0000
0000
0000
0000
0003
0100
0000
,  // measure 38
0001
1000
0100
0010
,  // measure 39
0001
0000
1000
0000
0010
0000
1000
0001
,  // measure 40
0200
0000
0000
0000
0000
0000
0300
0001
,  // measure 41
0200
0000
0000
0000
0000
0000
0000
0300
,  // measure 42
1000
0000
0000
0000
0000
0000
0001
1000
,  // measure 43
0100
0000
0010
1000
0001
0000
0100
0010
,  // measure 44
0200
0000
0000
0000
0000
0000
0300
1000
,  // measure 45
0200
0000
0000
0000
0000
0300
0010
0000
,  // measure 46
1001
0000
0000
0000
0110
0000
0000
1000
,  // measure 47
0100
0000
0100
0000
0001
0001
0000
0010
,  // measure 48
1000
0100
0010
0001
0100
0010
1000
0100
,  // measure 49
0010
0001
1000
0010
0100
0001
1001
0000
,  // measure 50
2002
0000
3003
0000
0110
0000
0000
1000
,  // measure 51
0100
0000
0010
0000
1000
0001
0000
1000
,  // measure 52
0001
0100
0010
1000
0100
0001
0100
0010
,  // measure 53
1000
0001
0010
0100
0001
0100
0010
0000
,  // measure 54
1001
0000
0000
0000
0110
0000
0000
0010
,  // measure 55
0100
0000
0100
0000
0100
0010
0000
0100
,  // measure 56
0001
1000
0001
1000
0001
0100
0010
0100
,  // measure 57
0010
0000
0001
0000
1000
0100
0000
0010
,  // measure 58
0001
0000
0000
0000
1100
0000
0000
0010
,  // measure 59
0001
0000
1001
0000
0010
0100
0000
0010
,  // measure 60
0200
0000
0300
0000
0011
0000
0000
0001
,  // measure 61
1000
0000
1000
0000
0010
1000
0000
0010
,  // measure 62
2001
0000
0001
0000
,  // measure 63
0100
0000
0000
0000
0001
0000
0000
3010
,  // measure 64
1002
0000
1000
0000
,  // measure 65
0010
0000
0000
0000
1000
0000
0000
0013
,  // measure 66
2001
0000
0001
0000
,  // measure 67
0100
0000
0000
0000
0001
0000
0000
3010
,  // measure 68
1002
0000
1000
0000
,  // measure 69
0010
0000
0000
0000
1000
0000
0023
0030
,  // measure 70
2200
0000
0000
0000
0000
3300
0010
0000
,  // measure 71
0022
0000
0000
0000
,  // measure 72
2030
0000
0000
0000
0203
0000
0000
0300
,  // measure 73
0020
0000
0000
0000
0000
3000
0200
0000
,  // measure 74
0032
0000
0000
0000
0000
0300
0020
0030
,  // measure 75
2000
0000
0000
0003
0020
0000
0000
3000
,  // measure 76
0200
0000
0000
0000
,  // measure 77
0000
0000
0000
0000
0000
0030
0002
0300
,  // measure 78
2000
0000
0000
0000
0000
0003
0200
3000
,  // measure 79
0020
0000
0000
0000
0000
0000
0000
0300
,  // measure 80
2000
0000
0000
3000
0200
0300
2000
3000
,  // measure 81
0200
0300
0000
0000
0002
0003
2000
3000
,  // measure 82
0200
0000
0000
0000
0000
0030
2000
3000
,  // measure 83
0002
0003
0000
0000
0020
0000
0000
0330
,  // measure 84
2002
0000
0000
0000
0000
0000
0000
3003
,  // measure 85
1000
0001
0100
0000
0001
1000
1001
0000
;
