#VERSION:0.83;
#TITLE:El Chavo del 8;
#SUBTITLE:The Elephant never Forguet;
#ARTIST:Jean Jaques Perrey;
#TITLETRANSLIT:;
#SUBTITLETRANSLIT:;
#ARTISTTRANSLIT:;
#GENRE:;
#ORIGIN:;
#CREDIT:;
#BANNER:banner.png;
#BACKGROUND:bkg.png;
#PREVIEWVID:;
#JACKET:;
#CDIMAGE:;
#DISCIMAGE:;
#LYRICSPATH:;
#CDTITLE:CDTitle.png;
#MUSIC:Chavo del ocho.mp3;
#OFFSET:-0.045814;
#SAMPLESTART:10.059995;
#SAMPLELENGTH:20.000000;
#SELECTABLE:YES;
#BPMS:0.000=190.000;
#STOPS:110.000=0.316,
143.000=0.316,
144.000=0.316,
147.000=0.316,
151.000=0.316;
#DELAYS:;
#WARPS:;
#TIMESIGNATURES:0.000=4=4;
#TICKCOUNTS:0.000=4;
#COMBOS:0.000=1;
#SPEEDS:0.000=1.000=0.000=0;
#SCROLLS:0.000=1.000;
#FAKES:;
#LABELS:0.000=Song Start;
#BGCHANGES:;
#KEYSOUNDS:;
#ATTACKS:
;

//---------------dance-single - ----------------
#NOTEDATA:;
#CHARTNAME:;
#STEPSTYPE:dance-single;
#DESCRIPTION:;
#CHARTSTYLE:;
#DIFFICULTY:Challenge;
#METER:8;
#RADARVALUES:0.547875,0.624020,0.433348,0.122782,0.000000,531.000000,471.000000,60.000000,17.000000,0.000000,0.000000,0.000000,0.000000,0.000000,0.547875,0.624020,0.433348,0.122782,0.000000,531.000000,471.000000,60.000000,17.000000,0.000000,0.000000,0.000000,0.000000,0.000000;
#CREDIT:;
#NOTES:
// measure 0
1000
0100
0011
0011
,  // measure 1
0100
0010
1010
1010
,  // measure 2
0100
0010
1001
0010
,  // measure 3
0100
0001
1001
0000
,  // measure 4
1001
0001
0001
0010
,  // measure 5
0010
0100
0110
0100
,  // measure 6
1000
0001
1000
0001
,  // measure 7
0100
0010
2002
3003
,  // measure 8
1000
0100
0010
0100
,  // measure 9
0010
0001
0001
1000
,  // measure 10
0001
0010
0100
1000
0010
0000
0100
0000
,  // measure 11
0010
1010
0202
0303
,  // measure 12
0010
0100
0010
1000
,  // measure 13
0001
0010
0100
1000
,  // measure 14
0010
0100
0001
0010
0100
0000
1001
0000
,  // measure 15
1001
0220
0000
0330
,  // measure 16
1000
0100
1100
0100
,  // measure 17
0010
0011
0010
0001
,  // measure 18
1000
0110
0100
0101
,  // measure 19
0010
0110
1000
0110
,  // measure 20
1000
0100
0011
0011
,  // measure 21
0001
1100
1100
0010
,  // measure 22
0100
1000
0010
0100
0001
0000
0010
0000
,  // measure 23
0100
1000
0010
1000
,  // measure 24
0010
0100
0001
0010
,  // measure 25
0100
1000
0010
0100
,  // measure 26
1000
0100
0001
0010
0100
0000
1000
0000
,  // measure 27
0220
0000
0000
0330
1001
0000
1001
0000
,  // measure 28
1000
0100
0010
0001
,  // measure 29
1000
0000
0001
0010
0001
0010
0001
0000
,  // measure 30
1000
0000
0010
0000
0100
0000
0001
0010
,  // measure 31
0100
1000
0010
0100
0010
1000
0010
0000
,  // measure 32
0100
0001
0010
0100
,  // measure 33
1000
0000
0010
0100
0010
1000
0010
0000
,  // measure 34
0100
0000
0001
0010
0100
1000
0001
0100
,  // measure 35
0010
0100
0001
0000
0000
0000
1000
0000
,  // measure 36
0001
0110
1001
1001
,  // measure 37
1000
0001
1000
0001
0110
0000
0110
0000
,  // measure 38
1000
0001
0000
1001
,  // measure 39
1000
0100
0010
0001
,  // measure 40
0100
0000
0010
0000
1000
0000
1000
0010
,  // measure 41
0100
0001
0010
0000
0001
0000
1000
0000
,  // measure 42
0010
0100
0000
0001
,  // measure 43
1000
0010
0100
0001
,  // measure 44
0010
0000
0100
0000
1000
0000
0010
0100
,  // measure 45
0010
0100
0010
0000
1000
0000
0002
0000
,  // measure 46
2000
0000
3003
1000
,  // measure 47
0100
0010
0001
0110
,  // measure 48
1000
0001
0100
0110
,  // measure 49
1000
1001
0010
0110
,  // measure 50
1000
1001
1000
0100
,  // measure 51
0010
0011
1000
1100
,  // measure 52
1000
0000
1010
0000
0001
0000
1001
1000
,  // measure 53
0100
0010
0001
0000
0100
0000
0010
0000
,  // measure 54
0001
0200
0300
1001
,  // measure 55
0100
0000
0110
0000
0001
0000
0100
0001
,  // measure 56
0010
0001
0010
0000
0100
0000
1000
0000
,  // measure 57
0001
0010
0100
1000
0010
0000
0100
0001
,  // measure 58
0010
0100
1000
0001
0100
0010
1000
0000
,  // measure 59
0001
0000
0010
0000
0100
0000
1000
0001
,  // measure 60
0100
0010
1000
0000
0001
0000
0100
0000
,  // measure 61
0010
1000
0010
0000
0100
0000
0001
0000
,  // measure 62
1000
0000
0001
0010
0100
1000
0001
0000
,  // measure 63
0100
0000
0010
0000
1000
0000
0001
0010
,  // measure 64
0001
0010
0100
0000
1000
0000
0100
0000
,  // measure 65
0010
0001
1000
0010
0100
0000
1000
0100
,  // measure 66
0010
0001
0100
1000
0100
0001
0010
0000
,  // measure 67
0100
0000
1000
0000
0010
0000
0100
0001
,  // measure 68
0010
0100
1000
0000
0010
0000
0100
0000
,  // measure 69
2000
0000
0000
0000
,  // measure 70
0000
3000
1000
0100
,  // measure 71
0010
0001
0010
0001
0100
0000
0010
0000
,  // measure 72
1000
1001
0000
1000
,  // measure 73
0001
0001
0001
0010
,  // measure 74
0100
1100
0000
1001
,  // measure 75
1000
0100
0010
0000
0001
0000
0000
0000
,  // measure 76
0011
1100
0000
1001
,  // measure 77
1000
0100
0010
0001
,  // measure 78
1000
0000
0010
0000
0100
0000
0001
0010
,  // measure 79
0001
0010
0001
0000
1000
0000
0010
0000
,  // measure 80
0100
1000
0000
1000
,  // measure 81
0010
0100
1000
0010
,  // measure 82
0100
0000
0100
0000
1000
0000
0001
0100
,  // measure 83
0010
1000
0100
0000
0010
0000
0100
0000
,  // measure 84
0000
2002
3003
0010
,  // measure 85
0001
1000
0100
0010
,  // measure 86
1000
0100
0010
1000
,  // measure 87
0001
0100
0010
1000
,  // measure 88
0001
0100
0010
1001
,  // measure 89
1000
0010
0100
0010
,  // measure 90
0100
0000
0001
0000
1000
0000
0001
0010
,  // measure 91
0100
1000
0001
0000
0100
0000
0010
0000
,  // measure 92
1000
0010
0000
0100
,  // measure 93
0001
0010
0010
0100
,  // measure 94
1000
0000
0010
0000
0100
0000
0001
1000
,  // measure 95
0010
0100
0001
0010
0000
0000
0100
0000
,  // measure 96
1000
0000
0200
0000
0000
0300
1000
0000
,  // measure 97
0001
0001
0010
0100
,  // measure 98
1000
1000
0010
0100
,  // measure 99
0001
0010
0100
0000
1000
0000
0000
0000
,  // measure 100
1001
0000
1001
1000
0100
0010
0001
0000
,  // measure 101
0100
0010
0100
0110
,  // measure 102
1000
0001
0100
0001
,  // measure 103
0010
0100
1000
0000
0001
0000
0100
0000
,  // measure 104
0010
0010
1000
0001
,  // measure 105
0110
0110
1000
0001
,  // measure 106
0011
0011
0100
1000
,  // measure 107
0001
0100
0010
0000
2002
0000
0000
0000
,  // measure 108
3003
0000
0000
0000
;
