#VERSION:0.83;
#TITLE:Decimate;
#SUBTITLE:;
#ARTIST:Excision;
#TITLETRANSLIT:;
#SUBTITLETRANSLIT:;
#ARTISTTRANSLIT:;
#GENRE:Dubstep;
#ORIGIN:;
#CREDIT:P-noX;
#BANNER:banner.png;
#BACKGROUND:background.jpg;
#PREVIEWVID:;
#JACKET:Jacket.jpg;
#CDIMAGE:;
#DISCIMAGE:;
#LYRICSPATH:Decimlrc.lrc;
#CDTITLE:CDTitle.png;
#MUSIC:Decimate.mp3;
#OFFSET:-0.091000;
#SAMPLESTART:76.794067;
#SAMPLELENGTH:13.000013;
#SELECTABLE:YES;
#BPMS:0.000=150.000;
#STOPS:;
#DELAYS:;
#WARPS:;
#TIMESIGNATURES:0.000=4=4;
#TICKCOUNTS:0.000=4;
#COMBOS:0.000=1;
#SPEEDS:0.000=1.000=0.000=0;
#SCROLLS:0.000=1.000;
#FAKES:;
#LABELS:0.000=Song Start;
#BGCHANGES:;
#KEYSOUNDS:;
#ATTACKS:
;

//---------------dance-single - ----------------
#NOTEDATA:;
#CHARTNAME:DDR Steps;
#STEPSTYPE:dance-single;
#DESCRIPTION:;
#CHARTSTYLE:;
#DIFFICULTY:Hard;
#METER:9;
#RADARVALUES:0.474264,1.028859,0.552350,0.713451,0.526458,577.000000,481.000000,96.000000,124.000000,185.000000,0.000000,0.000000,0.000000,0.000000,0.474264,1.028859,0.552350,0.713451,0.526458,577.000000,481.000000,96.000000,124.000000,185.000000,0.000000,0.000000,0.000000,0.000000;
#CREDIT:P-noX;
#OFFSET:-0.091000;
#BPMS:0.000000=150.000000
;
#STOPS:;
#DELAYS:;
#WARPS:;
#TIMESIGNATURES:0.000000=4=4
;
#TICKCOUNTS:0.000000=4
;
#COMBOS:0.000000=1
;
#SPEEDS:0.000000=1.000000=0.000000=0
;
#SCROLLS:0.000000=1.000000
,17.000000=-0.010000
,46.500000=-0.050000
,46.750000=-0.060000
,47.000000=-0.070000
,47.250000=-0.080000
,47.500000=-0.090000
,47.750000=-0.100000
,54.000000=0.100000
,54.250000=0.200000
,54.500000=0.400000
,54.750000=0.500000
,55.000000=0.600000
,55.250000=0.700000
,55.500000=0.800000
,55.750000=0.900000
,56.000000=1.000000
,64.000000=1.500000
,64.500000=2.000000
,65.000000=3.000000
,65.500000=4.000000
,66.000000=5.000000
,66.500000=6.000000
,67.000000=7.000000
,67.500000=8.000000
,68.000000=9.000000
,68.500000=10.000000
,69.750000=9.000000
,70.000000=8.000000
,70.250000=7.000000
,70.500000=6.000000
,70.750000=5.000000
,71.000000=4.000000
,71.250000=3.000000
,71.500000=2.000000
,71.750000=1.500000
,72.000000=1.000000
,80.000000=1.500000
,80.500000=2.000000
,81.000000=3.000000
,81.500000=4.000000
,82.000000=5.000000
,82.500000=6.000000
,83.000000=7.000000
,83.500000=8.000000
,84.000000=9.000000
,84.500000=10.000000
,85.750000=9.000000
,86.000000=8.000000
,86.250000=7.000000
,86.500000=6.000000
,86.750000=5.000000
,87.000000=4.000000
,87.250000=3.000000
,87.500000=2.000000
,87.750000=1.500000
,88.000000=1.000000
,96.000000=1.500000
,96.500000=2.000000
,97.000000=3.000000
,97.500000=4.000000
,98.000000=5.000000
,98.500000=6.000000
,99.000000=7.000000
,99.500000=8.000000
,100.000000=9.000000
,100.500000=10.000000
,101.750000=9.000000
,102.000000=8.000000
,102.250000=7.000000
,102.500000=6.000000
,102.750000=5.000000
,103.000000=4.000000
,103.250000=3.000000
,103.500000=2.000000
,103.750000=1.500000
,104.000000=1.000000
,108.000000=-0.010000
,123.500000=-0.050000
,123.750000=-0.060000
,124.000000=-0.070000
,124.250000=-0.080000
,124.500000=-0.090000
,124.750000=-0.100000
,126.000000=0.100000
,126.250000=0.200000
,126.500000=0.400000
,126.750000=0.500000
,127.000000=0.600000
,127.250000=0.700000
,127.500000=0.800000
,127.750000=0.900000
,128.000000=1.000000
,129.000000=1.200000
,130.000000=1.400000
,131.000000=1.600000
,132.000000=1.800000
,133.000000=2.000000
,192.000000=1.800000
,192.333328=1.600000
,192.666672=1.400000
,193.000000=1.200000
,193.333328=1.000000
,256.000000=1.200000
,256.500000=1.250000
,257.000000=1.500000
,257.500000=1.750000
,258.000000=2.000000
,259.000000=2.250000
,260.000000=2.500000
,261.000000=2.750000
,263.000000=2.500000
,263.250000=2.000000
,263.500000=1.500000
,264.000000=1.000000
,272.000000=1.200000
,272.500000=1.250000
,273.000000=1.500000
,273.500000=1.750000
,274.000000=2.000000
,275.000000=2.250000
,276.000000=2.500000
,277.000000=2.750000
,279.000000=2.500000
,279.250000=2.000000
,279.500000=1.500000
,280.000000=1.000000
,288.000000=1.200000
,288.500000=1.250000
,289.000000=1.500000
,289.500000=1.750000
,290.000000=2.000000
,291.000000=2.250000
,292.000000=2.500000
,293.000000=2.750000
,295.000000=2.500000
,295.250000=2.000000
,295.500000=1.500000
,296.000000=1.000000
,304.000000=1.200000
,304.500000=1.250000
,305.000000=1.500000
,305.500000=1.750000
,306.000000=2.000000
,307.000000=2.250000
,308.000000=2.500000
,309.000000=2.750000
,311.000000=2.500000
,311.250000=2.000000
,311.500000=1.500000
,312.000000=1.000000
,316.000000=-0.000000
,319.500000=1.000000
,322.000000=1.100000
,324.000000=1.200000
,326.000000=1.300000
,328.000000=1.400000
,330.000000=1.500000
,332.000000=1.600000
,334.000000=1.700000
,336.000000=1.800000
,344.000000=2.000000
,344.500000=2.200000
,345.000000=2.400000
,345.500000=2.600000
,346.000000=2.800000
,347.250000=2.600000
,347.500000=2.400000
,347.750000=2.200000
,348.000000=2.000000
,348.500000=1.600000
,349.000000=1.400000
,349.500000=1.200000
,350.000000=1.000000
,352.000000=0.750000
,352.250000=0.500000
,352.500000=0.250000
,352.750000=0.000000
,354.000000=1.000000
,416.000000=0.900000
,417.000000=0.800000
,418.000000=0.700000
,419.000000=0.600000
,420.000000=0.500000
,421.000000=0.450000
,422.000000=0.400000
,423.000000=0.350000
,424.000000=0.300000
,425.000000=0.250000
,426.000000=0.200000
,427.000000=0.150000
,428.000000=0.100000
,429.000000=0.050000
,430.000000=0.010000
,432.000000=10.000000
,432.250000=9.000000
,432.500000=8.000000
,432.750000=7.000000
,433.000000=6.000000
,433.250000=5.000000
,433.500000=4.000000
,433.750000=3.000000
,434.000000=2.000000
,434.250000=1.000000
;
#FAKES:;
#LABELS:0.000000=Song Start
;
#NOTES:
// measure 0
2002
0000
0000
0000
,  // measure 1
0000
0000
0000
0000
,  // measure 2
0000
0000
0000
0000
,  // measure 3
0000
0000
0000
0000
,  // measure 4
0000
3003
0000
0000
,  // measure 5
M000
0000
0000
0000
,  // measure 6
0M00
0000
0000
0000
,  // measure 7
00M0
0000
0000
0000
,  // measure 8
000M
0000
0000
0000
,  // measure 9
00M0
0000
0000
0000
,  // measure 10
0M00
0000
0000
0000
,  // measure 11
M000
0000
0000
0000
,  // measure 12
MMMM
0000
0000
0000
,  // measure 13
0000
0000
0000
0000
,  // measure 14
1000
0001
1000
0001
1000
0001
1000
0001
1000
0001
1000
0001
,  // measure 15
1000
0001
1000
0001
1000
0001
1000
0001
1000
0001
0000
0000
,  // measure 16
2MM2
0000
0M00
00M0
0M00
00M0
0M00
00M0
0M00
00M0
0M00
00M0
0M00
00M0
0M00
00M0
,  // measure 17
0M00
00M0
0M00
00M0
0M00
00M0
0M00
00M0
0M00
00M0
0M00
00M0
0M00
00M0
3003
0000
,  // measure 18
1000
0100
1000
0100
1000
0100
0010
0001
0010
0001
0000
0000
,  // measure 19
2200
0000
0000
3300
,  // measure 20
M22M
0000
0000
0000
0000
0000
M000
0000
0000
000M
0000
0000
M000
0000
0000
000M
0000
0000
M000
0000
0000
000M
0000
0000
M000
0000
0000
000M
0000
0000
M000
0000
0000
000M
0000
0000
M000
0000
0000
000M
0000
0000
0000
M000
0000
0000
000M
0000
,  // measure 21
0000
0000
0000
0000
M000
0000
0000
0000
0000
0000
0000
0000
000M
0000
0000
0000
0000
0000
0000
0000
M000
0000
0000
0000
0000
0000
0000
0000
0000
0000
000M
0000
0000
0000
0000
0000
M000
0000
0000
0000
0000
0000
000M
0000
0000
0000
0000
0000
M000
0000
0000
0000
0000
0000
000M
0000
0000
0000
0000
0000
M000
0000
0000
0000
0000
0000
000M
0000
0000
0000
0000
0000
M000
0000
0000
0000
0000
0000
000M
0000
0000
0000
0000
0000
M000
0000
0000
0000
0000
0000
0000
0000
000M
0000
0000
0000
0000
0000
0000
0000
M000
0000
0000
0000
0000
0000
0000
0000
000M
0000
0000
0000
0000
0000
0000
0000
0000
0000
0000
0000
M000
0000
0000
0000
0000
0000
0000
0000
0000
0000
0000
0000
000M
0000
0000
0000
0000
0000
0000
0000
0000
0000
0000
0000
M000
0000
0000
0000
0000
0000
0000
0000
0000
0000
0000
0000
000M
0000
0000
0000
0000
0000
0000
0000
0000
0000
0000
0000
M330
0000
0000
0000
0000
0000
0000
0000
0000
0000
0000
0000
0000
0000
0000
0000
0000
0000
0000
0000
0000
0000
0000
0000
,  // measure 22
0001
0100
0001
0100
0010
1000
0010
1000
0010
1000
0000
0000
,  // measure 23
0202
0000
0000
0303
,  // measure 24
2MM2
0000
0M00
00M0
0M00
00M0
0M00
00M0
0M00
00M0
0M00
00M0
0M00
00M0
0M00
00M0
,  // measure 25
0M00
00M0
0M00
00M0
0M00
00M0
0M00
00M0
0M00
00M0
0M00
00M0
0M00
00M0
3003
0000
,  // measure 26
1000
0100
0010
0001
0100
0010
1000
0100
0010
0001
0000
0000
,  // measure 27
2002
0000
0000
0000
,  // measure 28
0000
0000
0000
0000
,  // measure 29
0MM0
0000
0MM0
0000
,  // measure 30
3M03
00M0
M000
0M00
,  // measure 31
00M0
MMMM
0000
0000
,  // measure 32
2002
0000
0000
0000
,  // measure 33
0000
0000
0000
0000
0000
0000
0000
0003
,  // measure 34
0002
0000
0000
0003
0200
0000
0000
0300
,  // measure 35
0020
0000
0000
0030
0002
0000
0000
0003
,  // measure 36
0001
0001
0010
0010
,  // measure 37
0100
0000
0000
3100
0000
0000
2000
0000
3000
1100
0000
0000
,  // measure 38
0020
0000
0030
0011
0000
0000
0002
0000
0003
0101
0000
0000
,  // measure 39
0020
0000
0030
1010
0000
0000
2002
0000
3003
1001
0000
0000
,  // measure 40
1001
1000
0100
1000
0100
0010
0001
0010
,  // measure 41
1001
0001
0100
0001
0100
0010
1000
0010
,  // measure 42
1001
1000
0100
0010
0001
1000
0100
0010
,  // measure 43
1001
0001
0100
0010
1000
0001
1000
0001
,  // measure 44
1000
0100
1000
0100
1000
0100
1000
0100
0010
0001
0010
0001
0010
0001
0010
0001
,  // measure 45
0100
0010
1000
0010
1000
0010
1000
0010
0100
0001
0100
0001
0100
0001
0100
0001
,  // measure 46
1000
0100
1000
0100
1000
0100
0010
0001
0010
0001
0010
0001
1000
0000
0010
0000
,  // measure 47
1001
1000
0100
0010
0001
0000
1001
0000
,  // measure 48
2002
0000
0000
3003
2200
3300
0220
0330
,  // measure 49
0022
0033
2002
3003
0202
0303
0220
0330
,  // measure 50
0001
0000
0100
0000
0001
0000
0200
0000
0000
0300
0000
0000
0020
0000
0000
0030
0000
0000
2020
0000
0000
3030
0000
0000
,  // measure 51
0220
0000
0000
0330
0000
0000
2002
0000
0000
3003
0000
0000
1000
0000
0100
0000
0010
0000
0001
0000
0100
0000
0010
0000
,  // measure 52
2000
3000
2002
3003
0202
0303
0020
0030
,  // measure 53
2200
3300
0200
0300
0022
0033
2002
3003
,  // measure 54
1000
0000
1100
0000
0010
0000
0022
0000
0033
2002
3003
0000
,  // measure 55
0010
0000
0000
0000
1000
0000
0000
0000
0100
0000
0000
0000
0010
0000
0000
0000
0000
0000
0000
0000
0000
0000
0000
0000
0001
0000
0000
0000
0000
0000
0000
0000
0000
1000
0000
0000
0000
0000
0000
0000
0000
0000
0100
0000
0000
0000
0000
0000
,  // measure 56
0002
0000
0000
0003
0120
0030
2010
3000
,  // measure 57
1200
0300
0021
0030
2002
3003
0220
0330
,  // measure 58
0001
0000
0100
0000
0010
0000
1001
0000
0000
0000
0000
0000
2100
0000
0000
3000
0000
0000
0012
0000
0000
0003
0000
0000
,  // measure 59
0101
0000
0000
1010
0000
0000
1000
0100
1000
0100
0010
0001
,  // measure 60
1001
0000
0000
0000
0000
0000
0220
0000
0000
0330
0000
0000
0101
0000
0000
0000
0001
0000
1000
0000
0000
0000
0000
0000
,  // measure 61
0110
0000
1000
0001
0000
0000
1100
0000
0010
0001
0000
0000
,  // measure 62
0011
0000
0110
0000
1100
0000
1001
0000
0010
0001
0000
0000
,  // measure 63
2002
0000
0000
3003
2002
0003
3100
0000
,  // measure 64
0220
0000
0000
0030
0010
0000
0001
0000
,  // measure 65
0010
0000
1000
0000
0010
0000
0001
0300
,  // measure 66
2000
0000
3100
1000
0000
0000
0002
0000
0103
0001
0000
0000
,  // measure 67
1000
0010
1000
0010
0000
0000
0101
0000
0100
0001
0000
0000
,  // measure 68
0220
0000
0000
0300
0100
0000
1000
0000
,  // measure 69
0100
0000
0001
0000
0100
0000
1000
0030
,  // measure 70
0002
0000
0013
0001
0000
0000
2000
0000
3010
1000
0000
0000
,  // measure 71
0001
0100
0001
0100
0000
0000
1010
0000
0010
1000
0000
0000
,  // measure 72
2002
0000
0000
0003
0002
0003
0100
0000
,  // measure 73
0001
0000
0010
0000
0002
0003
0100
3000
,  // measure 74
0020
0000
1030
0010
0000
0000
0200
0000
0301
0100
0000
0000
,  // measure 75
0010
0001
0010
0001
0000
0000
1100
0000
1000
0100
0000
0000
,  // measure 76
1002
0000
0000
0000
2000
3000
0100
0000
,  // measure 77
0010
0000
0100
0000
2000
3000
0013
0000
,  // measure 78
M220
000M
M000
000M
M000
000M
M000
000M
,  // measure 79
M330
0000
0000
0000
M000
0M00
00M0
000M
0000
M000
0M00
00M0
000M
0000
0000
0000
,  // measure 80
1000
0100
1000
0001
0100
0001
0100
0010
,  // measure 81
1000
0010
1000
0100
0010
0001
0010
0001
,  // measure 82
1000
0001
0100
0001
0100
0010
1000
0010
,  // measure 83
1000
0100
0010
0001
1000
0100
0010
0001
,  // measure 84
1000
0100
1000
0100
1000
0100
1000
0100
0010
0001
0010
0001
0010
0001
0010
0001
,  // measure 85
0100
0010
0100
0010
0100
0010
0100
0010
1000
0001
1000
0001
1000
0001
1000
0001
,  // measure 86
1000
0100
0010
0001
1000
0100
0010
0001
0100
0010
1000
0001
0100
0010
1000
0001
,  // measure 87
1000
2000
3200
0320
0032
0003
1001
0000
,  // measure 88
2002
0000
0000
3003
0000
0000
0000
0000
2000
0000
3000
0000
0011
0000
0000
0000
,  // measure 89
2000
3000
0101
0000
2000
3000
0011
0000
,  // measure 90
1000
0100
0001
0000
2000
3000
0011
0000
,  // measure 91
2000
3000
0101
0000
1000
0100
0001
0010
,  // measure 92
0100
0000
0200
0300
1100
0000
0020
0030
,  // measure 93
0011
0000
0001
0100
1010
0000
0200
0300
,  // measure 94
0011
0000
0001
0100
0010
1000
0001
1000
,  // measure 95
0101
0000
0000
0000
1010
0000
0000
0000
2000
0000
0000
0001
0000
0000
3010
0000
,  // measure 96
2002
3003
0110
1001
,  // measure 97
0200
0300
0110
0000
2000
3000
1010
0000
,  // measure 98
1000
0100
1100
0000
0020
0030
0011
0000
,  // measure 99
0002
0003
0101
0000
1000
0100
1000
0100
,  // measure 100
0010
0001
1000
0000
1100
0000
1100
0000
,  // measure 101
0011
0000
0010
0001
0011
0000
0011
0000
,  // measure 102
0101
0000
0001
0100
1000
0100
0001
1000
,  // measure 103
0100
0010
0001
0100
0010
0000
0100
0000
,  // measure 104
2MM2
0MM0
0MM0
0MM0
,  // measure 105
0MM0
0MM0
0MM0
0MM0
,  // measure 106
0MM0
0MM0
0MM0
0MM0
,  // measure 107
0MM0
0MM0
0MM0
3003
,  // measure 108
MMMM
0000
M000
0M00
00M0
000M
00M0
0000
0M00
0000
M000
0000
0M00
0000
00M0
0000
000M
0000
00M0
0000
0M00
0000
0000
0000
M000
0000
0000
0000
0000
0000
0000
0000
0000
0000
0000
0000
0000
0000
0000
0000
0000
0000
0000
0000
0000
0000
0000
0000
0000
0000
0000
0000
0000
0000
0000
0000
0000
0000
0000
0000
0000
0000
0000
0000
;

//---------------dance-single - ----------------
#NOTEDATA:;
#CHARTNAME:ITG Steps;
#STEPSTYPE:dance-single;
#DESCRIPTION:;
#CHARTSTYLE:;
#DIFFICULTY:Challenge;
#METER:11;
#RADARVALUES:0.473442,1.028859,0.546596,0.707698,0.497690,576.000000,481.000000,95.000000,123.000000,202.000000,0.000000,0.000000,0.000000,0.000000,0.473442,1.028859,0.546596,0.707698,0.497690,576.000000,481.000000,95.000000,123.000000,202.000000,0.000000,0.000000,0.000000,0.000000;
#CREDIT:P-noX;
#OFFSET:-0.091000;
#BPMS:0.000000=150.000000
;
#STOPS:;
#DELAYS:;
#WARPS:;
#TIMESIGNATURES:0.000000=4=4
;
#TICKCOUNTS:0.000000=4
;
#COMBOS:0.000000=1
;
#SPEEDS:0.000000=1.000000=0.000000=0
;
#SCROLLS:0.000000=1.000000
,17.000000=-0.010000
,46.500000=-0.050000
,46.750000=-0.060000
,47.000000=-0.070000
,47.250000=-0.080000
,47.500000=-0.090000
,47.750000=-0.100000
,54.000000=0.100000
,54.250000=0.200000
,54.500000=0.400000
,54.750000=0.500000
,55.000000=0.600000
,55.250000=0.700000
,55.500000=0.800000
,55.750000=0.900000
,56.000000=1.000000
,64.000000=1.500000
,64.500000=2.000000
,65.000000=3.000000
,65.500000=4.000000
,66.000000=5.000000
,66.500000=6.000000
,67.000000=7.000000
,67.500000=8.000000
,68.000000=9.000000
,68.500000=10.000000
,69.750000=9.000000
,70.000000=8.000000
,70.250000=7.000000
,70.500000=6.000000
,70.750000=5.000000
,71.000000=4.000000
,71.250000=3.000000
,71.500000=2.000000
,71.750000=1.500000
,72.000000=1.000000
,80.000000=1.500000
,80.500000=2.000000
,81.000000=3.000000
,81.500000=4.000000
,82.000000=5.000000
,82.500000=6.000000
,83.000000=7.000000
,83.500000=8.000000
,84.000000=9.000000
,84.500000=10.000000
,85.750000=9.000000
,86.000000=8.000000
,86.250000=7.000000
,86.500000=6.000000
,86.750000=5.000000
,87.000000=4.000000
,87.250000=3.000000
,87.500000=2.000000
,87.750000=1.500000
,88.000000=1.000000
,96.000000=1.500000
,96.500000=2.000000
,97.000000=3.000000
,97.500000=4.000000
,98.000000=5.000000
,98.500000=6.000000
,99.000000=7.000000
,99.500000=8.000000
,100.000000=9.000000
,100.500000=10.000000
,101.750000=9.000000
,102.000000=8.000000
,102.250000=7.000000
,102.500000=6.000000
,102.750000=5.000000
,103.000000=4.000000
,103.250000=3.000000
,103.500000=2.000000
,103.750000=1.500000
,104.000000=1.000000
,108.000000=-0.010000
,123.500000=-0.050000
,123.750000=-0.060000
,124.000000=-0.070000
,124.250000=-0.080000
,124.500000=-0.090000
,124.750000=-0.100000
,126.000000=0.100000
,126.250000=0.200000
,126.500000=0.400000
,126.750000=0.500000
,127.000000=0.600000
,127.250000=0.700000
,127.500000=0.800000
,127.750000=0.900000
,128.000000=1.000000
,129.000000=1.200000
,130.000000=1.400000
,131.000000=1.600000
,132.000000=1.800000
,133.000000=2.000000
,182.500000=2.200000
,183.000000=2.400000
,183.500000=2.600000
,184.000000=2.800000
,185.250000=2.600000
,185.500000=2.400000
,185.750000=2.200000
,186.000000=2.000000
,186.500000=1.600000
,187.000000=1.400000
,187.500000=1.200000
,188.000000=1.000000
,256.500000=1.250000
,257.000000=1.500000
,257.500000=1.750000
,258.000000=2.000000
,259.000000=2.250000
,260.000000=2.500000
,261.000000=2.750000
,263.000000=2.500000
,263.250000=2.000000
,263.500000=1.500000
,264.000000=1.000000
,272.000000=1.200000
,272.500000=1.250000
,273.000000=1.500000
,273.500000=1.750000
,274.000000=2.000000
,275.000000=2.250000
,276.000000=2.500000
,277.000000=2.750000
,279.000000=2.500000
,279.250000=2.000000
,279.500000=1.500000
,280.000000=1.000000
,288.000000=1.200000
,288.500000=1.250000
,289.000000=1.500000
,289.500000=1.750000
,290.000000=2.000000
,291.000000=2.250000
,292.000000=2.500000
,293.000000=2.750000
,295.000000=2.500000
,295.250000=2.000000
,295.500000=1.500000
,296.000000=1.000000
,304.000000=1.200000
,304.500000=1.250000
,305.000000=1.500000
,305.500000=1.750000
,306.000000=2.000000
,307.000000=2.250000
,308.000000=2.500000
,309.000000=2.750000
,311.000000=2.500000
,311.250000=2.000000
,311.500000=1.500000
,312.000000=1.000000
,316.000000=-0.000000
,319.500000=1.000000
,322.000000=1.100000
,324.000000=1.200000
,326.000000=1.300000
,328.000000=1.400000
,330.000000=1.500000
,332.000000=1.600000
,334.000000=1.700000
,336.000000=1.800000
,344.000000=2.000000
,344.500000=2.200000
,345.000000=2.400000
,345.500000=2.600000
,346.000000=2.800000
,347.250000=2.600000
,347.500000=2.400000
,347.750000=2.200000
,348.000000=2.000000
,348.500000=1.600000
,349.000000=1.400000
,349.500000=1.200000
,350.000000=1.000000
,352.000000=0.750000
,352.250000=0.500000
,352.500000=0.250000
,352.750000=0.000000
,354.000000=1.000000
,416.000000=0.900000
,417.000000=0.800000
,418.000000=0.700000
,419.000000=0.600000
,420.000000=0.500000
,421.000000=0.450000
,422.000000=0.400000
,423.000000=0.350000
,424.000000=0.300000
,425.000000=0.250000
,426.000000=0.200000
,427.000000=0.150000
,428.000000=0.100000
,429.000000=0.050000
,430.000000=0.010000
,432.000000=10.000000
,432.250000=9.000000
,432.500000=8.000000
,432.750000=7.000000
,433.000000=6.000000
,433.250000=5.000000
,433.500000=4.000000
,433.750000=3.000000
,434.000000=2.000000
,434.250000=1.000000
;
#FAKES:;
#LABELS:0.000000=Song Start
;
#NOTES:
// measure 0
2MM2
0000
0MM0
0000
,  // measure 1
0MM0
0000
0MM0
0000
,  // measure 2
0MM0
0000
0MM0
0000
,  // measure 3
0MM0
0000
0MM0
0000
,  // measure 4
0MM0
3003
MMMM
0000
,  // measure 5
M000
0000
0000
0000
,  // measure 6
0M00
0000
0000
0000
,  // measure 7
00M0
0000
0000
0000
,  // measure 8
000M
0000
0000
0000
,  // measure 9
00M0
0000
0000
0000
,  // measure 10
0M00
0000
0000
0000
,  // measure 11
M000
0000
0000
0000
,  // measure 12
MMMM
0000
0000
0000
,  // measure 13
0000
0000
0000
0000
,  // measure 14
1000
0001
0100
0100
1000
0001
1000
0001
0100
0100
1000
0001
,  // measure 15
0010
0001
0100
0100
1000
0010
1000
0010
0100
0001
0000
0000
,  // measure 16
2MM2
0000
0M00
00M0
0M00
00M0
0M00
00M0
0M00
00M0
0M00
00M0
0M00
00M0
0M00
00M0
,  // measure 17
0M00
00M0
0M00
00M0
0M00
00M0
0M00
00M0
0M00
00M0
0M00
00M0
0M00
00M0
3003
0000
,  // measure 18
0001
0100
0010
1000
0001
0100
0010
1000
0100
0001
0000
0000
,  // measure 19
2MM2
0000
0000
0000
0000
0000
3003
0000
MMMM
0000
0000
0000
,  // measure 20
M22M
0000
0000
0000
0000
0000
M000
0000
0000
000M
0000
0000
M000
0000
0000
000M
0000
0000
M000
0000
0000
000M
0000
0000
M000
0000
0000
000M
0000
0000
M000
0000
0000
000M
0000
0000
M000
0000
0000
000M
0000
0000
0000
M000
0000
0000
000M
0000
,  // measure 21
0000
0000
0000
0000
M000
0000
0000
0000
0000
0000
0000
0000
000M
0000
0000
0000
0000
0000
0000
0000
M000
0000
0000
0000
0000
0000
0000
0000
0000
0000
000M
0000
0000
0000
0000
0000
M000
0000
0000
0000
0000
0000
000M
0000
0000
0000
0000
0000
M000
0000
0000
0000
0000
0000
000M
0000
0000
0000
0000
0000
M000
0000
0000
0000
0000
0000
000M
0000
0000
0000
0000
0000
M000
0000
0000
0000
0000
0000
000M
0000
0000
0000
0000
0000
M000
0000
0000
0000
0000
0000
0000
0000
000M
0000
0000
0000
0000
0000
0000
0000
M000
0000
0000
0000
0000
0000
0000
0000
000M
0000
0000
0000
0000
0000
0000
0000
0000
0000
0000
0000
M000
0000
0000
0000
0000
0000
0000
0000
0000
0000
0000
0000
000M
0000
0000
0000
0000
0000
0000
0000
0000
0000
0000
0000
M000
0000
0000
0000
0000
0000
0000
0000
0000
0000
0000
0000
000M
0000
0000
0000
0000
0000
0000
0000
0000
0000
0000
0000
M330
0000
0000
0000
0000
0000
0000
0000
0000
0000
0000
0000
0000
0000
0000
0000
0000
0000
0000
0000
0000
0000
0000
0000
,  // measure 22
0001
0100
0001
0100
0010
1000
0010
1000
0010
1000
0000
0000
,  // measure 23
M0M2
0000
0003
0000
,  // measure 24
M220
000M
M000
000M
M000
000M
M000
000M
,  // measure 25
M000
0000
000M
0000
M000
000M
M000
000M
M000
000M
M000
0000
033M
0000
0000
0000
,  // measure 26
1000
0100
0001
1000
0010
0001
1000
0100
0001
1000
0000
0000
,  // measure 27
2002
0000
0000
0000
,  // measure 28
3003
0000
0000
0000
,  // measure 29
0MM0
0000
0MM0
0000
,  // measure 30
0MM0
0000
0000
0M00
,  // measure 31
00M0
MMMM
0000
0000
,  // measure 32
2002
0000
0000
0000
,  // measure 33
0000
0000
0000
0000
0000
0000
0000
0003
,  // measure 34
0002
0000
0000
0003
0200
0000
0000
0300
,  // measure 35
0020
0000
0000
0030
0002
0000
0000
0003
,  // measure 36
0001
0001
0010
0010
,  // measure 37
0100
0000
0000
3100
0000
0000
2000
0000
3000
1100
0000
0000
,  // measure 38
0020
0000
0030
0011
0000
0000
0002
0000
0003
0101
0000
0000
,  // measure 39
0020
0000
0030
1010
0000
0000
2002
0000
3003
1001
0000
0000
,  // measure 40
1001
1000
0100
1000
0100
0010
0001
0010
,  // measure 41
1001
0001
0100
0001
0100
0010
1000
0010
,  // measure 42
1001
1000
0100
0010
0001
1000
0100
0010
,  // measure 43
1001
0001
0100
0010
1000
0001
1000
0001
,  // measure 44
1000
0100
1000
0100
1000
0100
1000
0100
0010
0001
0010
0001
0010
0001
0010
0001
,  // measure 45
0100
0010
1000
0010
1000
0010
1000
0010
0100
0001
0100
0001
0100
0001
0100
0001
,  // measure 46
1000
0100
1000
0100
1000
0100
0010
0001
0010
0001
0010
0001
1000
0000
0010
0000
,  // measure 47
1001
1000
0100
0010
0001
0000
1001
0000
,  // measure 48
2002
0000
0000
3003
2200
3300
0220
0330
,  // measure 49
0022
0033
2002
3003
0202
0303
0220
0330
,  // measure 50
0001
0000
0100
0000
0001
0000
0200
0000
0000
0300
0000
0000
0020
0000
0000
0030
0000
0000
2020
0000
0000
3030
0000
0000
,  // measure 51
0220
0000
0000
0330
0000
0000
2002
0000
0000
3003
0000
0000
1000
0000
0100
0000
0010
0000
0001
0000
0100
0000
0010
0000
,  // measure 52
2000
3000
2002
3003
0202
0303
0020
0030
,  // measure 53
2200
3300
0200
0300
0022
0033
2002
3003
,  // measure 54
1000
0000
1100
0000
0010
0000
0022
0000
0033
2002
3003
0000
,  // measure 55
0010
0000
0000
0000
1000
0000
0000
0000
0100
0000
0000
0000
0010
0000
0000
0000
0000
0000
0000
0000
0000
0000
0000
0000
0001
0000
0000
0000
0000
0000
0000
0000
0000
1000
0000
0000
0000
0000
0000
0000
0000
0000
0100
0000
0000
0000
0000
0000
,  // measure 56
0002
0000
0000
0003
0120
0030
2010
3000
,  // measure 57
1200
0300
0021
0030
2002
3003
0220
0330
,  // measure 58
0001
0000
0100
0000
0010
0000
1001
0000
0000
0000
0000
0000
2100
0000
0000
3000
0000
0000
0012
0000
0000
0003
0000
0000
,  // measure 59
0101
0000
0000
1010
0000
0000
1000
0100
1000
0100
0010
0001
,  // measure 60
1001
0000
0000
0000
0000
0000
0220
0000
0000
0330
0000
0000
0101
0000
0000
0000
0001
0000
1000
0000
0000
0000
0000
0000
,  // measure 61
0110
0000
1000
0001
0000
0000
1100
0000
0010
0001
0000
0000
,  // measure 62
0011
0000
0110
0000
1100
0000
1001
0000
0010
0001
0000
0000
,  // measure 63
2002
0000
0000
3003
2002
0003
3100
0000
,  // measure 64
0220
0000
0000
0030
0010
0000
0001
0000
,  // measure 65
0010
0000
1000
0000
0010
0000
0001
0300
,  // measure 66
2000
0000
3100
1000
0000
0000
0002
0000
0103
0001
0000
0000
,  // measure 67
1000
0010
1000
0010
0000
0000
0101
0000
0100
0001
0000
0000
,  // measure 68
0220
0000
0000
0300
0100
0000
1000
0000
,  // measure 69
0100
0000
0001
0000
0100
0000
1000
0030
,  // measure 70
0002
0000
0013
0001
0000
0000
2000
0000
3010
1000
0000
0000
,  // measure 71
0001
0100
0001
0100
0000
0000
1010
0000
0010
1000
0000
0000
,  // measure 72
2002
0000
0000
0003
0002
0003
0100
0000
,  // measure 73
0001
0000
0010
0000
0002
0003
0100
3000
,  // measure 74
0020
0000
1030
0010
0000
0000
0200
0000
0301
0100
0000
0000
,  // measure 75
0010
0001
0010
0001
0000
0000
1100
0000
1000
0100
0000
0000
,  // measure 76
1002
0000
0000
0000
2000
3000
0100
0000
,  // measure 77
0010
0000
0100
0000
2000
3000
0013
0000
,  // measure 78
M220
000M
M000
000M
M000
000M
M000
000M
,  // measure 79
M330
0000
0000
0000
M000
0M00
00M0
000M
0000
M000
0M00
00M0
000M
0000
0000
0000
,  // measure 80
1000
0100
1000
0001
0100
0001
0100
0010
,  // measure 81
1000
0010
1000
0100
0010
0001
0010
0001
,  // measure 82
1000
0001
0100
0001
0100
0010
1000
0010
,  // measure 83
1000
0100
0010
0001
1000
0100
0010
0001
,  // measure 84
1000
0100
1000
0100
1000
0100
1000
0100
0010
0001
0010
0001
0010
0001
0010
0001
,  // measure 85
0100
0010
0100
0010
0100
0010
0100
0010
1000
0001
1000
0001
1000
0001
1000
0001
,  // measure 86
1000
0100
0010
0001
1000
0100
0010
0001
0100
0010
1000
0001
0100
0010
1000
0001
,  // measure 87
1000
2000
3200
0320
0032
0003
1001
0000
,  // measure 88
2002
0000
0000
3003
0000
0000
0000
0000
2000
0000
3000
0000
0011
0000
0000
0000
,  // measure 89
2000
3000
0101
0000
2000
3000
0011
0000
,  // measure 90
1000
0100
0001
0000
2000
3000
0011
0000
,  // measure 91
2000
3000
0101
0000
1000
0100
0001
0010
,  // measure 92
0100
0000
0200
0300
1100
0000
0020
0030
,  // measure 93
0011
0000
0001
0100
1010
0000
0200
0300
,  // measure 94
0011
0000
0001
0100
0010
1000
0001
1000
,  // measure 95
0101
0000
0000
0000
1010
0000
0000
0000
2000
0000
0000
0001
0000
0000
3010
0000
,  // measure 96
2002
3003
0110
1001
,  // measure 97
0200
0300
0110
0000
2000
3000
1010
0000
,  // measure 98
1000
0100
1100
0000
0020
0030
0011
0000
,  // measure 99
0002
0003
0101
0000
1000
0100
1000
0100
,  // measure 100
0010
0001
1000
0000
1100
0000
1100
0000
,  // measure 101
0011
0000
0010
0001
0011
0000
0011
0000
,  // measure 102
0101
0000
0001
0100
1000
0100
0001
1000
,  // measure 103
0100
0010
0001
0100
0010
0000
0100
0000
,  // measure 104
2MM2
0MM0
0MM0
0MM0
,  // measure 105
0MM0
0MM0
0MM0
0MM0
,  // measure 106
0MM0
0MM0
0MM0
0MM0
,  // measure 107
0MM0
0MM0
0MM0
3003
,  // measure 108
MMMM
0000
M000
0M00
00M0
000M
00M0
0000
0M00
0000
M000
0000
0M00
0000
00M0
0000
000M
0000
00M0
0000
0M00
0000
0000
0000
M000
0000
0000
0000
0000
0000
0000
0000
0000
0000
0000
0000
0000
0000
0000
0000
0000
0000
0000
0000
0000
0000
0000
0000
0000
0000
0000
0000
0000
0000
0000
0000
0000
0000
0000
0000
0000
0000
0000
0000
;
