#TITLE:Unicorn Zombie Apocalypse;
#SUBTITLE:;
#ARTIST:Borgore & Sikdope;
#TITLETRANSLIT:;
#SUBTITLETRANSLIT:;
#ARTISTTRANSLIT:;
#CREDIT:;
#BANNER:Unicorn Zombie Apocalypse.png;
#BACKGROUND:Unicorn Zombie Apocalypse - bg.png;
#LYRICSPATH:;
#CDTITLE:cdtitle.png;
#MUSIC:Unicorn Zombie Apocalypse.ogg;
#OFFSET:-1.900;
#SAMPLESTART:73.240;
#SAMPLELENGTH:12.840;
#SELECTABLE:YES;
#DISPLAYBPM:64.000:128.000;
#BPMS:0.000=128.000,28.000=64.000,60.000=128.000,92.000=64.000,100.000=128.000,112.000=96.000,113.000=192.000,114.000=128.000,144.000=64.000,145.000=128.000,175.000=64.000,176.000=128.000,207.000=256.000,208.000=128.000;
#STOPS:112.000=0.940
,207.000=0.120
,207.500=0.120
;
#BGCHANGES:;

//---------------dance-single - ----------------
#NOTES:
     dance-single:
     :
     Hard:
     9:
     0.508,0.517,0.226,0.320,0.496: // measure 1
0000
0000
0000
0000
,  // measure 2
2000
0000
0000
0000
3100
0000
0010
0000
0001
0000
0000
0010
0000
0010
0100
0000
,  // measure 3
2000
0000
0000
0000
3001
0000
0010
0000
1000
0000
0000
0010
0000
0010
0001
0000
,  // measure 4
2000
0000
0000
0000
3010
0000
0100
0000
0001
0000
0000
0100
0000
0100
0010
0000
,  // measure 5
0200
0000
0000
0000
0310
0000
1000
0000
0100
0000
0000
1000
0000
1000
0010
0000
,  // measure 6
0200
0000
0000
0000
0301
0000
1000
0000
0010
0000
0000
1000
0000
1000
0001
0000
,  // measure 7
0200
0000
0000
0001
0000
0000
0001
0000
0000
0000
0300
0010
0000
0010
1000
0000
,  // measure 8
1M01
0000
0000
1000
0000
0000
0010
0000
0000
0100
0000
0000
0001
0000
1000
0100
0000
0000
1000
0000
0010
0100
0000
0010
,  // measure 9
0100
0000
0000
0001
0000
0000
0010
0000
0000
0100
0000
0000
1000
0000
0001
0100
0000
0000
0001
0000
0010
0100
0000
0010
,  // measure 10
0100
0000
0000
1000
0000
0000
0100
0000
0000
0010
0000
0000
0001
0000
1000
0010
0000
0000
1000
0000
0100
0010
0001
0010
,  // measure 11
0100
0000
0000
0010
0000
0000
0001
0000
0000
0100
0000
0000
0001
0000
1000
0001
0000
0000
0010
0000
0000
0100
0000
1000
,  // measure 12
0001
0000
0000
1000
0000
0000
0100
0000
0000
0010
0000
0000
0001
0000
1000
0010
0000
0000
1000
0000
0100
0010
0000
0100
,  // measure 13
0010
0000
0000
0001
0000
0000
0100
0000
0000
0010
0000
0000
1000
0000
0001
0010
0000
0000
0001
0000
0100
0010
0000
0100
,  // measure 14
0010
0000
0000
1000
0000
0000
0010
0000
0000
0100
0000
0000
0001
0000
1000
0100
0000
0000
1000
0000
0010
0100
0001
0100
,  // measure 15
0010
0000
0000
0100
0000
0000
0001
0000
0000
0010
0000
0000
0001
0000
1000
0001
0000
0000
0100
0000
0000
0010
0000
0000
,  // measure 16
101M
0000
1000
0001
0000
0001
0000
0000
0100
0020
0000
0000
,  // measure 17
2030
0000
0000
0000
0000
0000
3200
0000
0000
0000
0000
0000
0302
0000
0000
0003
0100
0000
2000
0000
0000
3000
0010
0000
,  // measure 18
1000
0000
0001
1000
0000
1000
0000
0000
0001
0200
0000
0000
,  // measure 19
0320
0000
0000
0000
0000
0000
0230
0000
0000
0000
0000
0000
0302
0000
0000
0003
0010
0000
0200
0000
0000
0300
1000
0000
,  // measure 20
0010
0000
1000
0001
0000
0001
0000
0000
0010
0200
0000
0000
,  // measure 21
2300
0000
0000
0000
0000
0000
3020
0000
0000
0000
0000
0000
0032
0000
0000
0003
0010
0000
2000
0000
0000
3000
0100
0000
,  // measure 22
1000
0000
0001
1000
0000
1000
0000
0000
0001
0020
0000
0000
,  // measure 23
0230
0000
0000
0000
0000
0000
0320
0000
0000
0000
0000
0000
0032
0000
0000
0003
0100
0000
0020
0000
0000
0030
1000
0000
,  // measure 24
M001
0000
0000
0020
0000
0000
0230
0000
0000
2300
0000
0000
3001
0000
0000
0020
0000
0000
0230
0000
0000
1300
0000
0100
,  // measure 25
0010
0002
0023
0230
1300
0002
0023
0230
,  // measure 26
130M
0100
0010
0001
0010
0001
0100
0010
,  // measure 27
0100
0010
1000
0100
1000
0100
0010
0001
,  // measure 28
0010
0100
0010
0100
0010
0100
0010
0100
1000
0001
1000
0001
1000
0001
1000
0001
,  // measure 29
10M0
0000
0000
0000
0000
0000
1010
0000
0000
0110
0000
0010
,  // measure 30
1000
0000
0010
0100
0000
0010
1000
0000
0000
1000
0000
0001
,  // measure 31
0010
0000
0100
1000
0000
0000
0101
0000
0000
1001
0000
0001
,  // measure 32
0100
0000
0001
0010
0000
0001
0100
0000
0000
0100
0000
0001
,  // measure 33
1000
0000
0000
0001
0010
0100
0110
0000
0000
0011
0000
0001
,  // measure 34
1000
0000
0001
0010
0000
0001
1000
0000
0000
1000
0000
0001
,  // measure 35
0100
0000
0010
1000
0000
0000
1001
0000
0000
0011
0000
0010
,  // measure 36
0100
0000
1000
0001
0000
0100
0010
0000
0000
1100
0000
0000
,  // measure 37
00M2
0000
0000
0000
0000
0000
0000
0000
0000
0003
0000
0000
M101
0000
0000
0000
0000
0000
0000
0000
0000
0000
0000
0000
0110
0000
0000
0000
0000
0000
0000
0000
0100
0000
0000
0000
0001
0000
0000
0000
0000
0000
0000
0000
0100
0000
0000
0000
,  // measure 38
0010
0000
0100
0001
0000
0000
0001
0000
1000
0100
0000
0010
,  // measure 39
0001
0000
0000
1010
0000
0000
1001
0000
1000
0010
0000
1000
,  // measure 40
0100
0000
1000
0010
0000
0000
0010
0000
1000
0001
0000
0000
,  // measure 41
1000
0100
0010
0110
0000
0000
1100
0000
1000
0001
0000
1000
,  // measure 42
0100
0000
1000
0001
0000
0000
0001
0000
1000
0010
0000
0100
,  // measure 43
0001
0000
0000
1001
0000
0000
1100
0000
0100
0010
0000
0001
,  // measure 44
1000
0000
0000
0000
0000
0000
0000
0000
0010
0000
0000
0000
0100
0000
0000
0000
0000
0000
0000
0000
0000
0000
0000
0000
0011
0000
0000
0000
0000
0000
0000
0000
0000
0000
0000
0000
200M
0000
0000
0000
0000
0000
0010
0000
0000
3000
0000
0000
,  // measure 45
10M1
0000
0000
0001
0010
0100
0010
0000
0001
1000
0000
0010
,  // measure 46
0100
0000
0000
0101
0000
0001
0010
0000
1000
0010
0000
0000
,  // measure 47
0011
0000
0000
1000
0010
0100
0001
0000
0010
0100
0000
0010
,  // measure 48
0001
0000
0000
1001
0000
0001
0100
0000
0000
0010
1000
0001
,  // measure 49
1001
0000
0000
0001
0100
0010
0100
0000
0001
1000
0000
0100
,  // measure 50
0010
0000
0000
0011
0000
0001
0100
0000
1000
0100
0000
0000
,  // measure 51
0101
0000
0000
1000
0000
0010
0100
0000
0001
1000
0000
0100
,  // measure 52
0010
0000
0000
0000
0000
0000
0011
0000
0000
0000
0000
0000
1000
0000
0100
0000
0001
0000
0100
0000
0000
1000
0000
0000
,  // measure 53
2002
0000
0000
0000
,  // measure 54
3003
0000
0000
0000
;

//---------------dance-single - ----------------
#NOTES:
     dance-single:
     :
     Medium:
     7:
     0.422,0.393,0.578,0.242,0.137: // measure 1
0000
0000
0000
0000
,  // measure 2
0000
0000
0000
0000
,  // measure 3
0000
0000
0000
0000
,  // measure 4
2000
0000
3010
1000
0100
0000
1000
0100
,  // measure 5
2000
0000
3100
1000
0010
0000
1000
0010
,  // measure 6
2000
0000
3001
0100
0010
0000
0100
0010
,  // measure 7
0100
0000
0000
0001
0000
0000
0001
0000
0000
0000
0000
1000
0000
0000
1000
0000
,  // measure 8
10M1
0000
0000
0001
0000
0000
0010
0000
0000
0100
0000
0000
1000
0000
0001
1000
0000
0000
0100
0000
0000
0000
0000
0000
,  // measure 9
0000
0000
0000
1000
0000
0000
0010
0000
0000
0100
0000
0000
0001
0000
1000
0001
0000
0000
0100
0000
0000
0000
0000
0000
,  // measure 10
0000
0000
0000
0001
0000
0000
1000
0000
0000
0010
0000
0000
1000
0000
0010
0100
0000
0000
0010
0000
0000
0000
0000
0000
,  // measure 11
0000
0000
0000
1000
0000
0000
0001
0000
0000
0010
0000
0000
0001
0000
0010
0100
0000
0000
0010
0000
0000
0001
0000
0000
,  // measure 12
0000
0000
0000
1000
0000
0000
0010
0000
0000
0100
0000
0000
0001
0000
1000
0001
0000
0000
0100
0000
0000
0000
0000
0000
,  // measure 13
0000
0000
0000
0001
0000
0000
0010
0000
0000
0100
0000
0000
1000
0000
0001
1000
0000
0000
0100
0000
0000
0000
0000
0000
,  // measure 14
0000
0000
0000
1000
0000
0000
0001
0000
0000
0010
0000
0000
0001
0000
0010
0100
0000
0000
0010
0000
0000
0000
0000
0000
,  // measure 15
0000
0000
0000
0001
0000
0000
1000
0000
0000
0010
0000
0000
1000
0000
0010
0100
0000
0000
0010
0000
0000
1000
0000
0000
,  // measure 16
10M1
0002
2003
3200
,  // measure 17
1300
0000
0001
0200
0000
0000
0320
0000
0000
1030
0000
0000
,  // measure 18
1100
2000
3020
0230
,  // measure 19
0301
0000
0100
0020
0000
0000
2030
0000
0000
3001
0000
0000
,  // measure 20
0011
2000
3002
0203
,  // measure 21
0301
0000
1000
0200
0000
0000
0320
0000
0000
0031
0000
0000
,  // measure 22
0101
0002
0023
0230
,  // measure 23
1300
0000
0100
0020
0000
0000
0032
0000
0000
1003
0000
0000
,  // measure 24
101M
1000
0100
1000
0001
1000
0010
1000
,  // measure 25
0001
0010
0100
0010
0001
0100
0010
0100
,  // measure 26
00M1
1000
0001
1000
0010
0100
0010
0100
,  // measure 27
0001
1000
0001
1000
0010
0100
0010
0100
,  // measure 28
0002
0010
0010
0010
,  // measure 29
M013
0000
1001
1100
,  // measure 30
0011
0000
0000
1100
0000
0000
1100
0000
0000
0101
0000
0100
,  // measure 31
0010
0000
0100
0010
0000
0000
1001
0000
0000
0101
0000
0000
,  // measure 32
1010
0000
0000
0101
0000
0000
0101
0000
0000
1000
0000
0001
,  // measure 33
0100
0000
0000
0002
0000
0003
1001
0000
0000
0101
0000
0000
,  // measure 34
1010
0000
0000
0101
0000
0000
0101
0000
0000
1100
0000
0100
,  // measure 35
0010
0000
0100
0010
0000
0000
1001
0000
0000
1010
0000
0000
,  // measure 36
0101
1010
0101
1100
,  // measure 37
020M
0000
0000
0300
M110
0000
0000
0000
0011
0000
0000
0000
1001
0000
0000
0000
,  // measure 38
1100
0000
0000
0110
0000
0000
1100
0000
1000
0001
0000
1000
,  // measure 39
0001
0011
0110
0011
,  // measure 40
1001
0000
0000
1100
0000
0000
0110
0000
0100
1000
0000
0000
,  // measure 41
0020
0000
0030
0110
0000
0000
1010
0000
0000
1001
0000
0000
,  // measure 42
0101
0000
0000
0110
0000
0000
0101
0000
0001
1000
0000
0001
,  // measure 43
1000
1010
0110
1010
,  // measure 44
1001
0000
0000
0000
0000
0000
0101
0000
0000
0000
0000
0000
0110
0000
0000
0000
0000
0000
02M0
0000
0000
0001
0300
0000
,  // measure 45
M101
0000
0000
0001
1000
0001
1000
0000
0000
1100
0000
0000
,  // measure 46
0011
0101
1010
1100
,  // measure 47
0011
0000
0000
0010
0100
0010
0100
0000
0000
1100
0000
0000
,  // measure 48
1010
0000
0000
0101
0000
0000
0011
0000
0000
0020
0000
0030
,  // measure 49
0110
0000
0000
1000
0001
1000
0001
0000
0000
0101
0000
0000
,  // measure 50
1010
1100
0011
0101
,  // measure 51
1010
0000
0000
0110
0000
0100
0001
0000
0100
0001
0000
1000
,  // measure 52
0001
0000
0000
0000
0000
0000
0101
0000
0000
0000
0000
0000
0100
0000
0010
0000
0100
0000
0010
0000
0000
0100
0000
0000
,  // measure 53
0220
0000
0000
0000
,  // measure 54
0330
0000
0000
0000
;

//---------------dance-single - ----------------
#NOTES:
     dance-single:
     :
     Easy:
     5:
     0.266,0.325,0.055,0.281,0.000: // measure 1
0000
0000
0000
0000
,  // measure 2
0000
0000
0000
0000
,  // measure 3
0000
0000
0000
0000
,  // measure 4
0001
1000
0010
0000
,  // measure 5
1000
0001
0010
0000
,  // measure 6
0001
0100
0010
0000
,  // measure 7
2000
0000
0000
0000
,  // measure 8
3M00
0001
0100
0010
1000
0010
0100
0000
,  // measure 9
0000
0001
0010
0100
0010
0001
0100
0000
,  // measure 10
0000
1000
0100
0010
0001
0010
0100
0000
,  // measure 11
0000
1000
0010
0100
0010
1000
0100
1000
,  // measure 12
0000
0001
0010
0100
1000
0100
0010
0000
,  // measure 13
0000
0001
0100
0010
0100
0001
0010
0000
,  // measure 14
0000
1000
0010
0100
0001
0100
0010
0000
,  // measure 15
0000
1000
0100
0010
0100
1000
0010
1000
,  // measure 16
10M1
0002
2003
3200
,  // measure 17
2300
3020
0230
0300
,  // measure 18
0000
0020
2030
3002
,  // measure 19
0203
0302
2003
3000
,  // measure 20
0000
0002
2003
3020
,  // measure 21
2030
3200
0320
0030
,  // measure 22
0000
0200
2300
3002
,  // measure 23
0023
0032
2003
3020
,  // measure 24
003M
0100
0001
0100
0000
0010
1000
0010
,  // measure 25
0000
1000
0100
1000
0000
0001
0010
0001
,  // measure 26
1M00
1000
0001
0001
,  // measure 27
1000
1000
0001
0001
,  // measure 28
2000
0000
0000
0000
,  // measure 29
300M
0000
1001
1000
,  // measure 30
0001
1000
1000
0010
,  // measure 31
0100
0010
0000
1000
,  // measure 32
0100
1000
1000
0001
,  // measure 33
0010
0000
0200
0300
0110
0000
0010
0000
,  // measure 34
0001
0010
0010
0001
,  // measure 35
1000
0001
0000
1000
,  // measure 36
0100
0010
0001
1000
,  // measure 37
0M02
1003
0001
1000
,  // measure 38
0001
0001
0010
0100
,  // measure 39
0010
0000
0001
0100
,  // measure 40
0001
0001
1000
0010
,  // measure 41
0200
0300
0110
0000
0010
0000
1000
0000
,  // measure 42
0010
0010
1000
0001
,  // measure 43
1000
0000
0001
0100
,  // measure 44
0010
0000
1000
0000
0001
0000
20M0
3001
,  // measure 45
1001
2000
3100
1000
,  // measure 46
0010
1000
0010
0100
,  // measure 47
0000
0002
0103
0001
,  // measure 48
0010
0000
0001
0000
0010
0000
0200
0300
,  // measure 49
0110
0200
1300
0100
,  // measure 50
0010
0001
0010
0100
,  // measure 51
0000
1000
0100
0010
,  // measure 52
0100
0000
0000
0000
2000
0000
3M00
00M0
,  // measure 53
1001
0000
0000
0000
;

//---------------dance-single - ----------------
#NOTES:
     dance-single:
     :
     Beginner:
     3:
     0.126,0.142,0.023,0.000,0.000: // measure 1
0000
0000
0000
0000
,  // measure 2
0000
0000
0000
0000
,  // measure 3
0000
0000
0000
0000
,  // measure 4
0001
0000
0000
0000
,  // measure 5
0001
0000
0000
0000
,  // measure 6
1000
0000
0000
0000
,  // measure 7
1000
0000
0000
0000
,  // measure 8
0001
1000
1000
1000
,  // measure 9
0000
0001
0001
0001
,  // measure 10
0000
1000
1000
1000
,  // measure 11
0000
0001
0001
0001
,  // measure 12
0000
1000
1000
1000
,  // measure 13
0000
0010
0010
0010
,  // measure 14
0000
0100
0100
0100
,  // measure 15
0000
0001
0001
0001
,  // measure 16
1001
0000
1000
0000
,  // measure 17
0010
0000
0100
0000
,  // measure 18
0000
0000
0001
0000
,  // measure 19
0010
0000
0100
0000
,  // measure 20
0000
0000
1000
0000
,  // measure 21
0010
0000
0100
0000
,  // measure 22
0000
0000
0001
0000
,  // measure 23
0010
0000
0100
0000
,  // measure 24
0010
0000
0001
0000
,  // measure 25
0001
0000
1000
0000
,  // measure 26
1000
0000
0001
0000
,  // measure 27
1000
0000
0001
0000
,  // measure 28
1000
1000
1000
1000
,  // measure 29
1000
0000
0001
0000
,  // measure 30
1000
0000
0001
0001
,  // measure 31
0001
0000
0100
0000
,  // measure 32
0010
0000
0100
0100
,  // measure 33
0100
0000
0001
0000
,  // measure 34
0100
0000
0001
0001
,  // measure 35
0001
0000
1000
0000
,  // measure 36
0010
0010
0010
0000
,  // measure 37
0000
1001
0000
0001
,  // measure 38
0000
1000
1000
1000
,  // measure 39
0000
0100
0000
0010
,  // measure 40
0000
0100
0100
0100
,  // measure 41
0000
1000
0000
0100
,  // measure 42
0000
1000
1000
1000
,  // measure 43
0000
0001
0000
0010
,  // measure 44
0010
0010
0000
0000
,  // measure 45
1001
0000
1000
0000
,  // measure 46
0010
0000
0100
0000
,  // measure 47
0001
0000
0010
0000
,  // measure 48
0100
0000
1000
0000
,  // measure 49
0001
0000
1000
0000
,  // measure 50
0010
0000
0100
0000
,  // measure 51
0001
0000
0010
0010
,  // measure 52
0010
0000
0000
0000
,  // measure 53
0010
0000
0000
0000
;
