#TITLE:Tremor;
#SUBTITLE:;
#ARTIST:Dimitri Vegas & Martin Garrix & Like Mike;
#TITLETRANSLIT:;
#SUBTITLETRANSLIT:;
#ARTISTTRANSLIT:;
#CREDIT:;
#BANNER:Tremor.png;
#BACKGROUND:Tremor-bg.png;
#LYRICSPATH:;
#CDTITLE:cdtitle.png;
#MUSIC:Tremor.ogg;
#OFFSET:-1.900;
#SAMPLESTART:60.020;
#SAMPLELENGTH:14.960;
#SELECTABLE:YES;
#BPMS:0.000=128.000,60.000=64.000,68.000=128.000,116.000=64.000,124.000=128.000;
#STOPS:;
#BGCHANGES:;

//---------------dance-single - ----------------
#NOTES:
     dance-single:
     :
     Hard:
     10:
     0.591,0.639,0.572,0.521,0.216:
0000
0000
0000
0000
,
0000
0000
0000
0000
,
0000
0000
0000
0000
,
0000
0000
1000
0001
1000
0000
1000
0000
0000
0000
0001
1000
0001
0000
0001
0000
,
0000
0000
1000
0001
1000
0000
1000
0000
0000
0000
0001
1000
0001
0000
0000
0000
,
0000
0000
0100
0010
0100
0000
0100
0000
0000
0000
0010
0100
0010
0000
0010
0000
,
0000
0000
0100
0010
0100
0000
0100
0000
0000
0000
0000
0000
0000
0000
0000
0000
,
2001
0000
0020
0030
0002
0003
0200
0300
,
0002
0003
0100
0100
0001
0001
0020
3030
,
0210
0000
0002
0003
0020
0030
2000
3000
,
0020
0030
1000
1000
0010
0010
0002
0303
,
0120
0000
2000
3000
0200
0300
0002
0003
,
0200
0300
0001
0001
0100
0100
2000
3030
,
1002
0000
0200
0300
2000
3000
0020
0030
,
2000
3000
0010
0010
1000
1000
0200
0303
,
1M01
1000
0010
1000
0010
1000
0001
1000
0001
1000
0100
1000
0100
1000
0001
1000
,
0001
1000
0010
1000
0010
1000
0001
0010
0100
0010
0001
0100
0010
0100
0001
1M00
,
0001
0001
0010
0010
0100
0100
1000
1000
,
0010
0010
0100
0100
0001
0001
1000
1000
,
0001
0010
0001
0010
0001
0010
0001
0010
0002
0000
0000
0000
0000
0000
0003
0000
,
1001
0000
1001
1000
1100
0001
0101
0000
,
0110
1001
1100
0101
,
0110
0000
1000
1000
0001
0001
0010
0000
,
0110
1001
1010
1100
,
0110
0000
0001
0001
1000
1000
0100
0000
,
0110
1001
1100
0101
,
0110
0000
1000
1000
0001
0001
0010
0000
,
0110
1001
1010
1100
,
0120
0000
0000
0100
0000
0000
0001
0000
0000
0001
0000
0000
0031
0000
0000
0000
,
1M01
0000
0001
0000
0010
0000
1000
0000
0100
0000
0001
0010
0100
0010
0001
0000
,
0001
0000
1000
0000
0010
0000
0001
0000
0100
0000
1000
0010
0100
0010
1000
0000
,
0M01
0010
0001
1000
0010
1000
0001
0010
,
0001
1000
0010
1000
0001
0010
0001
1000
,
0010
0100
0010
0100
0010
0100
0010
0100
0020
0000
0000
0000
0000
0000
0030
0000
,
1001
0000
1001
1000
1010
0001
0011
0000
,
0110
0000
2002
3003
0022
0033
2020
3030
,
0220
0330
0001
0001
1000
1000
0200
0300
,
0110
0000
2002
3003
0202
0303
0022
0033
,
0220
0330
1000
1000
0001
0001
0020
0030
,
0110
0000
2002
3003
0022
0033
2020
3030
,
0220
0330
0001
0001
1000
1000
0200
0300
,
0110
0000
2002
3003
0202
0303
0022
0033
,
2000
0000
0100
0100
0001
0001
3010
0000
,
0110
1001
1010
0110
,
0101
0000
0001
0010
0100
0010
0001
0000
,
0110
1001
0011
0110
,
1100
0000
1000
0010
0100
0010
1000
0000
,
0110
1001
0101
0110
,
1010
0000
1000
0100
0010
0100
1000
0000
,
0110
1001
1100
0110
,
0012
0000
0000
0010
0000
0000
1000
0000
0000
1000
0000
0000
1003
0000
0000
0000
,
1010
0000
1000
0100
1000
0000
1000
0000
0000
0000
0001
0010
0001
0000
0001
0000
,
0000
0000
1000
0100
1000
0000
1000
0000
0000
0000
0001
0010
0001
0000
0000
0000
,
0000
0000
0001
0100
0001
0000
0001
0000
0000
0000
1000
0010
1000
0000
1000
0000
,
0000
0000
0001
0100
0001
0000
0001
0000
0000
0000
0000
0000
0110
0000
0000
0000
,
1001
0000
0001
0100
0010
0000
0010
0000
0000
0000
1000
0100
0010
0000
0010
0000
,
0000
0000
0001
0100
0010
0000
0010
0000
0000
0000
0100
0010
0100
0000
0000
0000
,
0000
0000
0001
0100
0010
0000
0010
0000
0000
0000
1000
0100
0010
0000
0010
0000
,
0000
0000
0001
0100
0010
0000
0010
0000
0000
0000
0000
0000
1010
0000
0000
0000
,
1100
1000
0010
0100
0001
0020
0030
0002
,
0003
1000
0010
1000
0001
1000
0010
0100
,
0000
0001
0010
0100
1000
0020
0030
2000
,
3000
0001
0010
0001
1000
0001
0010
0100
,
0000
1000
0010
0100
0001
0020
0030
0002
,
0003
1000
0010
1000
0001
1000
0010
0100
,
0000
0001
0010
0100
1000
0020
0030
0200
,
0300
0001
0100
0001
0100
0001
0100
0001
0100
0001
0100
0001
2000
0000
0000
0000
,
3MMM
0000
0000
0000
;

//---------------dance-single - ----------------
#NOTES:
     dance-single:
     :
     Medium:
     7:
     0.423,0.442,0.396,0.286,0.015: // measure 1
0000
0000
0000
0000
,  // measure 2
0000
0000
0000
0000
,  // measure 3
0000
0000
0000
0000
,  // measure 4
1000
0001
1000
0001
,  // measure 5
1000
0100
1000
0100
,  // measure 6
0010
0001
0010
0001
,  // measure 7
0100
0010
0100
0010
,  // measure 8
2010
0010
0001
0001
,  // measure 9
0010
0000
0010
0000
0001
0001
3001
0000
,  // measure 10
1200
1000
0010
0010
,  // measure 11
1000
0000
1000
0000
0010
0010
0310
0000
,  // measure 12
0012
0010
1000
1000
,  // measure 13
0010
0000
0010
0000
1000
1000
1003
0000
,  // measure 14
0201
0001
0010
0010
,  // measure 15
0001
0000
0001
0000
0010
0010
0310
0000
,  // measure 16
1001
1000
0001
1000
0001
1000
0001
1000
,  // measure 17
0010
0100
0010
0100
0010
0100
0010
0100
,  // measure 18
0001
1000
0001
1000
0010
0100
0010
0100
,  // measure 19
0001
0010
0001
0010
0100
1000
0100
1000
,  // measure 20
0002
0000
0000
0000
0020
0000
0000
0033
,  // measure 21
1000
0000
1000
0100
1000
0010
1000
0000
,  // measure 22
1001
1100
1100
0101
,  // measure 23
0101
0000
1000
1000
0001
0001
0001
0000
,  // measure 24
1001
0101
0101
1100
,  // measure 25
1100
0000
0001
0001
1000
1000
1000
0000
,  // measure 26
1001
0101
0101
0011
,  // measure 27
0011
0000
0001
0001
0010
0010
0010
0000
,  // measure 28
0110
0011
0011
0101
,  // measure 29
0202
0000
0000
0303
,  // measure 30
0000
0000
1000
0000
1000
0000
0001
0000
0001
0000
1000
0010
1000
0010
1000
0000
,  // measure 31
0000
0000
0001
0000
0001
0000
1000
0000
1000
0000
0001
0010
0001
0010
0001
0000
,  // measure 32
1000
0001
1000
0001
1000
0001
1000
0001
,  // measure 33
1000
0001
1000
0001
1000
0001
1000
0001
,  // measure 34
2000
0000
0000
0000
0020
0000
0000
3030
,  // measure 35
1000
0000
1000
0100
1000
0010
1000
0000
,  // measure 36
1001
0002
0023
0230
,  // measure 37
2300
0000
3001
0100
0010
1000
0100
0000
,  // measure 38
1001
2000
3020
0230
,  // measure 39
0302
0000
1003
0100
0010
0001
0100
0000
,  // measure 40
1001
0002
0203
0320
,  // measure 41
2030
0000
3001
0010
0100
1000
0010
0000
,  // measure 42
1001
2000
3200
0320
,  // measure 43
0032
0000
1003
0010
0100
0001
0010
0000
,  // measure 44
1001
0101
0101
1100
,  // measure 45
1100
0000
0001
0010
0001
0010
0001
0000
,  // measure 46
1001
1100
1100
0101
,  // measure 47
0101
0000
1000
0100
1000
0100
1000
0000
,  // measure 48
1001
1100
1100
1010
,  // measure 49
1010
0000
0001
0010
0001
0010
0001
0000
,  // measure 50
0110
0011
0011
1100
,  // measure 51
2200
0000
0000
3300
,  // measure 52
1001
1000
0001
1000
,  // measure 53
0001
0010
0001
0010
,  // measure 54
1100
1000
0100
1000
,  // measure 55
0010
0100
0010
0100
,  // measure 56
0101
0001
1000
0001
,  // measure 57
1000
0001
0100
0001
,  // measure 58
1010
0010
1000
0010
,  // measure 59
1000
0100
0010
0110
,  // measure 60
0010
0001
0100
0010
,  // measure 61
0100
0000
0002
0000
0023
0000
0130
0100
,  // measure 62
1000
0010
0100
0001
,  // measure 63
0010
0200
0320
0032
,  // measure 64
1003
1000
0100
0010
,  // measure 65
0100
0000
2000
0000
3020
0000
0130
0100
,  // measure 66
0001
0010
0100
1000
,  // measure 67
0020
0230
0320
2030
,  // measure 68
3100
0000
0000
0000
;

//---------------dance-single - ----------------
#NOTES:
     dance-single:
     :
     Easy:
     5:
     0.335,0.369,0.338,0.205,0.000:
0000
0000
0000
0000
,
0000
0000
0000
0000
,
0000
0000
0000
0000
,
1000
1000
0001
0001
,
1000
1000
0001
0001
,
0010
0010
0100
0100
,
0010
0010
0100
0100
,
2001
0001
0001
0001
,
0001
0001
0001
3001
,
0102
0100
0100
0100
,
0100
0100
0100
0103
,
0210
0010
0010
0010
,
0010
0010
0010
0310
,
1020
1000
1000
1000
,
1000
1000
1000
1030
,
10M1
1000
0001
1000
,
0010
0100
0010
0100
,
M001
0100
0010
1000
,
0100
0010
0001
0100
,
0020
0000
0000
0000
2000
0000
0000
3030
,
1000
0010
0100
0001
,
1001
1100
1100
1100
,
1100
0100
0010
0001
,
1001
0101
0101
0101
,
0101
0100
0010
1000
,
1001
0011
0011
0011
,
0011
0010
0100
1000
,
1001
1010
1010
0020
,
0200
0000
0000
0330
,
100M
1000
0001
0001
,
1000
1000
0001
0001
,
100M
1000
1000
1000
,
1000
1000
1000
1000
,
2000
0000
0000
0000
0020
0000
0000
3030
,
1000
0010
0100
0001
,
1001
0002
0023
0032
,
0023
0031
0010
0100
,
1100
2000
3020
2030
,
3020
1030
0010
0100
,
0101
0002
0203
0302
,
0203
0301
0100
0010
,
1010
2000
3200
2300
,
3200
0000
0010
0310
,
1001
0011
0011
0011
,
0011
0010
0100
1000
,
1001
1010
1010
1010
,
1010
0010
0100
0001
,
1001
1100
1100
1100
,
1100
0100
0010
0001
,
1001
0101
0101
0200
,
0020
0000
0000
0330
,
1001
0001
1000
0001
,
0100
0010
0100
0010
,
1000
0001
1000
0001
,
0010
0100
0010
0100
,
1000
0001
1000
0001
,
0100
0010
0100
0010
,
1000
0001
1000
0001
,
0010
0100
0010
0100
,
1000
1000
0100
0100
,
0001
0001
0100
0100
,
1000
1000
0010
0010
,
0001
0001
0010
0010
,
1000
1000
0100
0100
,
0001
0001
0100
0100
,
1000
1000
0010
0010
,
0001
0001
0010
0010
,
0100
0000
0000
0000
;
