#TITLE:SMASH!;
#SUBTITLE:;
#ARTIST:Ummet Ozcan;
#TITLETRANSLIT:;
#SUBTITLETRANSLIT:;
#ARTISTTRANSLIT:;
#CREDIT:;
#BANNER:SMASH!.png;
#BACKGROUND:SMASH!-bg.png;
#LYRICSPATH:;
#CDTITLE:cdtitle.png;
#MUSIC:SMASH!.ogg;
#OFFSET:0.920;
#SAMPLESTART:15.460;
#SAMPLELENGTH:12.000;
#SELECTABLE:YES;
#BPMS:0.000=128.000,97.000=64.000,117.000=128.000,274.000=64.000,275.000=128.000;
#STOPS:;
#BGCHANGES:2.000=SMASH!.avi=1.000=1=0=0,
278.000=SMASH!-bg.png=1.000=0=0=0,
99999=-nosongbg-=1.000=0=0=0 // don't automatically add -songbackground-
;

//---------------dance-single - ----------------
#NOTES:
     dance-single:
     :
     Hard:
     9:
     0.575,0.616,0.555,0.164,0.349:
0000
0000
0000
0000
,
0000
0000
0000
0000
,
0000
0000
0000
0000
1000
0100
1000
0100
,
0010
0001
0010
0001
0100
0001
0100
0001
,
1000
0000
0010
0000
1000
0000
0010
0000
1000
0000
0001
0010
0001
0000
0100
0010
,
0100
0000
0010
1000
0010
0000
1000
0100
1000
0000
0001
1000
0001
0000
0010
0001
,
0010
0000
0100
0010
0100
0000
1000
0100
1000
0100
1000
0100
1000
0100
1000
0100
,
1000
0100
1000
0100
1000
0100
1000
0100
1000
0000
0000
0000
1000
0000
0000
0000
,
1000
0000
0000
0001
1000
0000
0100
0000
0110
0000
0000
0000
0011
0000
0000
0000
,
1001
0000
0000
1100
0000
0000
0001
0000
0010
0000
0010
0000
0100
0000
0100
0000
,
0010
0000
0000
0001
0000
0000
0100
0000
0110
0000
0000
0000
1010
0000
0000
0000
,
1001
0000
0000
1100
0000
0000
0001
0000
0100
0000
0100
0000
0010
0000
0010
0000
,
1000
0000
0220
0330
1001
0000
1100
0000
,
0101
0000
0000
1001
0000
0000
1000
0000
0100
0000
0100
0000
0010
0000
0010
0000
,
0100
0000
0000
1000
0000
0000
0010
0000
0110
0000
0000
0000
0101
0000
0000
0000
,
1100
0000
0000
1001
0000
0000
1000
0000
0010
0000
0100
0000
0001
0000
0010
0000
,
0100
0000
0010
0000
0100
0000
2000
0000
0000
3000
0000
0000
0011
0000
0000
0000
0000
0000
0011
0000
0000
0000
0000
0000
,
1001
0000
0000
1001
0000
0000
0000
0000
0001
0000
0001
0000
0100
0000
1000
0000
,
0100
0000
0000
0020
0000
0000
0030
0000
1100
0000
0000
0000
1100
0000
0000
0000
,
1001
0000
0000
1001
0000
0000
0000
0000
0001
0000
1000
0000
0001
0000
0010
0000
,
0001
1000
0001
0011
0000
0000
1100
0000
0000
1100
0000
0000
,
1001
0000
0000
1001
0000
0000
0000
0000
1000
0000
1000
0000
0010
0000
0001
0000
,
0010
0000
0000
0100
0000
0000
0010
0000
0011
0000
0000
0000
0011
0000
0000
0000
,
1001
0000
0000
1001
0000
0000
0000
0000
1000
0000
0001
0000
1000
0000
0100
0000
,
1000
0001
1000
0M02
0000
0000
0000
0000
0000
0000
0000
0000
,
0000
0000
0000
0000
0000
0000
0000
0000
0003
0000
0000
0000
1000
0000
0000
0000
1000
0000
0000
0000
1000
0000
0000
0001
0000
0000
0001
0000
0000
0000
1000
0000
,
0100
0000
0010
0000
0100
0000
0000
1000
0000
0000
0000
0000
0001
0000
0000
0000
0001
0000
0000
0000
0001
0000
0000
1000
0000
0000
1000
0000
0000
0000
0001
0000
,
0010
0000
0100
0000
0010
0000
0000
0001
0000
0000
0100
0000
0010
0000
0000
0000
0010
0000
0000
0000
0010
0000
0000
0100
0000
0000
0100
0000
0000
0000
0001
0000
,
0100
0000
0001
0000
1000
0000
0000
0100
0000
0000
0000
0000
0010
0000
0000
0000
0010
0000
0000
0000
0010
0000
0000
0100
0000
0000
0100
0000
0000
0000
1000
0000
,
0100
0000
1000
0000
0001
0000
0000
0100
M000
0000
0000
0000
0000
0000
0000
0000
1002
0000
0000
0000
0000
0000
0000
0000
1003
0000
0000
0000
0100
0000
0000
0000
,
0010
0000
0000
0100
0000
0000
2000
0000
3000
0000
1000
0000
0010
0000
0100
0000
,
0001
0000
0000
0020
0000
0030
0000
0000
2001
0000
0000
0000
3001
0000
0010
0000
,
0100
0000
0000
0010
0000
0000
0002
0000
0003
0000
0001
0000
0100
0000
0010
0000
,
1000
0000
0000
0200
0000
0300
1000
0000
1001
0000
0000
0000
1001
0000
0001
0000
,
0101
0000
0000
0001
0000
0000
2000
0000
3000
0000
0001
0000
0011
0000
0001
0000
,
0101
0000
0000
0200
0000
0300
0000
0000
1001
0000
0000
0000
1001
0000
1000
0000
,
1100
0000
0000
1000
0000
0000
0002
0000
0003
0000
1000
0000
1010
0000
1000
0000
,
1100
0000
0000
0200
0000
0300
0000
0000
0100
0000
1000
0000
0100
0000
1000
0000
,
0010
1000
0010
1000
0001
1000
0001
1000
,
0010
1000
0010
1000
0001
0100
0001
0100
,
0001
0010
0001
0010
0001
1000
0001
1000
,
0001
0010
0001
0010
0100
1000
0100
1000
,
0010
1000
0010
1000
0001
1000
0001
1000
,
0010
1000
0010
1000
0001
0100
0001
0100
,
0001
0010
0001
0010
0001
1000
0001
1000
,
0001
0010
0001
0010
0001
0100
0010
1000
,
0100
0010
0001
0100
1000
0100
0001
0010
,
0100
1000
0010
0001
0010
1000
0100
0010
,
0001
0000
0100
0000
1000
0000
0100
0000
0001
0000
0010
0100
0010
0000
0100
1000
,
0100
0000
1000
0001
1000
0000
0010
1000
0010
0000
0100
0010
0100
0000
0001
0100
,
0001
0000
0100
0010
0100
0000
1000
0010
1000
0010
1000
0010
1000
0010
1000
0010
,
1000
0010
1000
0010
1000
0010
1000
0010
2000
0000
0000
0000
0000
0000
0000
0000
,
0000
0000
3001
0001
,
0001
0000
0000
1000
0001
0000
0100
0000
0110
0000
0000
0000
1010
0000
0000
0000
,
1001
0000
0000
0101
0000
0000
1000
0000
0010
0000
0010
0000
0100
0000
0100
0000
,
0010
0000
0000
1000
0000
0000
0100
0000
0110
0000
0000
0000
0011
0000
0000
0000
,
1001
0000
0000
0101
0000
0000
1000
0000
0100
0000
0100
0000
0010
0000
0010
0000
,
0001
0000
0220
0330
1001
0000
0101
0000
,
1100
0000
0000
1001
0000
0000
0001
0000
0100
0000
0100
0000
0010
0000
0010
0000
,
0100
0000
0000
0001
0000
0000
0010
0000
0110
0000
0000
0000
1100
0000
0000
0000
,
0101
0000
0000
1001
0000
0000
0001
0000
0010
0000
0100
0000
1000
0000
0010
0000
,
0100
0000
0010
0000
0100
0000
0002
0000
0000
0003
0000
0000
1000
0000
0000
0000
0000
0000
1010
0000
0000
0000
0000
0000
,
1001
0000
0000
1001
0000
0000
0000
0000
1000
0000
1000
0000
0100
0000
0001
0000
,
0100
0000
0000
0020
0000
0000
0030
0000
0101
0000
0000
0000
0101
0000
0000
0000
,
1001
0000
0000
1001
0000
0000
0000
0000
1000
0000
0001
0000
1000
0000
0010
0000
,
1000
0000
0000
0020
0000
0030
0100
0000
0101
0000
0000
0000
0101
0000
0000
0000
,
1001
0000
0000
1001
0000
0000
0000
0000
0001
0000
0001
0000
0010
0000
1000
0000
,
0010
0000
0000
0100
0000
0000
0010
0000
1010
0000
0000
0000
1010
0000
0000
0000
,
1001
0000
0000
0000
0000
0000
0000
0000
0000
1001
0000
0000
0000
0000
0000
0000
0000
0000
0000
0000
0000
0000
0000
0000
M20M
0000
0000
0000
0000
0000
0000
0000
0000
0000
0000
0000
M01M
0000
0000
0000
0010
0000
0000
0000
0010
0000
0000
0000
,
0020
0330
0000
0000
;

//---------------dance-single - ----------------
#NOTES:
     dance-single:
     :
     Medium:
     6:
     0.415,0.442,0.341,0.142,0.043: // measure 1
0000
0000
0000
0000
,  // measure 2
0000
0000
0000
0000
,  // measure 3
0000
0000
1000
0010
,  // measure 4
1000
0010
0100
0010
,  // measure 5
0100
0010
1000
1000
,  // measure 6
0010
0010
0100
0100
,  // measure 7
0001
0000
0001
0000
1000
0001
1000
0001
,  // measure 8
1000
0001
1000
0001
1000
0000
1000
0000
,  // measure 9
1000
0000
0010
0010
0100
0000
1010
0000
,  // measure 10
1001
0000
1001
0000
0001
0001
0010
0010
,  // measure 11
0001
0101
1001
1100
,  // measure 12
0110
0000
0110
0000
0010
0010
0001
0001
,  // measure 13
0100
0101
0001
0011
,  // measure 14
1001
0000
1001
0000
1000
1000
0010
0010
,  // measure 15
1000
1100
1001
0101
,  // measure 16
0110
0000
0110
0000
0010
0010
1000
1000
,  // measure 17
0100
1100
0001
0001
,  // measure 18
0010
0000
0000
0010
0000
0000
0000
0000
0001
0000
0100
0000
0001
0000
0100
0000
,  // measure 19
0010
0000
0000
0020
0000
0000
0000
0000
1030
0000
0000
0000
1000
0000
0000
0000
,  // measure 20
0010
0000
0000
0010
0000
0000
0000
0000
1000
0000
0100
0000
1000
0000
0100
0000
,  // measure 21
0010
0110
1000
1000
,  // measure 22
0010
0000
0000
0010
0000
0000
0000
0000
1000
0000
0010
0000
1000
0000
0010
0000
,  // measure 23
0100
0000
0000
0010
0000
0000
0000
0000
1000
0000
0000
0000
1000
0000
0000
0000
,  // measure 24
0001
0000
0000
0001
0000
0000
0000
0000
0001
0000
0010
0000
0001
0000
0010
0000
,  // measure 25
0100
220M
0000
0000
,  // measure 26
0000
0000
3300
1000
0010
1000
0010
0100
,  // measure 27
0001
0100
0001
1000
0010
1000
0010
0100
,  // measure 28
0001
0100
0001
0010
0100
0010
0100
1000
,  // measure 29
0001
1000
0001
0100
0010
0100
0010
1000
,  // measure 30
0001
1000
M001
0000
0002
0000
1003
1000
,  // measure 31
0100
0000
0002
0000
0103
0000
1000
1000
,  // measure 32
0100
0000
0002
0003
2000
0000
3001
0001
,  // measure 33
0010
0000
2000
0000
3010
0000
0001
0001
,  // measure 34
0010
0000
2000
3000
2001
0000
3100
0000
,  // measure 35
1002
0103
2001
3100
,  // measure 36
1002
0103
2010
3100
,  // measure 37
0012
0103
2010
3100
,  // measure 38
0012
0000
0103
0000
0001
0010
0001
0000
,  // measure 39
0001
1000
0001
0000
0001
0010
0001
0000
,  // measure 40
0001
1000
0001
0000
1000
0010
1000
0000
,  // measure 41
1000
0001
1000
0000
1000
0010
1000
0000
,  // measure 42
1000
0001
1000
0000
0001
0010
0001
0000
,  // measure 43
0100
0001
0100
0000
0010
0100
0010
0000
,  // measure 44
1000
0010
1000
0000
0001
1000
0001
0000
,  // measure 45
1000
0100
1000
0000
0100
0010
0100
0000
,  // measure 46
0010
0001
0010
0000
0001
0000
1000
0000
,  // measure 47
0010
0100
0001
1000
,  // measure 48
0010
0100
0001
0010
,  // measure 49
0100
1000
0001
0010
,  // measure 50
0100
0000
1000
0000
0001
0010
0001
0010
,  // measure 51
0001
1000
0001
1000
0001
0100
0001
0100
,  // measure 52
0001
1000
0001
1000
0002
0000
0000
0000
,  // measure 53
0000
0000
1003
1000
,  // measure 54
1000
0000
0100
0100
0010
0000
1100
0000
,  // measure 55
1001
0000
1001
0000
0001
0001
0100
0100
,  // measure 56
0001
0011
1001
1010
,  // measure 57
0110
0000
0110
0000
0100
0100
0001
0001
,  // measure 58
0010
0011
0001
0101
,  // measure 59
1001
0000
1001
0000
1000
1000
0100
0100
,  // measure 60
1000
1010
1001
0011
,  // measure 61
0110
0000
0110
0000
0100
0100
1000
1000
,  // measure 62
0010
1010
0001
0001
,  // measure 63
0100
0000
0000
0100
0000
0000
0000
0000
0001
0000
0010
0000
0001
0000
0010
0000
,  // measure 64
0100
0000
0000
0200
0000
0000
0000
0000
1300
0000
0000
0000
1000
0000
0000
0000
,  // measure 65
0100
0000
0000
0100
0000
0000
0000
0000
1000
0000
0010
0000
1000
0000
0010
0000
,  // measure 66
0100
0110
1000
1000
,  // measure 67
0100
0000
0000
0100
0000
0000
0000
0000
1000
0000
0100
0000
1000
0000
0100
0000
,  // measure 68
0010
0000
0000
0100
0000
0000
0000
0000
1000
0000
0000
0000
1000
0000
0000
0000
,  // measure 69
0001
0000
0000
0001
0000
0000
0000
0000
0200
0000
0000
0000
0310
0000
0000
0000
,  // measure 70
0110
0000
0000
0000
:
a=0.25x.
note=5.000000,
;

//---------------dance-single - ----------------
#NOTES:
     dance-single:
     :
     Easy:
     4:
     0.284,0.344,0.157,0.050,0.000:
0000
0000
0000
0000
,
0000
0000
0000
0000
,
0000
0000
0001
0000
,
0001
0000
0010
0000
,
0010
0000
1000
0000
,
1000
0000
0010
0000
,
0010
0000
0001
0001
,
0001
0001
1000
1000
,
0100
0100
1100
1001
,
1000
0001
1000
1000
,
0001
0001
1001
0001
,
1000
0001
0010
0010
,
0001
0001
1001
1000
,
0001
1000
0001
0001
,
1000
1000
1001
0001
,
1000
0001
0100
0100
,
0001
0001
1001
1000
,
1000
0000
0001
1000
,
0100
0020
0031
0001
,
0001
0000
1000
0001
,
0010
0100
1100
1000
,
1000
0000
0001
1000
,
0010
0100
0001
0001
,
0001
0000
1000
0001
,
0100
002M
0000
0000
,
0030
0000
0000
1000
0010
1000
0000
1000
,
0100
1000
0000
0001
0010
0001
0000
0001
,
0100
0001
0000
0100
0010
0100
0000
0001
,
1000
0001
0000
0100
0010
0100
0000
0001
,
1000
0001
0000
0000
2000
0000
3001
0000
,
0001
0010
0100
1000
,
0100
0010
0002
1003
,
1000
0010
1000
0001
,
0001
0100
0101
0101
,
1001
1001
0001
0010
,
0100
1000
1100
1100
,
1001
1001
1000
0010
,
0100
0001
1000
1000
,
1000
1000
0001
0001
,
0001
0001
0100
0100
,
0100
0100
0010
0010
,
0010
0010
1000
1000
,
1000
1000
0001
0001
,
0001
0001
0010
0010
,
0010
0010
0100
0100
,
0100
0100
1000
1000
,
0001
0001
1000
1000
,
0001
0001
0100
0100
,
0010
0010
0100
0100
,
0010
0010
1000
0100
,
0010
0001
0100
0010
,
1000
0100
0020
0000
,
0000
0000
0031
0001
,
0010
0010
0011
1001
,
0001
1000
0001
0001
,
1000
1000
1001
1000
,
0001
1000
0100
0100
,
1000
1000
1001
0001
,
1000
0001
1000
1000
,
0001
0001
1001
1000
,
0001
1000
0010
0010
,
1000
1000
1001
0001
,
0001
0000
1000
0001
,
0010
0200
1300
1000
,
1000
0000
0001
1000
,
0100
0010
0011
0001
,
0001
0000
1000
0001
,
0100
0010
1000
1000
,
1000
0000
0002
0000
,
0003
0000
0000
0000
:
a=0.25x.
note=5.000000,
;
