#TITLE:Pyramids;
#SUBTITLE:;
#ARTIST:DVBBS & Dropgun ft. Sanjin;
#TITLETRANSLIT:;
#SUBTITLETRANSLIT:;
#ARTISTTRANSLIT:;
#CREDIT:;
#BANNER:Pyramids.png;
#BACKGROUND:Pyramids - bg.png;
#LYRICSPATH:;
#CDTITLE:cdtitle.png;
#MUSIC:Pyramids.ogg;
#OFFSET:-0.020;
#SAMPLESTART:82.520;
#SAMPLELENGTH:14.960;
#SELECTABLE:YES;
#DISPLAYBPM:128.000;
#BPMS:0.000=128.000,60.000=256.000,66.000=128.000,67.000=256.000,68.000=248.000,69.000=240.000,70.000=232.000,71.000=224.000,72.000=216.000,73.000=208.000,74.000=200.000,75.000=192.000,76.000=184.000,77.000=176.000,78.000=168.000,79.000=160.000,80.000=152.000,81.000=144.000,82.000=136.000,83.000=128.000,83.500=96.000,84.000=64.000,86.000=128.000,244.000=256.000,244.500=64.000,244.750=256.000,245.250=64.000,245.500=128.000,248.000=256.000,248.500=63.999,248.750=256.000,249.250=63.999,249.500=128.000,252.000=256.000,252.500=63.999,252.750=256.000,253.250=64.000,253.500=128.000,256.000=256.000,256.500=63.999,256.750=256.000,257.250=63.999,257.500=128.000,260.000=256.000,260.500=63.999,260.750=256.000,261.250=63.999,261.500=128.000,264.000=256.000,264.500=63.999,264.750=256.000,265.250=63.999,265.500=128.000,268.000=256.000,268.500=63.999,268.750=256.020,269.250=63.999,269.500=128.000,306.000=256.000;
#STOPS:115.500=0.940
,176.000=0.940
;
#BGCHANGES:31.000=Pyramids2 - bg.png=1.000=0=0=1,
32.000=Pyramids - bg.png=1.000=0=0=1,
48.000=Pyramids2 - bg.png=1.000=0=0=1,
48.500=Pyramids - bg.png=1.000=0=0=1,
49.000=Pyramids2 - bg.png=1.000=0=0=1,
49.500=Pyramids - bg.png=1.000=0=0=1,
50.000=Pyramids2 - bg.png=1.000=0=0=1,
50.500=Pyramids - bg.png=1.000=0=0=1,
51.000=Pyramids2 - bg.png=1.000=0=0=1,
51.500=Pyramids - bg.png=1.000=0=0=1,
52.000=Pyramids2 - bg.png=1.000=0=0=1,
52.500=Pyramids - bg.png=1.000=0=0=1,
53.000=Pyramids2 - bg.png=1.000=0=0=1,
53.500=Pyramids - bg.png=1.000=0=0=1,
54.000=Pyramids2 - bg.png=1.000=0=0=1,
54.500=Pyramids - bg.png=1.000=0=0=1,
55.000=Pyramids2 - bg.png=1.000=0=0=1,
55.500=Pyramids - bg.png=1.000=0=0=1,
56.000=Pyramids2 - bg.png=1.000=0=0=1,
56.250=Pyramids - bg.png=1.000=0=0=1,
56.500=Pyramids2 - bg.png=1.000=0=0=1,
56.750=Pyramids - bg.png=1.000=0=0=1,
57.000=Pyramids2 - bg.png=1.000=0=0=1,
57.250=Pyramids - bg.png=1.000=0=0=1,
57.500=Pyramids2 - bg.png=1.000=0=0=1,
57.750=Pyramids - bg.png=1.000=0=0=1,
58.000=Pyramids2 - bg.png=1.000=0=0=1,
58.250=Pyramids - bg.png=1.000=0=0=1,
58.500=Pyramids2 - bg.png=1.000=0=0=1,
58.750=Pyramids - bg.png=1.000=0=0=1,
59.000=Pyramids2 - bg.png=1.000=0=0=1,
59.250=Pyramids - bg.png=1.000=0=0=1,
59.500=Pyramids2 - bg.png=1.000=0=0=1,
59.750=Pyramids - bg.png=1.000=0=0=1,
60.000=Pyramids2 - bg.png=1.000=0=0=1,
60.125=Pyramids - bg.png=1.000=0=0=1,
60.250=Pyramids2 - bg.png=1.000=0=0=1,
60.375=Pyramids - bg.png=1.000=0=0=1,
60.500=Pyramids2 - bg.png=1.000=0=0=1,
60.625=Pyramids - bg.png=1.000=0=0=1,
60.750=Pyramids2 - bg.png=1.000=0=0=1,
60.875=Pyramids - bg.png=1.000=0=0=1,
61.000=Pyramids2 - bg.png=1.000=0=0=1,
61.125=Pyramids - bg.png=1.000=0=0=1,
61.250=Pyramids2 - bg.png=1.000=0=0=1,
61.375=Pyramids - bg.png=1.000=0=0=1,
61.500=Pyramids2 - bg.png=1.000=0=0=1,
61.625=Pyramids - bg.png=1.000=0=0=1,
61.750=Pyramids2 - bg.png=1.000=0=0=1,
61.875=Pyramids - bg.png=1.000=0=0=1,
62.000=Pyramids2 - bg.png=1.000=0=0=1,
62.125=Pyramids - bg.png=1.000=0=0=1,
62.250=Pyramids2 - bg.png=1.000=0=0=1,
62.375=Pyramids - bg.png=1.000=0=0=1,
62.500=Pyramids2 - bg.png=1.000=0=0=1,
62.625=Pyramids - bg.png=1.000=0=0=1,
62.750=Pyramids2 - bg.png=1.000=0=0=1,
62.875=Pyramids - bg.png=1.000=0=0=1,
63.000=Pyramids2 - bg.png=1.000=0=0=1,
63.125=Pyramids - bg.png=1.000=0=0=1,
63.250=Pyramids2 - bg.png=1.000=0=0=1,
63.375=Pyramids - bg.png=1.000=0=0=1,
63.500=Pyramids2 - bg.png=1.000=0=0=1,
63.625=Pyramids - bg.png=1.000=0=0=1,
63.750=Pyramids2 - bg.png=1.000=0=0=1,
63.875=Pyramids - bg.png=1.000=0=0=1,
64.000=Pyramids2 - bg.png=1.000=0=0=1,
64.125=Pyramids - bg.png=1.000=0=0=1,
64.250=Pyramids2 - bg.png=1.000=0=0=1,
64.375=Pyramids - bg.png=1.000=0=0=1,
64.500=Pyramids2 - bg.png=1.000=0=0=1,
64.625=Pyramids - bg.png=1.000=0=0=1,
64.750=Pyramids2 - bg.png=1.000=0=0=1,
64.875=Pyramids - bg.png=1.000=0=0=1,
65.000=Pyramids2 - bg.png=1.000=0=0=1,
65.125=Pyramids - bg.png=1.000=0=0=1,
65.250=Pyramids2 - bg.png=1.000=0=0=1,
65.375=Pyramids - bg.png=1.000=0=0=1,
65.500=Pyramids2 - bg.png=1.000=0=0=1,
65.625=Pyramids - bg.png=1.000=0=0=1,
65.750=Pyramids2 - bg.png=1.000=0=0=1,
65.875=Pyramids - bg.png=1.000=0=0=1,
66.000=Pyramids2 - bg.png=1.000=0=0=1,
67.000=Pyramids - bg.png=1.000=1=0=1,
85.000=Pyramids2 - bg.png=1.000=0=0=1,
86.000=Pyramids - bg.png=1.000=0=0=1,
115.500=Pyramids2 - bg.png=1.000=0=0=1,
116.000=Pyramids - bg.png=1.000=0=0=1,
163.000=Pyramids2 - bg.png=1.000=0=0=1,
164.500=Pyramids - bg.png=1.000=0=0=1,
165.000=Pyramids2 - bg.png=1.000=0=0=1,
165.500=Pyramids - bg.png=1.000=0=0=1,
166.000=Pyramids2 - bg.png=1.000=0=0=1,
166.500=Pyramids - bg.png=1.000=0=0=1,
167.000=Pyramids2 - bg.png=1.000=0=0=1,
167.500=Pyramids - bg.png=1.000=0=0=1,
168.000=Pyramids2 - bg.png=1.000=0=0=1,
168.500=Pyramids - bg.png=1.000=0=0=1,
169.000=Pyramids2 - bg.png=1.000=0=0=1,
169.500=Pyramids - bg.png=1.000=0=0=1,
170.000=Pyramids2 - bg.png=1.000=0=0=1,
170.500=Pyramids - bg.png=1.000=0=0=1,
171.000=Pyramids2 - bg.png=1.000=0=0=1,
171.500=Pyramids - bg.png=1.000=0=0=1,
172.000=Pyramids2 - bg.png=1.000=0=0=1,
172.250=Pyramids - bg.png=1.000=0=0=1,
172.500=Pyramids2 - bg.png=1.000=0=0=1,
172.750=Pyramids - bg.png=1.000=0=0=1,
173.000=Pyramids2 - bg.png=1.000=0=0=1,
173.250=Pyramids - bg.png=1.000=0=0=1,
173.500=Pyramids2 - bg.png=1.000=0=0=1,
173.750=Pyramids - bg.png=1.000=0=0=1,
174.000=Pyramids2 - bg.png=1.000=0=0=1,
174.250=Pyramids - bg.png=1.000=0=0=1,
174.500=Pyramids2 - bg.png=1.000=0=0=1,
174.750=Pyramids - bg.png=1.000=0=0=1,
175.000=Pyramids2 - bg.png=1.000=0=0=1,
175.250=Pyramids - bg.png=1.000=0=0=1,
175.500=Pyramids2 - bg.png=1.000=0=0=1,
175.750=Pyramids - bg.png=1.000=0=0=1,
176.000=Pyramids2 - bg.png=1.000=0=0=1,
176.125=Pyramids - bg.png=1.000=0=0=1,
177.000=Pyramids2 - bg.png=1.000=0=0=1,
178.000=Pyramids - bg.png=1.000=0=0=1,
193.000=Pyramids2 - bg.png=1.000=0=0=1,
194.000=Pyramids - bg.png=1.000=0=0=1,
209.000=Pyramids2 - bg.png=1.000=0=0=1,
210.000=Pyramids - bg.png=1.000=0=0=1,
225.000=Pyramids2 - bg.png=1.000=0=0=1,
226.000=Pyramids - bg.png=1.000=0=0=1,
241.000=Pyramids2 - bg.png=1.000=0=0=1,
242.000=Pyramids - bg.png=1.000=0=0=1,
244.000=Pyramids2 - bg.png=1.000=0=0=1,
245.500=Pyramids - bg.png=1.000=0=0=1,
248.000=Pyramids2 - bg.png=1.000=0=0=1,
249.500=Pyramids - bg.png=1.000=0=0=1,
252.000=Pyramids2 - bg.png=1.000=0=0=1,
253.500=Pyramids - bg.png=1.000=0=0=1,
256.000=Pyramids2 - bg.png=1.000=0=0=1,
257.500=Pyramids - bg.png=1.000=0=0=1,
260.000=Pyramids2 - bg.png=1.000=0=0=1,
261.500=Pyramids - bg.png=1.000=0=0=1,
264.000=Pyramids2 - bg.png=1.000=0=0=1,
265.500=Pyramids - bg.png=1.000=0=0=1,
268.000=Pyramids2 - bg.png=1.000=0=0=1,
269.500=Pyramids - bg.png=1.000=0=0=1,
273.000=Pyramids2 - bg.png=1.000=0=0=1,
274.000=Pyramids - bg.png=1.000=0=0=1,
281.000=Pyramids2 - bg.png=1.000=0=0=1,
282.000=Pyramids - bg.png=1.000=0=0=1,
289.000=Pyramids2 - bg.png=1.000=0=0=1,
290.000=Pyramids - bg.png=1.000=0=0=1,
297.000=Pyramids2 - bg.png=1.000=0=0=1,
298.000=Pyramids - bg.png=1.000=0=0=1,
306.000=Pyramids2 - bg.png=1.000=0=0=1,
306.250=Pyramids - bg.png=1.000=0=0=1,
306.500=Pyramids2 - bg.png=1.000=0=0=1,
306.750=Pyramids - bg.png=1.000=0=0=1,
307.000=Pyramids2 - bg.png=1.000=0=0=1,
307.250=Pyramids - bg.png=1.000=0=0=1,
307.500=Pyramids2 - bg.png=1.000=0=0=1,
307.750=Pyramids - bg.png=1.000=0=0=1,
308.000=Pyramids2 - bg.png=1.000=0=0=1,
308.250=Pyramids - bg.png=1.000=0=0=1,
308.500=Pyramids2 - bg.png=1.000=0=0=1,
308.750=Pyramids - bg.png=1.000=0=0=1,
309.000=Pyramids2 - bg.png=1.000=0=0=1,
309.250=Pyramids - bg.png=1.000=0=0=1,
309.500=Pyramids2 - bg.png=1.000=0=0=1,
309.750=Pyramids - bg.png=1.000=0=0=1,
310.000=Pyramids2 - bg.png=1.000=0=0=1,
310.250=Pyramids - bg.png=1.000=0=0=1,
310.500=Pyramids2 - bg.png=1.000=0=0=1,
310.750=Pyramids - bg.png=1.000=0=0=1,
311.000=Pyramids2 - bg.png=1.000=0=0=1,
311.250=Pyramids - bg.png=1.000=0=0=1,
311.500=Pyramids2 - bg.png=1.000=0=0=1,
311.750=Pyramids - bg.png=1.000=0=0=1,
312.000=Pyramids2 - bg.png=1.000=0=0=1,
312.250=Pyramids - bg.png=1.000=0=0=1,
312.500=Pyramids2 - bg.png=1.000=0=0=1,
312.750=Pyramids - bg.png=1.000=0=0=1,
313.000=Pyramids2 - bg.png=1.000=0=0=1,
313.250=Pyramids - bg.png=1.000=0=0=1,
313.500=Pyramids2 - bg.png=1.000=0=0=1,
313.750=Pyramids - bg.png=1.000=0=0=1,
314.000=Pyramids2 - bg.png=1.000=0=0=1,
99999=-nosongbg-=1.000=0=0=0 // don't automatically add -songbackground-
;

//---------------dance-single - ----------------
#NOTES:
     dance-single:
     :
     Hard:
     10:
     0.584,0.662,0.452,0.290,0.385:
0000
0000
0000
0000
,
0000
0000
0000
0000
,
1000
0000
0000
0001
0010
0000
0001
0000
1000
0000
0001
0000
0010
0000
0000
0000
,
0010
0000
0000
0001
1000
0000
0001
0000
0010
0000
0001
0000
1000
0000
0001
0000
,
0100
0000
0000
0010
1000
0000
0010
0000
0100
0000
0010
0000
1000
0000
0000
0000
,
1000
0000
0000
0010
0100
0000
0010
0000
1000
0000
0010
0000
0100
0000
0010
0000
,
1000
0000
0000
0001
0010
0000
0001
0000
1000
0000
0001
0000
0010
0000
0000
0000
,
0010
0000
0000
0001
1000
0000
0001
0000
0010
0000
0001
0000
1010
0000
MMMM
0000
,
1001
0000
0000
1000
0010
0000
1000
0000
0001
0000
1000
0000
1001
0000
0000
0000
,
1010
0000
0000
1000
0001
0000
1000
0000
0010
0000
1000
0000
0001
0000
1000
0000
,
1100
0000
0000
0010
0001
0000
0010
0000
0100
0000
0010
0000
0110
0000
0000
0000
,
0011
0000
0000
0010
0100
0000
0010
0000
0001
0000
0010
0000
0100
0000
0010
0000
,
0001
0001
0010
0010
0100
0100
1000
1000
,
0010
0010
0100
0100
0001
0001
0010
0010
,
0001
0100
0001
0100
0001
0100
0001
0100
0001
1000
0001
1000
0001
1000
0001
1000
,
0002
0000
0000
0000
,
0000
0000
M013
2002
,
0000
0000
0000
0000
,
0000
0000
0000
0000
0000
0000
0MM0
0MM0
,
0MM0
0MM0
0MM0
0MM0
0MM0
0MM0
0MM0
0MM0
,
0MM0
0000
0MM0
0000
0MM0
0000
0MM0
0000
0MM0
0000
0MM0
0000
0MM0
0MM0
0MM0
0MM0
,
0MM0
0000
0000
0000
0000
0000
0MM0
0000
0000
0000
0000
0000
0MM0
0000
0000
0000
0000
0000
0MM0
0000
0000
0000
0000
0000
3MM0
0000
0000
0000
0000
0000
0000
0000
0000
0000
0000
0000
0000
0000
0000
0000
0000
0000
0000
0000
0000
0000
0000
0000
1000
0000
0000
0000
0000
0000
0000
0000
1000
0000
0000
0000
0000
0000
0000
0000
1000
0000
0000
0000
0000
0000
0000
0000
1003
0000
0000
0000
0000
0000
0000
0000
0000
0000
0000
0000
0000
0000
0000
0000
0000
0000
0000
0000
0000
0000
0000
0000
10M1
0000
0000
0000
0000
0000
0000
0000
0000
0000
0000
0000
0000
0000
0000
0000
0000
0000
0000
0000
0000
0000
0000
0000
0000
0000
0000
0000
0000
0000
0000
0000
0000
0000
0000
0000
0000
0000
0000
0000
0000
0000
0000
0000
0000
0000
0000
0000
0010
0000
0000
0000
0000
0000
0000
0000
0000
0000
0000
0000
0000
0000
0000
0000
0000
0000
0000
0000
0000
0000
0000
0000
0001
0000
0000
0000
0000
0000
0000
0000
0000
0000
0000
0000
0000
0000
0000
0000
0000
0000
0000
0000
0000
0000
0000
0000
,
1000
0000
0000
0001
0000
0000
0200
0000
0000
0000
0000
0000
0000
0000
0000
0000
,
0000
0000
0301
1000
0001
0000
0100
0000
0101
0000
0000
0000
1000
0000
0001
0000
,
0100
0000
0000
0001
0000
0000
2000
0000
0000
0000
0000
0000
0000
0000
0000
0000
,
0000
0000
3001
0010
0001
0000
0010
0000
0110
0000
0000
0000
0100
0000
1000
0000
,
0001
0000
0101
0001
1002
0000
0000
0000
,
0000
0000
1003
0001
1000
0000
0010
0000
0210
0000
0000
0000
0301
0000
1000
0000
,
1010
1000
1001
0001
0021
0000
0000
0030
,
20M1
0000
0000
0000
3002
0000
0203
0000
0310
0000
0000
0100
0000
0000
0020
0000
,
0000
0000
0000
0000
0000
0000
0000
0000
0000
0000
1030
0010
1000
0000
0100
0000
,
2100
0000
0000
0000
3200
0000
2300
0000
3001
0000
0000
1000
0000
0000
0020
0000
,
0000
0000
0000
0000
0000
0000
0000
0000
0000
0000
0130
0010
0100
0000
0001
0000
,
1002
0000
0000
0000
2003
0000
3020
0000
0130
0000
0000
0010
0000
0000
0200
0000
,
0000
0000
0000
0000
0000
0000
0000
0000
0000
0000
0301
0100
0001
0000
0010
0000
,
0012
0000
0000
0000
0023
0000
0032
0000
1003
0000
0000
0001
0000
0000
0200
0000
,
0000
0000
0000
0000
0000
0000
0000
0000
0000
0000
0310
0100
0010
0000
1000
0000
,
2002
0000
3003
0000
0001
0000
0001
0000
1000
0000
0000
0010
0000
0000
0200
0000
,
0000
0000
0000
0000
0301
0000
0001
0000
1000
0000
0000
0010
0000
0000
0200
0000
,
0000
0000
0000
0000
0301
0000
0001
0000
1000
0000
0000
0010
0000
0000
0200
0000
,
0000
0000
0000
0000
0000
0300
0110
MMMM
,
0001
0001
1000
1000
0001
0001
1000
1000
,
0010
0010
0100
0100
0010
0010
0100
0100
,
0001
1000
0001
1000
0001
1000
0001
1000
0001
1000
0001
1000
0001
1000
0001
1000
,
0M01
0000
0000
0000
0011
0000
MMMM
0000
0001
0000
1000
0010
1000
0000
0001
0000
,
1000
0000
0010
0000
0110
0000
0000
0000
0001
0100
0010
0000
0100
0000
0010
1000
,
0010
0000
1000
0000
0002
0000
0000
0000
1003
0000
0001
0010
0001
0000
0100
0000
,
0010
0000
1000
0000
0200
0000
0300
0000
0100
0010
0001
0000
0010
0000
0001
0010
,
0001
0000
1000
0000
1010
0000
MMMM
0000
0010
0000
1000
0001
1000
0000
0100
0000
,
0001
0000
0100
0000
1100
0000
0000
0000
0001
0010
0100
0000
0010
0000
0100
0010
,
0001
0000
1000
0000
0020
0000
0000
0000
1030
0000
0001
1000
0001
0000
0010
0000
,
1000
0000
0010
0000
0002
0000
0003
0000
0100
0010
0100
0010
1000
0010
1000
0010
,
0100
0000
0001
0000
0101
0000
MMMM
0000
1001
0000
1000
0010
1000
0000
0001
0000
,
0011
0000
0010
0000
0110
0000
0000
0000
1000
0100
0010
0000
0100
0000
0010
0001
,
0010
0000
0001
0000
2000
0000
3000
0000
1001
0000
0001
0010
0001
0000
0100
0000
,
0101
0000
0100
0000
0210
0000
0300
0000
0100
0010
1000
0000
0010
0000
1000
0010
,
1000
0000
0001
0000
0011
0000
MMMM
0000
0101
0000
0001
1000
0001
0000
0100
0000
,
0101
0000
0001
0000
1001
0000
0000
0000
1000
0010
0100
0000
0010
0000
0100
0010
,
1000
0000
0001
0000
0020
0000
0030
0000
1100
0000
1000
0001
1000
0000
0010
0000
,
1010
0000
1000
0000
2001
0000
3000
0000
0001
0010
0100
1000
0100
0010
0001
0010
,
0001
0100
0010
0000
1010
0000
MMMM
0000
1001
0000
0001
0100
0001
0000
1000
0000
,
1100
0000
0000
0101
0000
0000
1100
0000
1000
0010
0100
0000
0010
0000
0100
0001
,
0100
0000
0000
1010
0000
0000
0101
0000
1001
0000
1000
0100
1000
0000
0010
0000
,
1010
0000
0000
0011
0000
0000
1010
0000
0010
0100
0001
0000
0100
0000
0001
0100
,
0001
0000
0000
1001
0000
0000
1100
0000
1001
0000
1000
0100
1000
0000
0010
0000
,
0110
0000
0000
1010
0000
0000
0110
0000
0100
0010
1000
0000
0010
0000
1000
0010
,
0100
0000
0000
0101
0000
0000
1010
0000
1001
0000
0001
0010
0001
0000
0100
0000
,
0101
0000
0000
1100
0000
0000
0011
0000
0001
2000
0000
3001
0000
0000
0010
0001
,
0010
0001
1001
MMMM
1001
0000
0001
0100
,
1000
0000
1000
0100
0001
0000
0001
0100
,
1000
0000
2000
0000
3010
0000
0010
1000
,
0100
0000
0100
1000
0010
0000
0010
1000
,
0100
0000
0200
0000
1300
0000
1000
0010
,
0001
0000
0001
0010
1000
0000
1000
0010
,
0001
0000
0002
0000
0013
0000
0010
0001
,
0100
0000
0100
0001
0010
0000
0010
0001
,
0100
0000
0000
0000
0100
0000
0000
0000
2M02
00M0
0M00
00M0
0M00
00M0
0M00
00M0
,
0M00
00M0
0M00
00M0
0M00
00M0
0M00
00M0
0M00
00M0
0M00
00M0
0M00
00M0
0M00
00M0
,
0M00
00M0
0M00
00M0
0M00
00M0
0M00
00M0
3M03
0000
0000
0000
0000
0000
0000
0000
;

//---------------dance-single - ----------------
#NOTES:
     dance-single:
     :
     Medium:
     8:
     0.400,0.477,0.405,0.236,0.047:
0000
0000
0000
0000
,
0000
0000
0000
0000
,
1000
0000
0001
0000
1000
0100
1000
0000
,
0001
0000
1000
0000
0001
0100
0001
1000
,
0001
0000
1000
0000
0001
0010
0001
0000
,
1000
0000
0001
0000
1000
0010
1000
0001
,
1000
0000
0001
0000
1000
0001
0010
0000
,
0100
0000
0010
0000
0100
1000
1001
0000
,
1100
1100
1001
1001
,
0101
0101
1001
1001
,
0011
0011
1001
1001
,
1010
1010
1001
1001
,
1000
0001
1000
0001
1000
0001
1000
0001
,
0100
0010
0100
0010
0100
0010
0100
0010
,
0200
0000
0302
0000
,
2003
0000
0000
0000
,
0000
0000
301M
0220
,
0000
0000
0000
0000
,
0000
0000
0000
M00M
,
M00M
M00M
M00M
M00M
,
M00M
0000
M00M
0000
M00M
0000
M00M
M00M
,
M00M
M00M
M33M
0000
0010
0000
1000
0000
10M1
0000
0000
0000
0001
0000
0000
0000
,
0010
0000
0000
0100
0000
0000
0200
0000
0000
0000
0000
0000
0000
0000
0000
0000
,
0000
0300
0100
0010
0011
0000
1000
0000
,
0010
0000
0000
0100
0000
0000
0200
0000
0000
0000
0000
0000
0000
0000
0000
0000
,
0000
0300
0100
0010
1010
0000
1000
0000
,
0001
0101
2002
0000
,
0000
3003
0001
0010
0110
0000
0100
0000
,
1100
0000
1001
0000
0202
0000
0000
0303
,
20M1
0000
0000
0000
0010
0000
0010
0000
3010
0000
0000
0010
0000
0000
0020
0000
,
0000
0000
0000
0000
0000
0030
1000
0100
,
2100
0000
0000
0000
0100
0000
0100
0000
3100
0000
0000
0100
0000
0000
0200
0000
,
0000
0000
0000
0000
0000
0300
0100
1000
,
1002
0000
0000
0000
0010
0000
0010
0000
0013
0000
0000
0010
0000
0000
0020
0000
,
0000
0000
0000
0000
0000
0030
0010
0001
,
0102
0000
0000
0000
0100
0000
0100
0000
0103
0000
0000
0100
0000
0000
0200
0000
,
0000
0000
0000
0000
0000
0300
0100
0001
,
1001
0001
1000
0001
,
1000
0010
0100
0010
,
0100
0001
0010
0001
,
1000
0100
1000
1001
,
0001
0100
0001
0100
0001
0100
0001
0100
,
0010
1000
0010
1000
0010
1000
0010
1000
,
0020
0000
0000
0000
,
M13M
0101
1001
1000
,
0001
0100
0101
0000
0001
0000
1000
0000
,
0001
0010
0200
0000
1300
0000
0001
0000
,
1000
0010
2000
3000
1000
0000
0001
0000
,
1000
0100
0020
0000
0031
0000
0100
0000
,
0001
0010
0011
0000
0001
0000
0010
0000
,
0100
1000
0020
0000
1030
0000
0100
0000
,
1000
0100
0020
0030
0002
0000
0010
0000
,
0100
0103
0101
0000
1100
0000
1001
0000
,
0001
0100
0101
0000
1010
0000
1001
0000
,
1000
0010
0200
0300
0110
0000
1010
0000
,
1000
0001
1001
0000
0011
0000
0110
0000
,
0100
1000
1001
0000
1010
0000
1001
0000
,
0001
0010
0011
0000
1100
0000
1001
0000
,
1000
0100
0020
0030
0110
0000
1100
0000
,
1000
0001
1001
0000
2000
0000
0001
0000
,
0010
3010
1010
0000
1000
0000
0001
0000
,
1000
0000
0000
1000
0000
0000
1000
0000
0001
0000
0000
0000
0010
0000
0000
0000
,
0001
0000
0000
0001
0000
0000
0001
0000
0010
0000
0000
0000
0100
0000
0000
0000
,
0010
0000
0000
0010
0000
0000
0010
0000
0100
0000
0000
0000
1000
0000
0000
0000
,
0100
0000
0000
0100
0000
0000
0100
0000
1000
0000
0000
0000
1000
0000
0010
0000
,
1000
0000
0000
0100
0000
0000
0010
0000
0001
0000
0000
0000
0001
0000
0100
0000
,
0001
0000
0000
0010
0000
0000
0100
0000
1000
0000
0000
0000
1000
0000
0100
0000
,
1000
0000
0000
0010
0000
0000
0100
0000
0002
0000
0000
0000
0100
0000
0000
0000
,
1000
1003
1001
0000
1000
0000
1000
0000
,
0001
0001
1000
1000
,
0001
0002
0013
0010
,
0100
0100
0010
0010
,
0100
0200
1300
0100
,
0001
0100
1000
0010
,
0001
0020
1030
0100
,
0001
0100
1000
0010
,
0001
0000
0010
0000
M22M
M00M
M00M
M00M
,
M00M
M00M
M00M
M00M
M00M
M00M
M00M
M00M
,
M00M
M00M
M00M
M00M
M33M
0000
0000
0000
;

//---------------dance-single - Copied from----------------
#NOTES:
     dance-single:
     Copied from:
     Easy:
     5:
     0.310,0.371,0.270,0.236,0.000: // measure 1
0000
0000
0000
0000
,  // measure 2
0000
0000
0000
0000
,  // measure 3
1000
1000
1000
0010
,  // measure 4
0001
0001
0001
0010
,  // measure 5
1000
1000
1000
0100
,  // measure 6
0001
0001
0001
0100
,  // measure 7
1000
1000
1000
0010
,  // measure 8
0100
0100
0100
0110
,  // measure 9
1001
1000
0100
0010
,  // measure 10
0001
0100
0010
1000
,  // measure 11
0001
0010
0100
1000
,  // measure 12
0010
0100
0001
1000
,  // measure 13
0010
0010
0010
0010
,  // measure 14
0010
0010
0010
0010
,  // measure 15
0020
0000
2030
0000
,  // measure 16
3002
0000
0000
0000
,  // measure 17
0000
0000
M003
2002
,  // measure 18
0000
0000
0000
0000
,  // measure 19
0000
0000
0000
0MM0
,  // measure 20
0MM0
0MM0
0MM0
0MM0
,  // measure 21
0MM0
0MM0
0MM0
0MM0
,  // measure 22
3MM3
0000
10M1
0000
,  // measure 23
2000
0000
3200
0000
,  // measure 24
0300
0100
0110
0000
,  // measure 25
0020
0000
0032
0000
,  // measure 26
0003
0001
1001
1000
,  // measure 27
1000
1001
0101
0001
,  // measure 28
0001
1000
1010
1000
,  // measure 29
1100
1100
0011
0000
,  // measure 30
1M02
0100
1000
0100
,  // measure 31
1000
0100
1003
0101
,  // measure 32
0210
0001
0010
0001
,  // measure 33
0010
0001
0310
0110
,  // measure 34
2010
0001
0010
0001
,  // measure 35
0010
0001
3010
0110
,  // measure 36
0201
0010
0001
0010
,  // measure 37
0001
0010
0301
0110
,  // measure 38
1001
1000
0001
1000
,  // measure 39
0001
0100
0010
0100
,  // measure 40
0010
1000
0001
1000
,  // measure 41
0001
1000
0001
1001
,  // measure 42
2000
0000
0000
3000
,  // measure 43
0002
0000
0000
0003
,  // measure 44
0200
0000
0000
0000
,  // measure 45
M31M
0000
1001
0001
,  // measure 46
1000
1010
1000
0001
,  // measure 47
1000
0020
0130
0001
,  // measure 48
0100
0002
1003
0100
,  // measure 49
0010
0110
1001
1000
,  // measure 50
0001
0011
0001
1000
,  // measure 51
0001
0020
0130
1000
,  // measure 52
0100
2000
3001
0001
,  // measure 53
0010
0011
1001
1001
,  // measure 54
1001
1010
0001
0010
,  // measure 55
0100
2000
3001
0100
,  // measure 56
0010
2000
3010
0100
,  // measure 57
0001
0101
1001
1001
,  // measure 58
1001
0011
1000
0010
,  // measure 59
0100
0002
1003
0100
,  // measure 60
0010
0002
0013
0010
,  // measure 61
0010
0110
1001
0001
,  // measure 62
2000
0000
3010
1000
,  // measure 63
0020
0000
0130
0010
,  // measure 64
0200
0000
0301
0100
,  // measure 65
0002
0000
1003
0001
,  // measure 66
2000
0000
3100
1000
,  // measure 67
0200
0000
0310
0100
,  // measure 68
0020
0000
0031
0001
,  // measure 69
0001
0101
1000
1000
,  // measure 70
1000
1000
1000
1000
,  // measure 71
1000
0020
0130
0100
,  // measure 72
0100
0100
0100
0100
,  // measure 73
0100
0002
0013
0010
,  // measure 74
0010
0010
0010
0010
,  // measure 75
0010
0200
1300
1000
,  // measure 76
1000
1000
1000
1000
,  // measure 77
1000
1000
M002
M000
,  // measure 78
M000
M000
M000
M000
,  // measure 79
M000
M000
M003
0000
;
