#TITLE:Melodia;
#SUBTITLE:;
#ARTIST:Lylloo & Egas;
#TITLETRANSLIT:;
#SUBTITLETRANSLIT:;
#ARTISTTRANSLIT:;
#CREDIT:;
#BANNER:Melodia.png;
#BACKGROUND:Melodia - bg.png;
#LYRICSPATH:;
#CDTITLE:cdtitle.png;
#MUSIC:Melodia.ogg;
#OFFSET:-0.960;
#SAMPLESTART:47.200;
#SAMPLELENGTH:14.000;
#SELECTABLE:YES;
#BPMS:0.000=135.000,48.000=67.500,52.000=135.000,112.000=67.500,114.000=135.000,166.000=67.500,170.000=135.000,202.000=67.500,218.000=135.000,258.000=67.500,262.000=135.000;
#STOPS:;
#BGCHANGES:;

//---------------dance-single - ----------------
#NOTES:
     dance-single:
     :
     Hard:
     10:
     0.604,0.719,0.654,0.223,0.388: // measure 1
0000
0000
0000
0000
,  // measure 2
0000
0000
0000
0000
,  // measure 3
2000
0000
0000
0002
3000
0000
0200
0003
0300
0000
0001
0010
0001
0000
1000
0000
,  // measure 4
0002
0000
0000
2000
0003
0000
0200
3000
0300
0000
1000
0010
1000
0000
0001
0000
,  // measure 5
1001
0000
0000
0001
0000
0000
1000
0000
0001
0000
1000
0000
0100
0000
1000
0000
,  // measure 6
0001
0000
0000
0001
0000
0000
0010
0000
0100
0000
0000
0100
0000
0000
0010
0000
,  // measure 7
0002
M000
0000
1003
0010
0100
0001
0010
,  // measure 8
0100
0000
0000
0010
0000
0000
0001
0000
0001
0000
0000
1000
0000
0000
0100
0000
,  // measure 9
0110
0000
0000
0011
0000
0000
1000
0000
1010
0000
0000
1001
0000
0000
0001
0000
,  // measure 10
0101
0000
0000
1100
0000
0000
0001
0000
0011
0000
0000
0101
0000
0000
0100
0000
,  // measure 11
0110
0000
0000
1010
0000
0000
0001
0000
0011
0000
0000
1001
0000
0000
1000
0000
,  // measure 12
1100
0000
0000
0101
0000
0000
1000
0000
1010
0000
0000
1100
0000
0000
0100
0000
,  // measure 13
M22M
0000
0000
0000
0000
0000
0000
0330
,  // measure 14
1MM1
0000
1000
0100
0000
0000
1000
0000
1000
0000
0001
0100
0000
0000
0001
0000
,  // measure 15
0001
0000
1000
0100
0000
0000
1000
0000
1000
0000
0001
0100
0000
0000
0001
0000
,  // measure 16
1001
0000
1000
0010
0000
0000
1000
0000
1000
0000
0001
0010
0000
0000
0001
0000
,  // measure 17
0001
0000
0000
0000
0000
0000
1000
0000
0000
0010
0000
0000
0000
0000
0000
0000
0000
0000
1000
0000
0000
0000
0000
0000
0100
0000
0000
0000
0010
0000
0000
0000
0100
0000
0000
0000
0010
0000
0000
0000
0000
0000
0001
0000
0000
0000
0000
0000
,  // measure 18
1001
0000
0001
0010
0000
0000
0100
0000
0100
0000
1000
0010
0000
0000
0100
0000
,  // measure 19
0100
0000
0001
0010
0000
0000
0100
0000
0100
0000
1000
0010
0000
0000
0100
0000
,  // measure 20
0101
0000
0001
0100
0000
0000
0010
0000
0010
0000
1000
0100
0000
0000
0010
0000
,  // measure 21
0010
0000
0000
0000
0000
0000
0001
0000
0000
0100
0000
0000
0000
0000
0000
0000
0000
0000
0010
0000
0000
0000
0000
0000
1000
0000
0000
0000
0100
0000
0000
0000
1000
0000
0000
0000
0100
0000
0000
0000
0000
0000
1000
0000
0000
0000
0000
0000
,  // measure 22
1001
0000
0000
0001
0100
0000
0001
0000
1001
0000
0000
0001
0100
0000
0001
0000
,  // measure 23
1001
0000
0000
1000
0100
0000
1000
0000
1001
0000
0000
1000
0100
0000
1000
0000
,  // measure 24
1001
0000
0000
0001
0010
0000
0001
0000
1001
0000
0000
0001
0010
0000
0001
0000
,  // measure 25
1001
0000
0000
1000
0010
0000
1000
0000
1001
0000
1000
0000
0010
0000
0100
0000
,  // measure 26
0101
0001
1000
0001
0010
0001
1000
0010
,  // measure 27
0100
0010
1000
0010
0100
0010
1000
0010
,  // measure 28
0100
0001
0100
0010
1000
0100
0010
0001
,  // measure 29
2M02
0000
0000
3003
10M1
0001
0100
0001
,  // measure 30
1000
0001
0010
0100
1000
0010
1000
0001
,  // measure 31
1000
0010
1000
0100
0001
0100
1000
0010
,  // measure 32
0001
0010
1000
0010
0200
0000
0001
0000
,  // measure 33
1000
0000
0001
0000
0310
1000
0010
0100
,  // measure 34
0001
0000
1000
0000
0010
0000
0100
0000
0101
0000
0000
0001
0000
0000
1000
0000
,  // measure 35
0001
0000
1000
0000
0010
0000
1000
0000
0001
0000
0000
0001
0000
0000
0100
0000
,  // measure 36
0010
0000
0000
0010
0000
0000
0100
0000
0002
0000
M000
0000
0000
0000
1003
0000
,  // measure 37
0100
0000
0010
0000
0001
0000
0100
0000
0010
0000
0000
0100
0000
0000
0001
0000
,  // measure 38
0001
0000
0000
1000
0000
0000
0010
0000
0110
0000
0000
0101
0000
0000
1000
0000
,  // measure 39
1100
0000
0000
1001
0000
0000
0001
0000
0011
0000
0000
1010
0000
0000
0001
0000
,  // measure 40
0101
0000
0000
0011
0000
0000
0010
0000
0110
0000
0000
1100
0000
0000
0001
0000
,  // measure 41
0101
0000
0000
1001
0000
0000
1000
0000
1010
0000
0000
0011
0000
0000
1000
0000
,  // measure 42
1100
0000
0000
1010
0000
0000
0010
0000
M22M
0000
0000
0000
0000
0000
0000
0000
,  // measure 43
0000
0000
0000
0330
1M1M
1000
0010
0100
,  // measure 44
0010
1000
0100
0000
0120
0000
0001
0000
,  // measure 45
0100
0000
0002
0033
0011
0001
0010
0100
,  // measure 46
0010
0001
0100
0000
0120
0000
1000
0000
,  // measure 47
0100
0000
0000
0000
2000
0000
3030
0000
1010
0000
0000
1000
0100
0000
1000
0000
,  // measure 48
1010
0000
0000
1000
0100
0000
1000
0000
1001
0000
0000
0001
0010
0000
0001
0000
,  // measure 49
1001
0000
0000
1000
0010
0000
1000
0000
1100
0000
0000
1000
0010
0000
1000
0000
,  // measure 50
1100
0000
0000
1000
0010
0000
1000
0000
1001
0000
0000
0001
0100
0000
0001
0000
,  // measure 51
0010
0000
0000
0000
0000
0000
0000
0000
0000
0000
0000
0000
0000
0000
0000
0000
0100
0000
0000
0000
0000
0000
0000
0000
0000
0000
0000
0000
0000
0000
0000
0000
0010
0000
0000
0000
0000
0000
0000
0000
0000
0000
0000
0000
0000
0000
0000
0000
0001
0000
0000
0000
0000
0000
0000
0000
0000
0000
0000
0000
0000
0000
0000
0000
0000
0000
0000
0000
0000
0000
0000
0000
0100
0000
0000
0000
0000
0000
0000
0000
0000
0000
0000
0000
0000
0000
0000
0000
0000
0000
0000
0000
0000
0000
0000
0000
001M
0000
0000
0000
0000
0000
0000
0000
0000
0000
0000
0000
0000
0000
0000
0000
0000
0000
0010
0000
0000
0000
0000
0000
0000
0000
0000
0000
0000
0000
0000
0000
0000
0000
0000
0000
0010
0000
0000
0000
0000
0000
0000
0000
0000
0000
0000
0000
1000
0000
0000
0000
0000
0000
0000
0000
0000
0000
0000
0000
0000
0000
0000
0000
0000
0000
1000
0000
0000
0000
0000
0000
0000
0000
0000
0000
0000
0000
0000
0000
0000
0000
0000
0000
1000
0000
0000
0000
0000
0000
0000
0000
0000
0000
0000
0000
,  // measure 52
0001
0000
0000
0001
0000
0000
0001
0000
0010
0000
0000
0010
0000
0000
0010
0000
0001
0000
0100
0000
0001
0000
0010
0000
0100
0000
1000
0000
0010
0000
1000
0000
,  // measure 53
0100
0000
0010
0000
0001
0000
0100
0000
0002
0000
0000
0000
0003
0000
0000
0000
1001
0000
0000
1000
0000
0000
1000
0000
0001
0000
0000
0001
0000
0000
0001
0000
,  // measure 54
0100
0000
0000
0100
0000
0000
0100
0000
0001
0000
0000
0001
0000
0000
0001
0000
0010
0000
0001
0000
0010
0000
0100
0000
1000
0000
0100
0000
0010
0000
0001
0000
,  // measure 55
0011
0000
1100
0000
1010
0000
0101
0000
20M1
0000
0000
0002
3000
0000
0200
0003
,  // measure 56
0300
0000
0001
0010
0001
0000
1000
0000
0002
0000
0000
2000
0003
0000
0200
3000
,  // measure 57
0300
0000
1000
0010
1000
0000
0001
0000
1001
0000
0000
0000
1000
0000
0001
0000
,  // measure 58
1000
0000
0001
0000
0010
0000
0001
0000
1000
0000
0000
0100
0000
0000
0001
0000
,  // measure 59
0001
0000
0000
0100
0000
0000
1000
0000
2000
0000
000M
0000
0000
0000
3001
0000
,  // measure 60
0010
0000
1000
0000
0010
0000
0001
0000
0010
0000
0000
0100
0000
0000
1000
0000
,  // measure 61
1000
0000
0000
0001
0000
0000
0100
0000
0101
0000
0000
1100
0000
0000
0001
0000
,  // measure 62
0011
0000
0000
1001
0000
0000
1000
0000
1100
0000
0000
0110
0000
0000
0001
0000
,  // measure 63
0101
0000
0000
1001
0000
0000
1000
0000
1010
0000
0000
0011
0000
0000
1000
0000
,  // measure 64
1100
0000
0000
1001
0000
0000
0001
0000
0011
0000
0000
0110
0000
0000
1000
0000
,  // measure 65
1010
0000
0000
1001
0000
0000
0001
0000
M2M2
0000
0000
0000
0000
0000
0000
0000
,  // measure 66
0000
0000
0000
0303
1MM1
0001
0010
0001
,  // measure 67
1000
0001
0100
0000
2001
0000
0010
0000
,  // measure 68
0001
0000
0020
3030
1001
1000
0010
1000
,  // measure 69
0001
1000
0100
0000
1002
0000
0010
0000
,  // measure 70
1000
0000
0000
0000
0020
0000
0033
0000
1100
0000
0000
1000
0010
0000
1000
0000
,  // measure 71
1100
0000
0000
1000
0010
0000
1000
0000
1001
0000
0000
0001
0100
0000
0001
0000
,  // measure 72
1001
0000
0000
1000
0100
0000
1000
0000
1010
0000
0000
1000
0100
0000
1000
0000
,  // measure 73
1010
0000
0000
0001
0100
0000
0001
0000
1001
0000
0000
1000
0010
0000
1000
0000
,  // measure 74
0010
0000
0100
0000
0010
0000
1000
0000
0000
0100
0000
0000
0010
0000
0000
0000
0000
0000
0000
0000
0000
0000
0000
0000
;

//---------------dance-single - ----------------
#NOTES:
     dance-single:
     :
     Medium:
     8:
     0.436,0.446,0.303,0.196,0.175:
0000
0000
0000
0000
,
0000
0000
0000
0000
,
0002
0000
0010
0000
0013
0000
0010
0100
,
2000
0000
0010
0000
0010
0000
3010
1000
,
1001
0000
0001
0000
1000
0000
0010
0100
,
0010
0000
1000
0000
0100
0000
0010
0001
,
0010
M000
0001
0000
0100
0000
0001
1000
,
0001
0100
0010
1000
,
1100
0000
0000
1000
0000
0000
1000
0000
0001
0000
0000
0001
0000
0000
0001
0000
,
0100
0000
0000
0100
0000
0000
0100
0000
0010
0000
0000
0010
0000
0000
0010
0000
,
0100
0000
0000
0100
0000
0000
0100
0000
0001
0000
0000
0001
0000
0000
0001
0000
,
1000
0000
0000
1000
0000
0000
1000
0000
0100
0000
0000
0100
0000
0000
0100
0000
,
012M
0000
0000
0030
,
10M1
0000
0000
1000
0000
0000
0001
0000
0001
0000
0000
1000
0000
0000
0001
0000
,
0001
0000
0000
1000
0000
0000
0001
0000
0001
0000
0000
1000
0000
0000
0001
0000
,
0101
0000
0000
0100
0000
0000
0001
0000
0001
0000
0000
0100
0000
0000
0001
0000
,
0001
0000
0000
0100
0000
0000
0001
0000
0101
0000
0000
0000
1010
0000
0000
0000
,
1001
0000
0000
0001
0000
0000
1000
0000
1000
0000
0000
0001
0000
0000
1000
0000
,
1000
0000
0000
0001
0000
0000
1000
0000
1000
0000
0000
0001
0000
0000
1000
0000
,
1100
0000
0000
0100
0000
0000
1000
0000
1000
0000
0000
0100
0000
0000
1000
0000
,
1000
0000
0000
0100
0000
0000
1000
0000
1000
0000
0000
0000
0001
0000
0000
0000
,
1002
0000
0200
0303
0001
1000
0100
0000
,
2001
0000
0020
3030
1000
0001
0010
0000
,
0110
0000
0010
0000
0001
1000
0001
0000
,
1000
0000
0010
0000
0100
0010
0100
0000
,
0201
0000
0010
0000
0301
0000
0001
0010
,
0200
0000
0010
0000
1300
0000
1000
0100
,
0010
0000
0001
0100
0010
0000
1000
0001
,
M020
0000
0000
0030
20M1
0000
0100
0000
,
3001
0000
0001
0010
0200
0000
0010
0000
,
1300
0000
1000
0001
0010
0000
0001
1000
,
0010
0000
0010
1000
0200
0000
0010
0000
,
1000
0000
0310
0000
1000
0010
1000
0010
,
0100
0001
0100
0001
0101
0000
0001
0000
,
1000
0000
0100
0010
0100
0000
1000
0000
,
0010
0000
0100
0001
0100
M000
0001
0000
,
0010
0000
0001
1000
0001
0000
0010
0000
,
0100
0000
0000
0000
1000
0000
0000
0000
1010
0000
0000
1000
0000
0000
1000
0000
,
0001
0000
0000
0001
0000
0000
0001
0000
0010
0000
0000
0010
0000
0000
0010
0000
,
0100
0000
0000
0100
0000
0000
0100
0000
0010
0000
0000
0010
0000
0000
0010
0000
,
0001
0000
0000
0001
0000
0000
0001
0000
1000
0000
0000
1000
0000
0000
1000
0000
,
0010
0000
0000
0010
0000
0000
0010
0000
020M
0000
0000
0000
0000
0000
0000
0000
,
0000
0000
0300
0000
M101
0001
1000
0001
,
1000
0001
1000
0000
0020
0000
1000
0000
,
1000
0000
0130
0000
0110
0010
1000
0010
,
1000
0010
1000
0000
0002
0000
0010
0000
,
0010
0000
0000
0000
1003
0000
0000
0000
1010
0000
0000
1000
0000
0000
0010
0000
,
0100
0000
0000
0001
0000
0000
0100
0000
0010
0000
0000
1000
0000
0000
0010
0000
,
0100
0000
0000
0001
0000
0000
0010
0000
0100
0000
0000
1000
0000
0000
0100
0000
,
0010
0000
0000
0001
0000
0000
0010
0000
0100
0000
0000
1000
0000
0000
0100
0000
,
0010
0010
020M
2300
,
3002
0000
0203
0000
0310
1000
0001
1000
,
0010
0100
0001
0000
0020
0000
0032
0000
,
2003
0000
3020
0000
1030
0001
0100
0001
,
1001
1001
1010
1010
2000
0000
0010
0000
,
3010
0000
0010
0100
0002
0000
0010
0000
,
0010
0000
0013
0001
1001
0000
1001
0000
,
0101
0000
0001
1000
0001
0000
0101
0000
,
0011
0000
0010
0100
0010
0000
0011
0000
,
0110
0000
0100
1000
0100
0000
0110
0000
,
0011
0000
0000
0000
1001
0000
0000
0000
1100
0000
0000
1000
0000
0000
0001
0000
,
1001
0000
0000
1000
0000
0000
0010
0000
1010
0000
0000
0010
0000
0000
0100
0000
,
0110
0000
0000
0100
0000
0000
0001
0000
0101
0000
0000
0001
0000
0000
1000
0000
,
1001
0000
0000
0001
0000
0000
0010
0000
0011
0000
0000
0010
0000
0000
0100
0000
,
0110
0000
0000
0100
0000
0000
1000
0000
2100
0000
0000
0000
0000
0000
0000
0000
,
0000
0000
3000
0000
101M
1000
0001
1000
,
0001
1000
0001
0000
0200
0000
0001
0000
,
0001
0000
0310
0000
0110
0100
0001
0100
,
0001
0100
0001
0000
2000
0000
0100
0000
,
0100
0000
0000
0000
3001
0000
0000
0000
0101
0000
0000
0001
0000
0000
0100
0000
,
0010
0000
0000
1000
0000
0000
0010
0000
0100
0000
0000
0001
0000
0000
0100
0000
,
0010
0000
0000
1000
0000
0000
0100
0000
0010
0000
0000
0001
0000
0000
0010
0000
,
0100
0000
0000
1000
0000
0000
0100
0000
0010
0000
0000
0001
0000
0000
0010
0000
,
0100
1000
0010
0100
0001
0000
0000
0000
;

//---------------dance-single - ----------------
#NOTES:
     dance-single:
     :
     Easy:
     4:
     0.276,0.347,0.249,0.249,0.000:
0000
0000
0000
0000
,
0000
0000
0000
0000
,
0001
0000
0001
0000
,
1000
0000
1000
0000
,
1001
0000
0001
0000
,
1000
0000
0001
0010
,
0001
0000
1000
0000
,
0001
0000
1000
0100
,
2000
0000
3002
0000
,
2003
0000
3020
0000
,
2030
0000
3002
0000
,
2003
0000
3020
0000
,
023M
0000
0300
0000
,
10M1
0000
0001
0000
,
1000
0000
0001
0010
,
0110
0000
0100
0000
,
0010
0000
0100
0010
,
0011
0000
0001
0000
,
0010
0000
0001
0000
,
1100
0000
1000
0000
,
0100
0000
1000
0010
,
0110
0110
0010
1000
,
1001
1001
1000
0001
,
0011
0011
0001
0100
,
0101
0101
0100
0010
,
1010
1000
0001
1000
,
0010
0100
0010
1000
,
0100
0010
0001
0100
,
M020
0030
101M
1000
,
0001
1000
0010
0100
,
0010
1000
0100
0010
,
0001
0100
0020
0100
,
0100
0130
0010
0010
,
0100
0100
0110
0000
,
0001
0000
1000
0000
,
0001
0010
0001
0000
,
1000
0000
0001
0000
,
1000
0100
2000
0000
,
3002
0000
2003
0000
,
3020
0000
2030
0000
,
3002
0000
2003
0000
,
3020
0000
023M
0000
,
0300
0000
1M01
1001
,
1001
1100
2200
0000
,
0000
3300
1001
1001
,
1001
0101
0202
0000
,
0000
0303
0001
1000
,
0001
1000
0010
0100
,
0010
0100
0001
1000
,
0001
1000
0100
0010
,
0100
0010
0001
0001
,
1000
1000
0010
0010
,
0100
0100
0001
0001
,
0010
0010
0100
0100
,
1000
1000
1000
1000
0001
0000
0000
0000
,
0001
0000
1000
0000
,
1000
0000
1001
0000
,
1000
0000
0001
0000
,
1000
0010
1000
0000
,
0001
0000
1000
0000
,
0010
1000
2000
0001
,
3002
1000
2003
0010
,
3020
1000
2030
0001
,
3002
1000
2003
0010
,
3020
0100
023M
0000
,
0300
0000
1M01
1001
,
1001
0101
0202
0000
,
0000
0303
1001
1001
,
1001
1100
2200
0000
,
0000
3300
1000
0001
,
1000
0001
0010
0100
,
0010
0100
1000
0001
,
1000
0001
0100
0010
,
0100
0010
1000
0000
;
