#TITLE:Home;
#SUBTITLE:;
#ARTIST:Firebeatz & Jay Hardway;
#TITLETRANSLIT:;
#SUBTITLETRANSLIT:;
#ARTISTTRANSLIT:;
#CREDIT:;
#BANNER:Home.png;
#BACKGROUND:Home - bg.png;
#LYRICSPATH:;
#CDTITLE:cdtitle.png;
#MUSIC:Home.ogg;
#OFFSET:-0.090;
#SAMPLESTART:80.700;
#SAMPLELENGTH:15.000;
#SELECTABLE:YES;
#DISPLAYBPM:64.000:128.000;
#BPMS:0.000=128.000,20.000=32.000,22.000=128.000,104.000=64.000,105.000=128.000,107.000=64.000,108.000=128.000,110.000=64.000,111.000=128.000,117.000=64.000,118.000=128.000,120.000=64.000,121.000=128.000,123.000=64.000,124.000=128.000;
#STOPS:;
#BGCHANGES:;

//---------------dance-single - ----------------
#NOTES:
     dance-single:
     :
     Hard:
     8:
     0.468,0.519,0.212,0.584,0.049:
0000
0000
0000
0000
,
0000
0000
0000
0000
,
0000
0000
0000
0000
0000
0001
1000
0001
,
0100
0001
0000
0001
0000
0001
1000
0100
,
0000
0100
0000
0100
0000
0100
1000
0001
,
0200
0000
0310
0000
001M
0010
1000
0001
,
0010
0100
0000
0000
0100
0100
0010
0001
,
1000
1000
0010
0010
1000
1000
0010
0100
,
0001
0100
0000
0000
0100
0100
0010
1000
,
0001
0100
0000
0000
0100
0100
0001
1000
,
0001
0010
0001
1000
0002
0000
0023
0000
,
0230
2300
3200
0300
,
0000
0000
0000
0000
1000
0000
0010
0000
0001
0000
0000
0010
0000
0000
1000
0000
,
0002
0000
2000
0000
3003
0000
1000
0001
,
1000
0010
1000
0001
2000
0000
3020
0000
,
0230
0302
0203
0300
,
0000
0000
0000
0000
0001
0000
0010
0000
0100
0000
0000
0010
0000
0000
0001
0000
,
0200
0000
0020
0000
0330
0000
0000
1000
,
0010
0100
0010
0200
0000
0000
0000
0000
,
0320
2030
3200
0302
,
0023
0000
0000
0000
0000
0000
0000
0000
2030
0000
0000
0000
0000
0000
0000
0000
0000
0000
0000
0000
0000
0002
0000
0000
0000
0000
0000
0000
0000
0000
0000
0000
,
3003
0000
0000
0000
0000
0000
0000
0001
,
0010
0100
0010
0200
0000
0000
0000
0000
,
0320
0032
0203
2300
,
3020
0032
0000
0200
,
0303
0000
0000
0000
0000
1000
0100
1000
,
0M01
0000
0010
0010
0M00
0000
0001
0000
0010
0000
0100
0000
0M10
0001
1000
1000
,
0M00
0000
0010
0000
0100
0000
0002
0000
0M03
0010
0002
0000
1M03
0000
0001
0000
,
0100
0010
0100
0001
1000
1000
0000
0001
,
0100
0000
0001
0000
1M00
0000
0010
0010
0M00
0000
1000
0000
0010
0000
0100
0000
,
0M10
1000
0001
0001
0M00
0000
0010
0000
0100
0000
2000
0000
3M00
0010
2000
0000
,
3M01
1000
0100
0010
0100
1000
0001
0001
,
0101
0000
0001
0000
1000
0100
0010
0002
,
0000
0003
1000
0010
0100
0002
0000
1003
,
0020
0030
0020
0030
2000
0000
3200
0000
,
0320
0032
0023
0230
,
0310
0010
0010
0010
0001
0100
0010
1000
,
0001
0001
1000
0100
0010
0001
1000
1000
,
0200
0000
0000
0000
,
0320
0000
0000
0000
0031
0001
1001
0000
,
1100
1100
0011
1100
,
0001
0100
0010
0200
0000
0301
0100
0100
,
0110
0110
1010
0110
,
0001
0010
0100
0020
0000
0031
0010
0010
,
0011
0011
1100
0011
,
1000
0010
0100
0020
0000
1030
0010
0010
,
0110
0110
0101
0110
,
0010
1000
0010
0100
0010
1000
0100
0000
,
2001
3010
0102
0013
,
0001
0100
0010
2000
0000
3100
1000
1000
,
1002
0013
2100
3010
,
1000
0100
0010
0002
0000
0103
0001
0001
,
0201
0310
2001
3100
,
1000
0001
1000
0020
0000
0130
0010
0010
,
2000
3200
0302
0023
,
2030
0000
3002
0000
2000
0000
0000
3003
;

//---------------dance-single - ----------------
#NOTES:
     dance-single:
     :
     Challenge:
     10:
     0.603,0.618,0.380,0.380,0.305:
0000
0000
0000
0000
,
0000
0000
0000
0000
,
0000
0000
0000
0000
,
1000
0000
0001
0000
0100
0010
0100
0010
0100
0000
0001
0000
0100
0000
0001
0000
,
1000
0000
0100
0000
1000
0001
1000
0001
1000
0000
0001
0000
0010
0000
0001
0000
,
2000
0000
0000
0000
3010
0000
0000
0000
10M0
0000
0001
0000
1000
0100
0010
0100
,
1000
0000
0100
0000
0000
0000
0000
0000
1000
0000
0001
0000
1000
0010
0100
0010
,
2000
0000
3200
0000
0320
0000
0032
0000
1003
0000
0100
0000
0010
0001
0010
0001
,
0010
0000
0100
0000
0000
0000
0000
0000
1000
0000
0010
0000
0100
0001
0100
0001
,
0100
0000
0010
0000
0000
0000
0000
0000
1000
0000
0010
0000
1000
0100
0010
0100
,
1000
0000
0001
0000
0000
0000
0000
0000
1000
0000
0100
0000
1000
0010
0100
0010
,
2000
0000
3200
0000
0320
0000
0230
0000
1300
0000
0010
0000
0100
0010
0100
0010
,
0100
0000
0001
0000
0000
0000
0000
0000
1000
0000
0100
0000
0010
0100
0010
0100
,
0010
0001
0000
0000
0002
0000
2000
0003
,
0200
3000
0020
0300
0200
0030
2000
0300
,
0002
3000
0000
1003
0002
0000
2000
0003
,
0020
3000
0200
0030
0020
0300
2000
0030
,
3001
1000
0002
0000
0000
0000
0000
0000
1003
0000
0010
0000
1000
0100
1000
0100
,
1000
0000
0001
0000
1000
0000
0001
0000
0100
0000
0001
0000
0010
0001
0010
0001
,
0010
0000
0100
0000
1000
0000
0010
0000
0100
0000
0001
0000
1000
0100
1000
0100
,
1000
0000
0010
0000
0100
0000
0001
0000
1000
0000
0100
0000
0010
0001
0010
0001
,
0010
0000
0001
0000
0100
0000
0001
0000
1000
0000
0001
0000
1000
0100
0010
0100
,
1000
0000
0001
0000
1000
0000
0001
0000
0010
0000
0001
0000
1000
0010
0100
0010
,
1000
0000
0001
0000
0100
0000
0001
0000
1000
0000
0001
0000
1000
0100
0010
0001
,
0010
0000
0001
0000
1000
0000
0001
0000
0010
0000
0001
0000
1000
0010
0100
0001
,
0100
0001
1000
0010
1020
0000
0000
1030
,
1M01
0000
0000
0000
0000
0000
1000
0000
102M
0000
0000
0000
0000
0000
0000
0000
0130
0000
0000
0000
0000
0000
0000
0000
101M
0000
0000
0000
0000
0000
0010
0100
,
M020
0000
0000
0000
0000
0000
1030
0000
1M01
0000
0000
0001
M021
0000
0000
0000
,
0100
0000
0000
0000
0031
0000
0000
0001
0010
0000
0100
0000
1200
0000
0000
0000
,
0000
0000
1300
0000
10M1
0000
0000
1000
120M
0000
0000
0000
0310
0000
0000
0000
,
11M0
0000
0000
0000
0000
0000
0100
0010
020M
0000
0000
0000
0000
0000
0000
0000
0000
0000
0000
0000
1300
0000
0000
0000
10M1
0000
0000
0000
0000
0000
0001
0000
,
M201
0000
0000
0000
0010
0000
0000
0000
0301
0000
0000
0001
0100
0000
0010
0000
,
1010
1100
0001
1100
,
0001
0000
0000
0000
1100
0000
0000
0000
0001
0000
0000
1000
0010
0000
0100
0000
,
0010
0101
1000
0101
,
1000
0000
0000
0000
0101
0000
0000
0000
1000
0000
0000
0001
0010
0000
0100
0000
,
0110
0010
0011
0001
1001
1000
1010
0010
,
0110
0100
0101
0001
1001
1000
1100
1000
,
0010
1000
0010
1000
0010
1000
0010
1000
0010
1000
0010
1000
0010
1000
0010
1000
,
0020
0000
0000
0000
1030
0100
0110
0000
,
1002
0103
2010
3100
,
1000
0000
0010
0000
0100
0000
0002
0000
0000
0000
0013
0000
0001
0100
0001
0000
,
2001
3100
0012
0103
,
0001
0000
0010
0000
0100
0000
2000
0000
0000
0000
3010
0000
1000
0100
1000
0000
,
1020
0130
1002
0013
,
0001
0000
1000
0000
0001
0000
0200
0000
0000
0000
0310
0000
0100
0001
0100
0000
,
0120
1030
0012
0103
,
0010
0010
1000
1000
0001
0010
0100
0000
,
1001
0000
0000
0100
1000
0000
0001
0000
1000
0000
0100
0000
1000
0000
0001
0000
,
1001
0000
0000
0001
0100
0000
0001
0000
1000
0000
0001
0000
0100
0010
1000
0000
,
1001
0000
0000
0010
0001
0000
1000
0000
0001
0000
0100
0000
0001
0000
1000
0000
,
1001
0000
0000
1000
0010
0000
1000
0000
0001
0000
1000
0000
0100
0010
0001
0000
,
0101
0000
0000
1000
0001
0000
1000
0000
0100
0000
1000
0000
0001
0000
1000
0000
,
1100
0000
0000
0001
1000
0000
0001
0000
0010
0000
0001
0000
0100
0010
1000
0000
,
1001
0000
0001
0000
0001
1000
0010
0100
,
0010
0000
0010
0000
0010
1000
0100
1000
;

//---------------dance-single - ----------------
#NOTES:
     dance-single:
     :
     Medium:
     7:
     0.393,0.444,0.203,0.389,0.000:
0000
0000
0000
0000
,
0000
0000
0000
0000
,
0000
0000
0000
0000
,
1000
0000
0001
0010
0001
0000
1000
0000
,
0001
0000
1000
0010
1000
0000
0001
0000
,
0020
0030
00M2
0000
,
1000
1003
0000
0000
2000
0000
0000
0000
,
0100
3100
2000
0000
3002
0000
0000
0000
,
0100
0103
0000
0000
0200
0000
0000
0000
,
0010
0310
0000
0000
2000
0000
0001
0000
,
0001
3001
0000
0000
0002
0000
0010
0000
,
0010
0013
0002
0000
2003
0000
0010
0000
,
0010
3010
0000
0000
0020
0000
0100
0000
,
0100
0130
0000
0000
0002
0000
0203
0000
,
0302
0023
0230
2300
,
3200
0000
0300
1000
0200
0000
2300
0000
,
3020
0230
0302
2003
,
0100
0200
3300
0000
1000
0001
1000
0001
,
1000
0010
0000
0000
1000
0100
1000
0001
,
1000
0001
1000
0000
0001
0010
0001
0010
,
0001
1000
0000
0000
0010
0100
0010
1000
,
0010
1000
0010
0000
1000
0001
1000
0001
,
1000
0100
0000
0000
1000
0010
1000
0001
,
1000
0001
1000
0000
0001
0100
0001
0100
,
0001
1000
0000
0000
0100
0010
0100
1000
,
0100
1000
0100
0000
2000
0000
0000
0010
,
3010
200M
3002
0013
,
M002
0000
0003
0100
0010
0000
M200
0000
,
0301
2000
3100
2000
,
0000
0001
3001
0000
20M0
0000
3200
0000
,
0310
0000
020M
0000
0300
1000
0001
0000
,
02M0
0301
2000
3100
,
1000
1010
1000
1010
,
1000
0000
1010
0000
1000
0000
0010
0100
,
0001
0011
0001
0011
,
0001
0000
0011
0000
0001
0000
0010
0100
,
1000
0001
1000
0001
1000
0001
1000
0001
,
1000
0001
1000
0001
1000
0001
1000
0001
,
2000
0000
0000
0000
,
0000
0000
0000
3010
,
1001
0001
0011
0010
,
0001
0100
0010
2000
0000
0000
3100
0000
,
1001
0001
0101
0100
,
0001
0010
0100
2000
0000
0000
3001
0000
,
0011
0010
0110
0100
,
0010
0001
1000
0020
0000
0000
1030
0000
,
1001
1100
0011
1001
,
0010
0100
0010
0100
0010
0100
0110
0000
,
1001
1000
1010
0010
,
1000
0100
0010
0002
0000
0000
0103
0000
,
1001
1000
1100
0100
,
1000
0010
0100
0002
0000
0000
1003
0000
,
1010
0010
0110
0100
,
0010
1000
0001
0020
0000
0000
0031
0000
,
1000
0100
0001
0100
,
1000
0010
0100
0001
;

//---------------dance-single - ----------------
#NOTES:
     dance-single:
     :
     Easy:
     4:
     0.250,0.271,0.035,0.221,0.000: // measure 1
0000
0000
0000
0000
,  // measure 2
0000
0000
0000
0000
,  // measure 3
0000
0000
0000
0000
,  // measure 4
0001
1000
0001
1000
,  // measure 5
0010
0100
0010
0100
,  // measure 6
0002
0003
20M0
0000
,  // measure 7
3000
0000
0200
0000
,  // measure 8
0310
0001
2000
0000
,  // measure 9
3000
0000
0020
0000
,  // measure 10
0030
0000
2000
0000
,  // measure 11
3000
0000
0002
0000
,  // measure 12
1003
0010
0200
0000
,  // measure 13
0300
0000
0002
0000
,  // measure 14
0003
0000
2000
0010
,  // measure 15
0010
0010
0010
0010
,  // measure 16
0020
3030
2000
0100
,  // measure 17
0100
0100
0100
0100
,  // measure 18
0200
3300
1100
0100
,  // measure 19
0010
0001
0100
0010
,  // measure 20
1000
0001
1000
0010
,  // measure 21
0100
0001
0010
0100
,  // measure 22
1000
0001
1000
0100
,  // measure 23
0010
0100
1000
0010
,  // measure 24
0100
0010
1000
0100
,  // measure 25
0001
0100
1000
0010
,  // measure 26
0001
0010
2000
0000
,  // measure 27
3001
10M0
0010
1010
,  // measure 28
0M02
0000
0013
M001
,  // measure 29
0100
0001
0010
0200
,  // measure 30
0000
0310
M001
1000
,  // measure 31
1001
20M0
0000
3010
,  // measure 32
100M
0100
1000
0010
,  // measure 33
0110
0001
0000
0001
,  // measure 34
0000
1000
0000
1000
,  // measure 35
0000
0001
0000
1000
,  // measure 36
0000
0001
0000
1000
,  // measure 37
0001
0001
0001
0001
,  // measure 38
1000
1000
1000
1000
,  // measure 39
0002
0000
0000
0000
,  // measure 40
0000
0000
0000
0003
,  // measure 41
1000
1000
0010
0010
,  // measure 42
1000
0010
0100
0001
,  // measure 43
1000
1000
0010
0010
,  // measure 44
1000
0001
0010
0001
,  // measure 45
0100
0100
0001
0001
,  // measure 46
1000
0010
0100
0001
,  // measure 47
1000
1000
0100
0100
,  // measure 48
2000
0000
0000
3001
,  // measure 49
2000
3100
0002
0103
,  // measure 50
1000
1000
0010
0010
,  // measure 51
2000
3010
0002
0013
,  // measure 52
1000
1000
0100
0100
,  // measure 53
2000
3010
0200
0301
,  // measure 54
0010
0010
0010
0010
,  // measure 55
0001
0010
0100
1000
,  // measure 56
0010
0100
0001
1000
;

//---------------dance-single - ----------------
#NOTES:
     dance-single:
     :
     Beginner:
     3:
     0.152,0.245,0.071,0.000,0.000:
0000
0000
0000
0000
,
0000
0000
0000
0000
,
0000
0000
0000
0000
,
1000
0000
0000
0000
,
0001
0000
0000
0000
,
1000
0000
0001
0000
,
0001
0000
1000
0000
,
1000
0000
0001
0001
,
0001
0000
1000
1000
,
1000
0000
0010
0000
,
0010
0000
0100
0000
,
0100
0000
0010
0010
,
0010
0000
0100
0100
,
0100
0000
0001
0000
,
1000
0000
0010
0000
,
0100
0000
0001
0000
,
0010
0000
0100
0000
,
1000
0000
0001
0000
,
0000
0000
1000
0000
,
0000
0000
0010
0000
,
0000
0000
0100
0000
,
0000
0000
0001
0000
,
0001
0000
0100
0000
,
0100
0000
0001
0000
,
0001
0000
0010
0000
,
0010
0000
0001
0000
,
1001
0010
0000
0110
,
1000
0000
1001
0010
,
0010
0010
0000
1000
,
0000
1001
0010
0000
,
0110
0001
0000
1001
,
0010
0010
0010
0000
,
0000
1000
0000
1000
,
0000
1000
0000
1000
,
0000
0001
0000
0001
,
0000
0001
0000
0001
,
1000
1000
1000
1000
,
0001
0001
0001
0001
,
1000
0000
0000
0000
,
0001
0000
0000
0000
,
1001
0000
1000
0000
,
0010
0000
0100
0000
,
0010
0000
0100
0000
,
0010
0000
1000
0000
,
0001
0000
1000
0000
,
0100
0000
1000
0000
,
0001
0000
1000
0000
,
0100
0100
0100
0000
,
1001
0000
0001
0000
,
0010
0000
0100
0000
,
0010
0000
0100
0000
,
0010
0000
0001
0000
,
1000
0000
0001
0000
,
0100
0000
0001
0000
,
1000
0000
1000
0000
,
1000
0000
1000
0000
;
