#TITLE:Flute;
#SUBTITLE:;
#ARTIST:New World Sound & Thomas Newson;
#TITLETRANSLIT:;
#SUBTITLETRANSLIT:;
#ARTISTTRANSLIT:;
#CREDIT:;
#BANNER:Flute.png;
#BACKGROUND:Flute - Bg.png;
#LYRICSPATH:;
#CDTITLE:cdtitle.png;
#MUSIC:Flute.ogg;
#OFFSET:-1.880;
#SAMPLESTART:30.040;
#SAMPLELENGTH:12.980;
#SELECTABLE:YES;
#DISPLAYBPM:128.000;
#BPMS:0.000=128.000,120.000=64.000,122.000=128.000;
#STOPS:;
#BGCHANGES:;

//---------------dance-single - ----------------
#NOTES:
     dance-single:
     :
     Challenge:
     10:
     0.678,0.564,0.282,0.220,1.000:
0000
0000
0000
0000
,
1010
1010
1100
1100
,
0011
0011
0101
0101
,
1001
0000
0000
0001
0010
0100
0010
0000
0000
0010
0100
1000
,
0100
0000
0000
0100
0010
0001
0010
0000
0000
0010
0001
0100
,
0010
0000
0000
0010
1000
0100
0010
0000
0000
0010
0100
1000
,
0100
0000
0000
0100
1000
0010
0100
0000
0000
0100
0001
1000
,
1001
0000
0000
1000
0010
1000
0020
0000
0000
1030
0100
1000
,
0010
0010
0100
0001
0100
0010
2000
0000
0000
3001
0100
0001
,
1000
0000
0000
0001
0010
0001
0020
0000
0000
0031
0100
0001
,
0010
0010
0100
1000
0100
0010
0002
0000
0000
1003
0100
1000
,
0001
0000
0000
1000
0010
1000
0020
0000
0000
1030
0100
1000
,
0010
0010
0100
0001
0100
0010
2000
0000
0000
3001
0100
0001
,
1000
0000
0000
0001
0010
0001
0020
0000
0000
0031
0100
0001
,
0010
0000
0010
0000
0100
0000
1000
0000
0100
0000
0010
0000
0002
0000
0000
0000
0000
0000
0000
0000
0000
0003
0000
0000
,
1010
0000
0000
0000
1000
0001
1000
0000
0001
0000
1000
0000
0020
0000
0000
0000
0000
0000
1030
0000
0100
0000
0010
0000
,
0100
0000
0100
0000
1000
0100
1000
0000
0001
0000
1000
0000
0200
0000
0000
0000
0000
0000
1300
0000
1000
0000
0001
0000
,
0010
0000
0000
0000
0000
0001
1000
0000
0100
0000
1000
0000
0200
0000
0000
0000
0000
0000
1300
0000
0001
0000
0100
0000
,
0020
0000
2030
0000
3001
0100
0002
0000
0000
1003
1000
0010
,
0100
0000
0000
0000
0001
1000
0001
0000
1000
0000
0001
0000
0020
0000
0000
0000
0000
0000
0031
0000
0100
0000
0010
0000
,
0100
0000
0100
0000
0001
0100
0001
0000
1000
0000
0001
0000
0200
0000
0000
0000
0000
0000
0301
0000
0001
0000
1000
0000
,
0010
0000
0000
0000
0000
1000
0001
0000
0100
0000
0001
0000
0200
0000
0000
0000
0000
0000
0301
0000
1000
0000
0100
0000
,
0020
0000
0032
0000
1003
0100
2000
0000
0000
3001
0001
0010
,
0100
0000
0000
0000
0000
1000
0010
0000
0100
0000
0010
0000
2000
0000
0000
0000
0000
0000
3001
0000
0100
0000
0001
0000
,
0010
0000
0010
0000
0100
1000
0100
0000
0010
0000
0001
0000
0020
0000
0000
0000
0000
0000
0031
0000
0001
0000
1000
0000
,
0001
0000
0000
0000
0000
0001
0010
0000
0100
0000
0010
0000
0002
0000
0000
0000
0000
0000
1003
0000
0100
0000
1000
0000
,
0010
0000
0010
0000
0100
0001
0100
0000
0010
0000
1000
0000
0020
0000
0000
0000
0000
0000
1030
0000
1000
0000
0001
0000
,
1000
0100
0010
0100
1000
0010
0100
0001
,
0010
0100
0010
0001
0100
0010
1000
0100
,
0020
0000
0002
0030
,
2003
0000
0000
0000
0000
0000
0000
0000
0000
3001
0000
0000
0101
0000
0000
0000
0000
0000
0011
0000
0000
0000
0001
1000
,
0001
0010
0001
0010
0001
0010
0100
0010
0100
0010
0100
0010
,
0001
0100
0010
1000
0010
0100
0000
0000
0000
0001
0100
0010
,
1000
0100
0100
0010
0100
0100
1000
0100
0100
0010
0100
0100
,
1000
0000
0100
0000
0100
0000
0010
0000
0100
0000
1000
0000
0000
0000
0000
0000
0000
0000
1010
0000
0000
0000
1000
0001
,
1000
0010
1000
0010
1000
0010
0100
0010
0100
0010
0100
0010
,
1000
0100
0010
0001
0010
0100
0000
0000
0000
1000
0100
0010
,
0001
0100
0100
0010
0100
0100
0001
0100
0100
0010
0100
0100
,
0001
0100
0100
0010
0100
0001
0000
0000
0000
1010
0000
0000
,
1000
0100
0010
0100
1000
0010
0100
0010
0100
0001
0010
0100
,
0010
0001
0100
0010
0100
0001
0000
0000
0000
1000
0100
0010
,
0001
0100
0100
0010
0100
0100
0001
0010
0010
0100
1000
1000
,
0010
0000
0100
0000
0100
0000
0001
0000
0010
0000
0100
0000
0000
0000
0000
0000
0000
0000
0011
0000
0000
0000
0001
1000
,
0001
0010
0100
0010
0001
0100
0010
0100
0010
1000
0100
0010
,
0100
1000
0010
0100
0010
1000
0000
0000
0000
0001
0010
0100
,
1000
0010
0010
0100
0010
0010
1000
0100
0100
0010
0001
0001
,
0200
0000
0010
0310
1000
0100
0000
0000
0000
1000
0010
0000
,
0101
0000
0000
0001
0010
0000
1100
0000
0000
1000
0010
0000
,
0110
0000
0000
0001
0010
0000
0110
0000
0000
1000
0010
0000
,
0101
0000
0000
0001
0010
0000
1100
0000
0000
1000
0010
0000
,
0110
0000
0000
0001
0010
0100
0110
0000
0000
0001
0010
0000
,
1100
0000
0000
1000
0010
0000
0101
0000
0000
0001
0010
0000
,
0110
0000
0000
1000
0010
0000
0110
0000
0000
0001
0010
0000
,
1100
0000
0000
1000
0010
0000
0101
0000
0000
0001
0010
0000
,
0110
0000
0000
1000
0010
0100
0110
0000
0000
0010
1000
0010
,
0100
0010
0100
0010
0000
1000
0010
1000
0010
0100
0010
0100
,
0010
1000
0010
1000
0000
0001
0011
0000
0000
0010
0001
0010
,
0100
0010
0100
0010
0000
0001
0010
0001
0010
0100
0010
0100
,
0010
0001
0010
0001
0000
1000
1100
0000
0000
0100
1000
0100
,
0010
0100
0010
0100
0000
1000
0100
1000
0100
0010
0100
0010
,
0100
1000
0100
1000
0000
0001
0101
0000
0000
0100
0001
0100
,
0010
0100
0010
0100
0000
0001
0100
0001
0100
0010
0100
0010
,
0100
0001
0100
0001
0000
1000
1001
0000
0000
0000
0000
0000
;

//---------------dance-single - ----------------
#NOTES:
     dance-single:
     :
     Hard:
     9:
     0.571,0.539,0.212,0.188,0.847:
0000
0000
0000
0000
,
1000
0100
0001
0100
,
1000
0010
0001
0010
,
1000
0000
0000
0001
0010
0001
0010
0000
0000
0001
0100
0001
,
0100
0000
0000
0001
0010
0001
0010
0000
0000
0001
0100
0001
,
0100
0000
0000
0010
1000
0010
1000
0000
0000
0100
1000
0100
,
1000
0000
0000
0010
1000
0010
1000
0000
0000
0100
1000
0100
,
0110
0000
0000
0010
0001
0010
0002
0000
0000
1003
0000
0000
,
0010
0000
0000
0100
0010
0100
0020
0000
0000
1030
0000
0000
,
1000
0000
0000
0010
1000
0010
2000
0000
0000
3001
0000
0000
,
0010
0000
0000
0100
0010
0100
0020
0000
0000
0031
0000
0000
,
0001
0000
0000
0100
0001
0100
0002
0000
0000
1003
0000
0000
,
0100
0000
0000
0010
0100
0010
0200
0000
0000
1300
0000
0000
,
1000
0000
0000
0100
1000
0100
2000
0000
0000
3001
0000
0000
,
0100
0000
0000
0010
0100
0010
0200
0000
0000
0300
0000
0000
,
1001
0000
0000
1000
0010
1000
0020
0000
0000
0130
0000
0000
,
0001
0000
0000
1000
0100
1000
0200
0000
0000
1300
0000
0000
,
0010
0000
0000
0100
0001
0100
0002
0000
0000
1003
0000
0000
,
0010
0000
0010
0000
0010
1000
0200
0000
0000
1300
0000
0000
,
0010
0000
0000
1000
0100
1000
0200
0000
0000
0310
0000
0000
,
0001
0000
0000
1000
0010
1000
0020
0000
0000
1030
0000
0000
,
0100
0000
0000
0010
0001
0010
0002
0000
0000
1003
0000
0000
,
0100
0000
0100
0000
0100
1000
0020
0000
0000
1030
0000
0000
,
1100
0000
0000
0001
0010
0001
0020
0000
0000
0031
0000
0000
,
0100
0000
0000
0010
0100
0010
0200
0000
0000
0301
0000
0000
,
0011
0000
0000
1000
0010
1000
0020
0000
0000
1030
0000
0000
,
0100
0000
0000
0010
0100
0010
0200
0000
0000
1300
0000
0000
,
0001
0100
0001
0100
0010
0100
0010
0100
,
0010
1000
0010
1000
0001
1000
0001
1000
,
0020
0000
2030
0000
,
3002
0000
0000
1003
1001
0000
0011
0000
,
1000
0100
1000
0100
1000
0100
0010
0100
0010
0100
0010
0001
,
0010
0001
0010
0001
0010
0001
0000
0000
0000
1000
0100
0010
,
0001
0100
0001
0100
0001
0100
0010
0100
0010
0100
0010
0100
,
0001
0100
0001
0100
0001
0100
0000
0000
0000
0101
0000
0000
,
1000
0010
1000
0010
1000
0010
0100
0010
0100
0010
0100
0001
,
0100
0001
0100
0001
0100
0001
0000
0000
0000
0001
0010
0100
,
1000
0010
1000
0010
1000
0010
0100
0010
0100
0010
0100
0010
,
1000
0010
1000
0010
1000
0010
0000
0000
0000
1001
0000
0000
,
1000
0100
0010
0001
0100
0010
1000
0100
0010
0001
0100
0010
,
1000
0010
0100
0001
0010
0100
0000
0000
0000
1000
0100
0010
,
0001
0100
0100
0001
0100
0100
0001
0100
0100
0001
0100
0100
,
0001
0100
0100
0001
0010
0100
0000
0000
0000
0110
0000
0000
,
0001
0010
0100
1000
0010
0100
0001
0010
0100
1000
0010
0100
,
0001
0100
0010
1000
0100
0010
0000
0000
0000
0001
0010
0100
,
1000
0010
0010
1000
0010
0010
1000
0010
0010
1000
0010
0010
,
2000
0000
0000
0100
0000
0000
3001
0000
0000
1000
0100
0000
,
0110
0000
0000
0001
0100
0000
0110
0000
0000
1000
0100
0000
,
1100
0000
0000
0001
0100
0000
0101
0000
0000
1000
0100
0000
,
0110
0000
0000
0001
0100
0000
0110
0000
0000
1000
0100
0000
,
1100
0000
0000
0001
0010
0100
1000
0000
0000
0001
0100
0000
,
0110
0000
0000
1000
0100
0000
0110
0000
0000
0001
0100
0000
,
0101
0000
0000
1000
0100
0000
1100
0000
0000
0001
0100
0000
,
0110
0000
0000
1000
0100
0000
0110
0000
0000
0001
0100
0000
,
0101
0000
0000
1000
0010
0100
0001
0000
0000
0001
0100
0001
,
0100
0001
0100
0001
0000
0000
1000
0010
1000
0010
1000
0010
,
1000
0010
1000
0010
0000
0000
0101
0000
0000
0001
0010
0001
,
0010
0001
0010
0001
0000
0000
1000
0100
1000
0100
1000
0100
,
1000
0100
1000
0100
0000
0000
0011
0000
0000
1000
0010
1000
,
0010
1000
0010
1000
0000
0000
0001
0100
0001
0100
0001
0100
,
0001
0100
0001
0100
0000
0000
1010
0000
0000
1000
0100
1000
,
0100
1000
0100
1000
0000
0000
0001
0010
0001
0010
0001
0010
,
0001
0010
0001
0010
0000
0000
0110
0000
0000
0000
0000
0000
;

//---------------dance-single - ----------------
#NOTES:
     dance-single:
     :
     Medium:
     7:
     0.425,0.417,0.447,0.275,0.141:
0000
0000
0000
0000
,
1000
1000
0010
0100
,
0001
0010
0100
1000
,
0010
0010
1000
0100
,
0010
0001
0100
0010
,
1000
1000
0010
0100
,
0001
0010
0100
1000
,
1001
0001
0020
0001
,
0100
0001
0130
0011
,
1001
1001
2000
0010
,
0001
0010
3001
0101
,
0110
0110
0020
1000
,
0100
1000
0130
1010
,
1001
1001
0002
0010
,
1000
0010
1000
0013
,
0110
0000
0000
0100
1000
0100
2000
0000
0000
3001
0000
0000
,
0010
0000
0000
0001
0100
0001
0200
0000
0000
0310
0000
0000
,
1000
0000
0000
0100
1000
0100
2000
0000
0000
3001
0000
0000
,
0020
0000
0000
0032
0000
0000
0203
0000
0000
0310
1000
0010
,
1000
0000
0000
0100
0010
0100
0010
0000
0000
0001
0000
0000
,
1000
0000
0000
0001
0100
0001
0200
0000
0000
0301
0000
0000
,
1000
0000
0000
0100
1000
0100
2000
0000
0000
3001
0000
0000
,
0200
0302
0023
0031
,
1001
1000
0200
1300
,
1000
0001
0200
0301
,
1001
1000
0020
1030
,
1000
0001
0020
0031
,
1001
1000
1000
1000
0001
0001
0001
0001
,
1000
1000
1000
1000
0001
0001
0001
0001
,
2000
0000
0000
0000
,
3020
0000
0000
0030
1010
0000
1000
0000
,
1100
0001
0101
1000
,
1100
1000
0011
0001
,
0101
1000
1100
0001
,
0101
0001
1001
1000
,
1010
0010
0110
0100
,
0101
0001
1001
0001
,
0011
0010
0110
0100
,
1100
1000
1001
0001
,
0101
1000
1100
0001
,
0101
0000
0000
0001
0010
0100
1000
0000
0000
1000
0000
0000
,
1100
0001
0101
1000
,
1100
0000
0000
1000
0010
0100
0001
0000
0000
0001
0000
0000
,
0011
0010
0110
0100
,
1100
0000
0000
1000
0010
0100
0001
0000
0000
1000
0000
0000
,
1010
0010
0110
0100
,
0101
0000
0000
0001
0010
0100
1000
0000
0000
1000
0010
0000
,
2000
0000
3000
0001
0010
0000
0002
0000
0003
1000
0010
0000
,
2000
0000
3000
0001
0010
0000
0002
0000
0000
1003
0100
0000
,
2000
0000
3000
0001
0100
0000
0002
0000
0000
1003
0100
0000
,
2000
0000
3000
0001
0000
0000
1001
0000
0000
1000
0100
0000
,
0020
0000
0030
0001
0010
0000
0200
0000
0300
1000
0100
0000
,
0020
0000
0030
0001
0010
0000
0200
0000
0300
1000
0010
0000
,
0200
0000
0300
0001
0100
0000
0020
0000
0030
1000
0010
0000
,
0200
0000
0300
0001
0000
0000
1001
0000
0000
1000
0000
0000
,
0100
0110
0010
0001
,
0010
0110
1100
1000
,
0010
0110
0100
0001
,
0100
0110
1001
0001
,
0100
0110
0010
1000
,
0010
0110
0101
0001
,
0010
0110
0100
1000
,
0100
0110
1001
0000
;

//---------------dance-single - ----------------
#NOTES:
     dance-single:
     :
     Easy:
     5:
     0.275,0.343,0.384,0.243,0.000: // measure 1
0000
0000
0000
0000
,  // measure 2
1000
1000
0000
0100
,  // measure 3
0000
0010
0000
0100
,  // measure 4
1000
1000
0000
0010
,  // measure 5
0000
0100
0000
0010
,  // measure 6
1000
1000
0000
0100
,  // measure 7
0000
0010
0000
0001
,  // measure 8
2001
0000
3010
0000
,  // measure 9
0002
0000
0013
0000
,  // measure 10
2000
0000
3001
0000
,  // measure 11
0002
0000
1003
0000
,  // measure 12
2000
0000
3100
0000
,  // measure 13
0002
0000
0103
0000
,  // measure 14
2000
0000
3001
0000
,  // measure 15
0002
0000
1003
0000
,  // measure 16
1001
0000
2000
3000
,  // measure 17
0001
0001
0200
0300
,  // measure 18
0001
0000
2000
3000
,  // measure 19
0001
0100
0020
0030
,  // measure 20
1000
0000
0002
0003
,  // measure 21
1000
1000
0200
0300
,  // measure 22
1000
0000
0002
0003
,  // measure 23
1000
0100
0020
0030
,  // measure 24
0001
0001
0001
0001
,  // measure 25
1000
1000
1000
1000
,  // measure 26
0010
0010
0010
0010
,  // measure 27
0100
0100
0100
0100
,  // measure 28
0001
1000
0001
1000
,  // measure 29
0001
1000
0001
1000
,  // measure 30
0002
0000
0000
0000
,  // measure 31
0003
0000
0101
0000
,  // measure 32
0101
0000
1001
0000
,  // measure 33
1001
1100
1100
0000
,  // measure 34
0101
0000
0101
0000
,  // measure 35
1100
1001
1001
0000
,  // measure 36
1100
0000
1001
0000
,  // measure 37
1001
0101
0101
0000
,  // measure 38
1100
0000
1100
0000
,  // measure 39
1100
1001
0011
0000
,  // measure 40
0011
0000
1001
0000
,  // measure 41
1001
1010
1010
0000
,  // measure 42
0011
0000
0011
0000
,  // measure 43
1010
1001
1001
0000
,  // measure 44
1010
0000
1001
0000
,  // measure 45
1001
0011
0011
0000
,  // measure 46
1010
0000
1010
0000
,  // measure 47
1010
1001
0101
1000
,  // measure 48
2000
3010
0020
1030
,  // measure 49
2000
3001
0002
1003
,  // measure 50
2000
3010
0020
1030
,  // measure 51
2000
3100
1001
0001
,  // measure 52
0002
0013
0020
0031
,  // measure 53
0002
1003
2000
3001
,  // measure 54
0002
0013
0020
0031
,  // measure 55
0002
0103
1001
0000
,  // measure 56
1000
0000
0001
0000
,  // measure 57
1000
0000
0110
0000
,  // measure 58
0010
0000
0100
0000
,  // measure 59
0010
0000
1001
0000
,  // measure 60
0001
0000
1000
0000
,  // measure 61
0001
0000
0110
0000
,  // measure 62
0100
0000
0010
0000
,  // measure 63
0100
0000
1001
0000
;
