#TITLE:Bad;
#SUBTITLE:;
#ARTIST:David Guetta & Showtek feat. Vassy;
#TITLETRANSLIT:;
#SUBTITLETRANSLIT:;
#ARTISTTRANSLIT:;
#CREDIT:;
#BANNER:Bad.png;
#BACKGROUND:Bad-bg.png;
#LYRICSPATH:;
#CDTITLE:cdtitle.png;
#MUSIC:Bad.ogg;
#OFFSET:-0.056;
#SAMPLESTART:46.951;
#SAMPLELENGTH:14.980;
#SELECTABLE:YES;
#DISPLAYBPM:64.000:128.000;
#BPMS:0.000=128.000,144.000=256.000,152.000=64.000,154.000=256.000,158.000=128.000,186.000=64.000,188.000=128.000,220.000=64.000;
#STOPS:154.000=0.240
,155.000=0.240
,156.000=0.120
,156.500=0.120
,157.000=0.120
,157.500=0.120
;
#BGCHANGES:;

//---------------dance-single - ----------------
#NOTES:
     dance-single:
     :
     Hard:
     9:
     0.530,0.714,0.226,0.469,0.140:
0000
0000
0000
0000
,
0000
0000
0000
0000
,
0000
0000
0000
0000
,
0002
0000
0000
0020
0000
0000
0003
0000
,
0002
0030
0000
2000
0000
0000
0000
3003
,
1001
0001
0100
0002
0000
2003
0000
3200
,
0000
0300
0000
1000
0100
1000
0001
0020
,
0000
0030
0000
0002
0000
0000
0000
0000
,
2000
0003
0000
0200
0000
0000
0000
3300
,
1000
0100
0010
0001
0100
0010
0200
0000
,
0300
0100
0001
1000
0001
0100
0010
2000
,
0000
3000
0000
0020
0000
0000
0000
0000
,
0200
0030
0000
0002
0000
0000
0000
0303
,
1000
0001
0010
0002
0000
2003
0000
3020
,
0000
0030
0000
1000
0010
1000
0001
0200
,
0000
0300
0000
0002
0000
0000
0000
0000
,
2000
0003
0000
0020
3030
0010
1000
0100
,
1000
0010
0100
0001
0010
0100
0020
0000
,
0030
0010
0001
1000
0001
0010
0100
1000
,
0100
1000
0100
1000
0100
1000
0100
1000
,
0100
0010
0001
0010
0001
0010
0001
0010
,
0001
0100
0001
0100
1000
0100
1000
0100
,
0001
0100
0001
0100
1000
0100
0001
0010
,
1000
0010
0001
0100
1000
0100
0001
0100
,
0010
0000
1000
0000
0100
0000
1000
0001
1000
0000
0010
0000
1010
0000
0000
0000
,
1002
0000
0013
0100
2001
0000
3010
0100
,
0001
0000
0100
0010
0100
0000
0001
0000
0010
0000
0200
0000
0300
0000
0100
0000
,
1000
0001
1000
0001
0010
0200
0300
0100
,
0010
0001
1000
0010
2000
0000
0000
3000
,
2001
0000
3010
0100
1002
0000
0013
0100
,
1000
0000
0100
0010
0100
0000
1000
0000
0010
0000
0200
0000
0300
0000
0100
0000
,
0001
1000
0001
1000
0010
0200
0300
0100
,
0010
1000
0001
0010
0002
0000
0000
0003
,
1001
0000
0000
0000
1001
0000
0000
0000
1100
0000
0000
0101
0000
0000
1100
0000
,
1001
0000
0000
0000
1001
0000
0000
0000
0101
0000
0100
0010
0000
0010
0100
0001
,
0100
0001
0100
0001
0100
0001
0100
0001
0100
0010
1000
0010
1000
0010
1000
0010
,
2000
0000
0000
0000
,
0000
0000
0000
0000
,
300M
0000
1M01
1M01
,
100M
01M0
M010
01M0
210M
0000
3100
1000
,
1002
0000
0000
0000
1003
0000
0001
0000
0100
0000
0001
0010
0001
0000
0100
0000
,
0010
0100
0101
0001
0010
0100
0010
0100
,
1000
0001
0101
0001
1000
0100
0010
0100
,
2000
0000
0000
3000
2010
0000
3010
1000
,
1002
0000
0000
0000
1003
0000
0001
0000
0010
0000
0001
0100
0001
0000
1000
0000
,
0100
0010
0011
0001
0100
0010
0100
0010
,
1000
0000
0000
0000
0001
0000
0000
0000
0011
0000
0000
0000
0000
0000
0000
0000
00M2
0000
2003
0000
3020
0000
0230
0000
0000
0000
0300
0000
0001
0100
0001
0100
,
M002
0000
0000
0000
1003
0000
0001
0000
0200
0000
0300
0010
0100
0000
0001
0000
,
0010
0000
0100
1000
0100
0000
1000
0000
0010
0000
1000
0001
1000
0000
0010
0000
,
1000
0000
0100
0000
0001
0000
0100
0000
1000
0000
0100
0010
0100
0000
1000
0000
,
0010
0000
1000
0000
0100
0000
0010
0000
0200
0000
0000
0000
1300
0000
0010
1000
,
0020
0000
0000
0000
0130
0000
0010
0000
2000
0000
3000
0001
1000
0000
0010
0000
,
1000
0000
0001
0100
0001
0000
1000
0000
0001
0000
0100
0010
0100
0000
0001
0000
,
0100
0000
0001
0000
0010
0000
0001
0000
0100
0000
0001
1000
0001
0000
0100
0000
,
0010
1000
0010
0100
0002
0000
0000
0000
,
1M03
1000
1000
1000
0001
0001
0001
0001
,
2020
0000
3030
0000
;

//---------------dance-single - ----------------
#NOTES:
     dance-single:
     :
     Medium:
     7:
     0.393,0.408,0.199,0.208,0.009:
0000
0000
0000
0000
,
0000
0000
0000
0000
,
0000
0000
0000
0000
,
2000
0001
0001
0001
,
3020
0100
0100
0130
,
1001
1000
0010
0100
,
0001
0010
0100
1000
,
0002
1000
0010
1000
,
0023
0100
0001
0100
,
0031
1000
0100
0010
,
0001
0100
0010
1000
,
0002
1000
0100
1000
,
0203
0010
0001
0310
,
1001
0001
0010
0100
,
0010
0001
0100
0010
,
2010
0001
0010
3001
,
0012
1000
0010
1003
,
0001
0100
0010
0100
,
0001
0000
0010
0000
0100
0000
1000
0100
,
1000
0000
0001
0100
0001
0000
1000
0010
,
1000
0000
0001
0010
0001
0000
1000
0001
,
1002
0010
0010
0010
,
0010
0010
0010
0010
,
0013
0001
0100
1000
,
0100
0001
0100
0010
,
2010
3001
0102
1003
,
0001
0010
0001
0010
0100
0000
1000
0000
,
0001
0010
0001
0010
0100
0000
1000
0000
,
0001
0010
0100
1000
0002
0000
0003
0000
,
0012
1003
2100
3001
,
1000
0010
1000
0010
0100
0000
0001
0000
,
1000
0010
1000
0010
0100
0000
0001
0000
,
1000
0010
0100
0001
2000
0000
3000
0000
,
1001
0000
0000
0000
0001
0000
0000
0000
1000
0000
0000
1000
0000
0000
1000
0000
,
0010
0000
0000
0000
0010
0000
0000
0000
0100
0000
0000
0100
0000
0000
0100
0000
,
0002
0000
2003
0000
,
3020
0000
0000
0000
,
0000
0000
0000
0000
,
003M
0000
1M00
1M00
,
M001
0010
M001
0010
M011
0000
0011
0000
,
1100
0000
1100
0000
0001
0010
0100
0010
,
0001
1000
0001
0000
1000
0010
0100
0010
,
1000
0001
1000
0000
0001
0010
0100
1000
,
0002
0003
1010
1010
,
0101
0000
0101
0000
1000
0010
0100
0010
,
1000
0001
1000
0000
0001
0010
0100
0010
,
0001
1000
0001
0000
10M0
1000
1000
2000
,
301M
0000
0010
0100
0101
0000
0001
0010
,
0100
1000
0010
0100
0010
0100
0010
0000
,
0010
1000
0100
0010
0001
0100
0010
0000
,
0010
1000
0001
0010
0100
0000
1000
1000
,
1100
0000
0100
0010
0011
0000
0001
0100
,
0010
1000
0100
0010
0100
0010
0100
0000
,
0100
1000
0010
0100
0001
0010
0100
0000
,
0100
1000
0001
0100
0020
0000
0000
0000
,
M130
0100
0100
0100
0100
0100
0100
0100
,
0220
0000
0330
0000
;

//---------------dance-single - ----------------
#NOTES:
     dance-single:
     :
     Easy:
     5:
     0.271,0.332,0.190,0.163,0.000:
0000
0000
0000
0000
,
0000
0000
0000
0000
,
0000
0000
0000
0000
,
0002
0000
0000
0000
,
0203
0000
0000
0300
,
1001
0001
0100
0001
,
0100
0000
0100
0010
,
2000
0000
0000
0000
,
3200
0000
0000
0000
,
1300
0010
1000
0010
,
0000
0010
0100
0001
,
2000
0000
0000
0000
,
3020
0000
0000
0030
,
1001
1000
0100
1000
,
0100
0000
0100
0010
,
0002
0000
0000
0003
,
2000
0000
0000
3000
,
0001
0010
0100
1000
,
0000
1000
0100
0010
,
0001
0001
1000
1000
,
0001
0001
1000
1000
,
0002
0010
0010
0010
,
0010
0010
0010
0010
,
0010
0010
0010
0010
,
0010
0010
0013
0000
,
0002
0003
2000
3000
,
0001
0010
0100
0000
,
1000
0010
0100
0000
,
0100
0010
2000
3000
,
0002
0003
2000
3000
,
0001
0010
0100
0000
,
1000
0010
0100
0000
,
0100
0010
2000
3000
,
1001
1000
0001
0100
,
0110
0010
1000
0001
,
2000
0000
0000
0000
,
0000
0000
0000
0000
,
0000
0000
0000
0000
,
300M
0000
0001
0001
,
1000
1000
1001
1001
,
1100
1100
1000
0010
,
0100
0110
0100
0001
,
0010
0110
0100
1000
,
0020
0030
1010
1010
,
0110
0110
0010
1000
,
0001
1001
1000
0001
,
1000
0000
1001
0000
0M01
0001
0001
0001
,
1M01
0001
0100
0010
,
1000
0010
1000
0000
0100
0000
0110
0000
,
0010
0001
0010
0000
0001
0000
0101
0000
,
0100
0001
0100
0000
0010
0000
1000
0000
,
0001
1000
0100
0010
,
0001
0010
0001
0000
0100
0000
0110
0000
,
0010
1000
0010
0000
1000
0000
1100
0000
,
0100
1000
0100
0000
0010
0000
0000
0000
,
001M
0010
0010
0010
0010
0010
0010
0010
,
0020
0000
0030
0000
;

//---------------dance-single - ----------------
#NOTES:
     dance-single:
     :
     Beginner:
     4:
     0.147,0.177,0.036,0.000,0.000: // measure 1
0000
0000
0000
0000
,  // measure 2
0000
0000
0000
0000
,  // measure 3
0000
0000
0000
0000
,  // measure 4
0001
0000
0001
0000
,  // measure 5
1000
0000
1000
0000
,  // measure 6
1001
0000
1000
0000
,  // measure 7
0001
0000
1000
1000
,  // measure 8
1000
0000
0010
0000
,  // measure 9
0100
0000
0010
0000
,  // measure 10
1000
0000
0001
0000
,  // measure 11
1000
0000
0001
0001
,  // measure 12
0001
0000
0010
0000
,  // measure 13
0100
0000
0010
0000
,  // measure 14
0001
0001
0001
0000
,  // measure 15
1000
1000
1000
0000
,  // measure 16
0010
0010
0010
0000
,  // measure 17
0100
0100
0100
0000
,  // measure 18
0001
0001
0001
0000
,  // measure 19
1000
1000
1000
0000
,  // measure 20
0010
0000
0100
0000
,  // measure 21
0010
0000
0100
0000
,  // measure 22
0110
0000
0000
0000
,  // measure 23
0000
0000
0000
0000
,  // measure 24
0000
0000
0000
0000
,  // measure 25
0000
0000
0000
0000
,  // measure 26
0001
0000
1000
0000
,  // measure 27
0001
0001
0001
0000
,  // measure 28
1000
1000
1000
0000
,  // measure 29
0001
0000
1000
0000
,  // measure 30
0010
0000
0100
0000
,  // measure 31
0010
0010
0010
0000
,  // measure 32
0100
0100
0100
0000
,  // measure 33
0010
0000
0100
0000
,  // measure 34
1001
0000
0000
0000
,  // measure 35
1000
0000
0000
0000
,  // measure 36
0001
0000
0000
0000
,  // measure 37
1000
0000
0000
0000
,  // measure 38
0000
0000
0000
0000
,  // measure 39
0000
0000
0000
0000
,  // measure 40
0000
0000
0001
0000
,  // measure 41
1000
0000
0001
0001
,  // measure 42
0001
0000
1000
1000
,  // measure 43
1000
0000
0001
0000
,  // measure 44
1000
0000
0010
0000
,  // measure 45
0100
0000
0010
0010
,  // measure 46
0010
0000
0100
0100
,  // measure 47
0100
0000
0001
0000
,  // measure 48
1000
0000
0001
0000
,  // measure 49
1000
1000
1000
0000
,  // measure 50
0001
0001
0001
0000
,  // measure 51
1000
0000
0001
0000
,  // measure 52
0010
0000
0100
0000
,  // measure 53
0010
0010
0010
0000
,  // measure 54
0100
0100
0100
0000
,  // measure 55
0010
0000
0100
0000
,  // measure 56
1000
0000
0000
0000
,  // measure 57
1001
0000
0000
0000
;
