#TITLE:Your Love is My Drug;
#SUBTITLE:;
#ARTIST:Ke$ha;
#TITLETRANSLIT:;
#SUBTITLETRANSLIT:;
#ARTISTTRANSLIT:;
#GENRE:;
#CREDIT:;
#BANNER:Your Love is my drug-bn.png;
#BACKGROUND:Your love is my drug -bg.png;
#LYRICSPATH:;
#CDTITLE:;
#MUSIC:01 Your Love Is My Drug.mp3;
#OFFSET:0.062748;
#SAMPLESTART:87.866096;
#SAMPLELENGTH:15.000000;
#SELECTABLE:YES;
#BPMS:0.000000=120.000000
;
#STOPS:
;
#BGCHANGES:0.000=Your Love is My Drug.avi=1.000=0=0=1=====,
99999=-nosongbg-=1.000=0=0=0 // don't automatically add -songbackground-
;
#KEYSOUNDS:;
#ATTACKS:;

//---------------dance-single - ----------------
#NOTES:
     dance-single:
     :
     Hard:
     10:
     0.373700,0.344936,0.132033,0.148537,0.082521,283.000000,16.000000,18.000000,0.000000,0.000000,0.000000,0.373700,0.344936,0.132033,0.148537,0.082521,283.000000,16.000000,18.000000,0.000000,0.000000,0.000000:
// measure 0
0000
0000
0000
0000
,  // measure 1
0000
0000
0000
0000
,  // measure 2
0000
0000
0000
0000
,  // measure 3
0000
0000
0000
0000
,  // measure 4
0000
0000
1001
0000
0001
0100
0010
1000
,  // measure 5
0001
1000
0010
0100
0001
0010
0001
0100
,  // measure 6
0002
0000
0103
0010
0010
1000
0100
0001
,  // measure 7
0100
1000
0010
0100
0010
0010
1000
0001
,  // measure 8
0200
0000
0301
0010
1000
0010
0001
1000
,  // measure 9
0001
0001
0100
0010
1000
0100
1000
0010
,  // measure 10
0020
0000
1030
0010
0100
0001
1000
0100
,  // measure 11
0010
0001
1000
1000
0100
0001
0100
1000
,  // measure 12
0010
0000
0000
0000
1010
0000
0000
0010
0000
0000
1000
0000
0000
0000
0002
0000
,  // measure 13
0000
0000
1003
0000
0001
0000
0000
0010
0000
0000
0200
0000
0000
0000
0300
0000
,  // measure 14
1100
0000
1000
0000
0100
0000
0000
0010
0000
0000
0001
0000
0000
0000
0200
0000
,  // measure 15
0000
0000
0300
0000
0010
0000
0000
0010
0000
0000
2000
0000
0000
0000
3001
0000
,  // measure 16
0100
0000
1000
0000
0100
0000
0000
0100
0000
0000
0010
0000
0000
0000
2000
0000
,  // measure 17
0000
0000
3000
0000
0100
0000
0000
1000
0000
0000
0200
0000
0000
0000
0300
0000
,  // measure 18
1100
0000
1000
0000
0001
0000
0000
0100
0000
0000
1000
0000
0000
0000
0200
0000
,  // measure 19
0000
0000
0300
0000
0101
0000
0000
1001
0000
0000
0110
0000
0000
0000
0000
0000
,  // measure 20
0000
0000
1000
0000
1000
0010
0000
0010
,  // measure 21
0100
0000
0100
0001
1000
0010
1000
0000
,  // measure 22
1001
1000
0001
0000
0001
0100
0000
0100
,  // measure 23
0001
0000
0000
0000
0010
0000
0000
0010
0000
0000
0010
0000
0000
0000
0001
0000
,  // measure 24
0100
1000
0100
0000
0010
1000
0000
1000
,  // measure 25
0100
0000
0100
0010
0001
0100
0010
0000
,  // measure 26
1001
1000
0100
0000
0100
0010
0000
0010
,  // measure 27
0100
0000
0000
0000
1000
0000
0000
1000
0000
0000
1000
0000
0000
0000
0001
0000
,  // measure 28
0100
0000
0101
0000
,  // measure 29
1010
1000
0001
0100
0010
1000
0001
1000
,  // measure 30
1000
0200
0000
0310
0001
0100
1000
0100
,  // measure 31
0100
0001
1000
0001
1000
0010
0100
0001
,  // measure 32
0100
0000
1010
1000
0100
0001
0100
0010
,  // measure 33
0002
0000
1003
0010
0001
0010
0100
0001
,  // measure 34
2000
0000
3100
0010
0011
0000
0001
0100
,  // measure 35
0110
0020
0000
0030
,  // measure 36
0000
0000
0000
0000
1001
0000
0000
1000
0000
0000
0010
0000
0000
0000
0010
0000
,  // measure 37
0100
0000
0001
0000
0100
0000
0000
0100
0000
0000
0020
0000
0000
0000
1030
0000
,  // measure 38
0100
0000
0010
0000
0001
0000
0000
1000
0000
0000
0002
0000
0000
0000
0103
0000
,  // measure 39
0001
0000
0100
0000
0010
0000
0000
0100
0000
0000
0020
0000
0000
0000
1030
0000
,  // measure 40
0001
0000
0100
0000
0001
0000
0000
0100
0000
0000
0001
0000
0000
0000
0001
0000
,  // measure 41
1000
0000
0100
0000
1000
0000
0000
0010
0000
0000
0010
0000
0000
0000
0100
0000
,  // measure 42
0001
0000
1000
0000
0001
0000
0000
0010
0000
0000
0100
0000
0000
0000
1000
0000
,  // measure 43
0010
0000
1000
0000
0010
0000
0000
0100
0000
0000
0010
0000
0000
0000
0000
0000
,  // measure 44
0000
0000
1010
0000
0010
1000
0000
1000
,  // measure 45
0001
1000
0100
1000
0010
0100
0001
0000
,  // measure 46
0001
0100
0010
0000
0010
1000
0000
1000
,  // measure 47
0001
0000
0000
0000
1000
0000
0000
0100
0000
0000
0100
0000
0000
0000
0010
0000
,  // measure 48
0001
0100
1000
0100
0010
1000
0001
1000
,  // measure 49
0100
0000
0100
1000
0010
0200
0000
0301
,  // measure 50
0010
0001
1000
0001
0100
0010
1000
0100
,  // measure 51
0010
0000
0000
0000
0001
0000
0000
0001
0000
0000
1000
0000
0000
0000
0100
0000
,  // measure 52
1000
0001
0100
0000
0000
0000
0000
0000
;

//---------------dance-single - ----------------
#NOTES:
     dance-single:
     :
     Medium:
     7:
     0.277033,0.300375,0.173293,0.033008,0.037134,210.000000,21.000000,4.000000,0.000000,0.000000,0.000000,0.277033,0.300375,0.173293,0.033008,0.037134,210.000000,21.000000,4.000000,0.000000,0.000000,0.000000:
0000
0000
0000
0000
,
0000
0000
0000
0000
,
0000
0000
0000
0000
,
0000
0000
0000
0000
,
0000
0000
2000
0000
3010
0010
0100
0000
,
0101
0000
0002
0000
0103
0100
0010
0000
,
1010
0000
0020
0000
0130
0100
0001
0000
,
1001
0000
0002
0000
0103
0100
0010
0000
,
1010
0000
1000
0000
0100
0000
0001
0100
,
1000
0010
0100
0000
0100
0000
0100
0001
,
1000
0001
1000
0000
1000
0000
0100
0001
,
0100
1000
0010
0000
0100
0000
0001
1000
,
1001
1000
0100
0010
,
0001
0000
0000
0000
0100
0000
0000
0100
0000
0000
0100
0000
0000
0000
0000
0000
,
0100
0010
1000
0001
,
1000
0000
0000
0000
0001
0000
0000
0001
0000
0000
0001
0000
0000
0000
0000
0000
,
0100
0001
0100
0010
,
1000
0000
0000
0000
0100
0000
0000
0100
0000
0000
0100
0000
0000
0000
0000
0000
,
0010
0001
0100
1000
,
0100
0000
0000
0000
0001
0000
0000
1000
0000
0000
1001
0000
0000
0000
0000
0000
,
0000
1000
1000
0010
,
0010
0100
0100
0001
,
0001
1000
1000
0100
,
0100
0000
0010
0001
1000
0100
1000
0000
,
1001
1000
1000
0100
,
0100
0010
0010
0001
,
0001
0100
0100
0010
,
0010
0000
1000
0100
0010
0001
1000
0000
,
1001
0000
1000
0000
,
0001
0000
0100
0000
0100
0000
0001
0100
,
0010
0000
1000
0000
1000
0000
1000
0100
,
0010
0001
0100
0010
,
1000
1001
1000
0100
,
0001
0100
1000
0000
0010
0000
0100
0000
,
0001
0100
0010
0000
1000
0000
0001
0000
,
1000
0100
0010
0000
0000
0000
0000
0000
,
0000
1001
0001
0100
,
0010
0000
0000
0000
1000
0000
0000
0100
0000
0000
0010
0000
0000
0000
0000
0000
,
0001
0100
0001
0100
,
0010
0000
0000
0000
0100
0000
0000
0001
0000
0000
1000
0000
0000
0000
0000
0000
,
1000
0100
0010
0010
,
0001
0000
0000
0000
0100
0000
0000
0001
0000
0000
1000
0000
0000
0000
0000
0000
,
1000
0010
0010
0100
,
0100
0000
0000
0000
0001
0000
0000
0100
0000
0000
0010
0000
0000
0000
0000
0000
,
0000
0000
0110
0000
1001
0000
1000
0100
,
0010
0000
0001
0000
0100
0000
0001
0100
,
0010
0000
1010
0000
1100
0000
1000
0100
,
0010
0001
0001
1000
,
1000
0000
1100
0000
1010
0000
0010
0100
,
0001
0000
0101
0000
0110
0000
0010
1000
,
0001
1000
1100
0001
,
0101
0000
0000
0000
1000
0000
0000
1000
0000
0000
1000
0000
0000
0000
0000
0000
,
1001
0000
0000
0000
;

//---------------dance-single - ----------------
#NOTES:
     dance-single:
     :
     Easy:
     3:
     0.175651,0.194026,0.024756,0.132033,0.000000,130.000000,3.000000,16.000000,0.000000,0.000000,0.000000,0.175651,0.194026,0.024756,0.132033,0.000000,130.000000,3.000000,16.000000,0.000000,0.000000,0.000000:
0000
0000
0000
0000
,
0000
0000
0000
0000
,
0000
0000
0000
0000
,
0000
0000
0000
0000
,
0000
2000
0000
3001
,
0001
0200
0000
0310
,
0010
2000
0000
3100
,
0100
0020
0000
0031
,
0001
0100
0000
0100
,
0100
0100
0000
0010
,
0000
0010
0010
0010
,
0000
1000
0000
0001
,
0001
1000
0000
1000
,
0000
0001
0000
0001
,
0000
0100
0001
0100
,
0000
0100
0000
0010
,
1000
0010
0000
0010
,
0000
1000
1000
1000
,
0000
0100
0000
0100
,
0000
0010
0010
0010
,
0000
0002
0003
1000
,
1000
1000
0000
0020
,
0030
0100
0100
0100
,
0000
1001
0000
1001
,
0000
1000
0001
2000
,
3000
0001
0100
0002
,
0003
0100
0010
0200
,
0300
0010
0010
0010
,
0000
0000
1000
0000
,
0001
0000
0100
0100
,
0100
0000
0100
0100
,
0100
0000
0001
0001
,
0001
0000
0010
0010
,
0010
0000
0100
0100
,
0100
0000
0010
0000
,
0010
0000
0000
0000
,
0000
0002
0003
0100
,
0001
0200
0300
0010
,
1000
0200
0300
1000
,
0100
0020
0030
0001
,
1000
0002
0003
0100
,
0100
0002
0003
0100
,
0010
2000
3000
0100
,
0010
0001
1000
1001
,
0000
1000
0000
1000
,
0000
0001
0100
1000
,
0100
0001
0000
1000
,
0000
0001
0001
0010
,
0000
0100
0000
0100
,
0000
0100
0100
1000
,
0000
0010
0000
0001
,
0000
0010
0010
0010
,
0000
1000
0000
0000
;
