#TITLE:What the Hell;
#SUBTITLE:;
#ARTIST:Avril Lavigne;
#TITLETRANSLIT:;
#SUBTITLETRANSLIT:;
#ARTISTTRANSLIT:;
#GENRE:;
#CREDIT:;
#BANNER:what the hell-bn.png;
#BACKGROUND:what the hell-bg.png;
#LYRICSPATH:;
#CDTITLE:;
#MUSIC:What The Hell.mp3;
#OFFSET:0.128025;
#SAMPLESTART:96.225761;
#SAMPLELENGTH:15.000000;
#SELECTABLE:YES;
#BPMS:0.000000=150.000000
;
#STOPS:239.000000=0.380000
;
#BGCHANGES:0.000=What the Hell.avi=1.000=0=0=1=====,
99999=-nosongbg-=1.000=0=0=0 // don't automatically add -songbackground-
;
#KEYSOUNDS:;
#ATTACKS:;

//---------------dance-single - ----------------
#NOTES:
     dance-single:
     :
     Hard:
     12:
     0.542809,0.489025,0.347319,0.159767,0.000000,474.000000,50.000000,23.000000,0.000000,0.000000,0.000000,0.542809,0.489025,0.347319,0.159767,0.000000,474.000000,50.000000,23.000000,0.000000,0.000000,0.000000:
// measure 0
0000
0000
0000
0000
,  // measure 1
0000
0000
0000
0000
,  // measure 2
0000
0000
0000
0000
,  // measure 3
0000
0000
0000
0000
,  // measure 4
0000
0000
1000
0000
0001
0100
0000
0100
,  // measure 5
0010
0000
1000
0000
0100
1000
0000
1000
,  // measure 6
0001
0000
1000
0000
0100
0010
0000
0010
,  // measure 7
0001
0000
0001
0100
0010
1000
0001
1000
,  // measure 8
0010
0000
0100
0000
0001
0100
0000
0100
,  // measure 9
0010
0000
0100
0000
0001
1000
0000
1000
,  // measure 10
0100
0000
0100
0000
0010
0001
0000
0001
,  // measure 11
1000
0000
0010
1000
0010
0100
0001
1000
,  // measure 12
0100
0000
0010
0000
0001
1000
0000
1000
,  // measure 13
0100
0000
1000
0000
0010
0100
0000
0100
,  // measure 14
0001
0000
1000
0000
0001
0010
0000
0010
,  // measure 15
0100
0000
1000
0100
0010
0001
0100
0010
,  // measure 16
0100
0000
0001
0000
0100
0001
0000
0001
,  // measure 17
0010
0000
0100
0000
1000
0010
0000
0010
,  // measure 18
0100
0000
0010
0000
0100
0001
0000
0001
,  // measure 19
0100
0000
0010
1000
0001
1000
0100
0010
,  // measure 20
0001
0100
0002
0000
1003
0010
0100
0000
,  // measure 21
0110
0000
0200
0000
0301
1000
0100
0000
,  // measure 22
1100
0000
0200
0000
1300
0001
0010
0000
,  // measure 23
0011
0000
0001
0100
1000
0100
0001
0010
,  // measure 24
0100
0000
2000
0000
3010
0100
0001
0000
,  // measure 25
1001
0000
0002
0000
1003
0100
0010
0000
,  // measure 26
0110
0000
0200
0000
0310
0001
1000
0000
,  // measure 27
1100
0000
1000
0100
0001
0100
1000
0010
,  // measure 28
1010
0000
0010
1000
0001
1000
0020
0000
,  // measure 29
0130
0001
0100
0000
0010
1000
0001
0000
,  // measure 30
1001
0000
0001
0100
0010
1000
0100
0010
,  // measure 31
0001
0100
0020
0000
0130
0001
1000
0000
,  // measure 32
0101
0000
0100
0001
0100
0010
2000
0000
,  // measure 33
3001
0001
0100
0000
0010
1000
0001
0000
,  // measure 34
0101
0000
0001
0100
1000
0100
0001
0010
,  // measure 35
0100
1000
0020
0000
1030
0001
0100
0000
,  // measure 36
0110
0000
0100
0001
1000
0100
0000
0001
,  // measure 37
0100
0000
1000
0010
0001
0010
0000
1000
,  // measure 38
0010
0000
0010
1000
0001
0100
0000
1000
,  // measure 39
0100
0000
0001
1000
0100
1000
0010
0100
,  // measure 40
0101
0000
0001
0100
0010
1000
0002
0000
,  // measure 41
1003
0100
1000
0000
0001
0001
0100
0000
,  // measure 42
0110
0000
0010
1000
0100
1000
0001
1000
,  // measure 43
0010
0100
0001
0000
0001
0100
0010
0000
,  // measure 44
1000
0000
1001
0000
0000
0001
0001
0000
,  // measure 45
0000
0000
0110
0000
0000
0010
0010
0000
,  // measure 46
0000
0000
1010
0000
0000
1000
1000
0000
,  // measure 47
0000
0000
1001
0000
0000
0001
0001
0000
,  // measure 48
0000
0000
1000
0000
0100
1000
0010
0000
,  // measure 49
0101
0000
0010
0000
1000
0010
0100
0000
,  // measure 50
1001
0000
0001
0000
1000
0100
0010
0000
,  // measure 51
1100
0000
0100
0000
1000
0001
0100
0000
,  // measure 52
0011
1001
0001
0101
,  // measure 53
0010
0000
1000
0100
0001
0100
1000
0001
,  // measure 54
1000
1010
0010
0110
,  // measure 55
0001
0000
0001
0010
1000
0010
0001
0100
,  // measure 56
0010
1001
0010
0101
,  // measure 57
1000
0000
1000
0010
0001
0010
1000
0000
,  // measure 58
1010
0110
0100
0101
,  // measure 59
0001
2002
0000
3003
,  // measure 60
0001
0010
0100
1000
0020
0000
1030
0001
,  // measure 61
0010
0000
0100
0100
1000
0000
1001
0000
,  // measure 62
0001
0100
1000
0100
0001
0010
0100
1000
,  // measure 63
0020
0000
0130
0001
0100
0000
0110
0000
,  // measure 64
0010
1000
0001
1000
0200
0000
1300
0001
,  // measure 65
0010
0000
0010
0100
0100
0000
0110
0000
,  // measure 66
1000
0100
0001
0100
1000
0001
0100
0010
,  // measure 67
0200
0000
0301
0010
0100
1000
0001
1000
,  // measure 68
0010
0100
0001
0100
0010
1000
0001
0100
,  // measure 69
0002
0000
1003
0010
0100
0000
0101
0000
,  // measure 70
0001
0100
1000
0100
0001
0010
0001
1000
,  // measure 71
0200
0000
1300
0010
0100
0000
1001
0000
,  // measure 72
0001
0100
0010
1000
0100
0010
0100
1000
,  // measure 73
0002
0000
0103
0001
0100
0000
0110
0000
,  // measure 74
0001
0010
1000
0010
0001
1000
0001
0100
,  // measure 75
0002
0000
0103
0010
1000
0000
1001
0000
,  // measure 76
0011
0001
0010
1000
0000
0010
0001
0000
,  // measure 77
0101
0001
0100
1000
0000
0100
0001
0000
,  // measure 78
0011
0001
0010
1000
0000
0010
0001
0000
,  // measure 79
0001
0100
0001
0100
0010
1000
0010
0000
,  // measure 80
0100
0001
0100
0010
1000
0100
1000
0001
,  // measure 81
0020
0000
0130
1000
0001
0000
0101
0000
,  // measure 82
1000
0100
0001
0100
1000
0010
0001
0010
,  // measure 83
2000
0000
3010
0100
0001
0000
1001
0000
,  // measure 84
0011
0000
0110
0000
,  // measure 85
0001
0100
0010
1000
0001
0000
1001
0000
,  // measure 86
1010
0000
1100
0000
,  // measure 87
1000
0100
0010
0001
1000
0000
1001
0000
,  // measure 88
0110
0000
0000
0000
;

//---------------dance-single - ----------------
#NOTES:
     dance-single:
     :
     Medium:
     9:
     0.446553,0.427897,0.243123,0.048625,0.000000,408.000000,35.000000,7.000000,0.000000,0.000000,0.000000,0.446553,0.427897,0.243123,0.048625,0.000000,408.000000,35.000000,7.000000,0.000000,0.000000,0.000000:
0000
0000
0000
0000
,
0000
0000
0000
0000
,
0000
0000
0000
0000
,
0000
0000
0000
0000
,
0000
0000
1000
0000
0100
0000
0000
0100
,
1000
0000
1000
0000
0010
0000
0000
0010
,
0100
0000
0100
0000
0001
0000
0000
0001
,
1000
0000
0001
1000
0001
1000
0001
1000
,
0001
0000
0100
0000
0010
0000
0000
0010
,
1000
0000
1000
0000
0100
0000
0000
0100
,
0010
0000
0010
0000
0001
0000
0000
0001
,
1000
0000
0001
0100
0001
0100
0001
0100
,
0001
0000
0100
0000
0001
0000
0000
0001
,
0100
0000
0100
0000
0010
0000
0000
0010
,
1000
0000
1000
0000
0100
0000
0000
1000
,
0100
0000
1000
0100
1000
0100
1000
0100
,
1000
0000
0100
0000
1000
0000
0000
0010
,
0100
0000
0100
0000
0001
0000
0000
0001
,
0100
0000
0100
0000
0010
0000
0000
0010
,
1000
0000
1000
0100
0010
0001
1000
0100
,
0010
0000
0002
0000
0003
0100
0001
0000
,
1000
0000
0002
0000
0003
0100
0010
0000
,
0100
0000
0020
0000
0030
1000
0010
0000
,
1000
0000
0001
1000
0001
1000
0001
1000
,
0001
0000
2000
0000
3000
0001
0100
0000
,
0100
0000
0020
0000
0030
1000
0010
0000
,
1000
0000
0002
0000
0003
1000
0001
0000
,
0100
0000
0010
0100
0010
0100
0010
0100
,
0010
1000
0001
1000
,
0100
0010
0001
0000
0001
0100
0010
0000
,
1010
0000
0010
1000
0010
1000
0100
1000
,
0100
1000
0020
0000
0030
0100
0100
0000
,
0101
0001
0100
1000
,
0100
0001
0010
0000
0000
0010
0001
0000
,
1001
0000
0001
0010
0001
0010
0001
0100
,
0001
0100
0001
0000
0000
0001
0100
0000
,
0110
0000
0000
0100
0001
0100
0000
0100
,
0010
0000
0000
0010
1000
0010
0000
1000
,
0010
0000
0000
1000
0001
1000
0000
1000
,
0001
0000
1000
0100
0000
0010
0000
0001
,
0000
0001
0100
0010
,
1000
0100
1000
0000
1000
0100
0010
0000
,
1001
0000
0001
0100
0001
0100
0010
0100
,
0010
1000
0010
0000
0000
1000
0001
0000
,
0000
0000
1000
0000
0000
0100
0100
0000
,
0000
0000
0010
0000
0000
0001
0001
0000
,
0000
0000
0100
0000
0000
0100
0100
0000
,
0000
0000
0010
0000
0000
0010
0010
0000
,
0000
1000
1010
0010
,
1010
0010
1010
1000
,
1010
1000
0001
1000
,
0001
1000
0001
1000
,
0001
1000
1001
0001
,
1001
0000
0001
0100
0001
0000
0100
0000
,
0110
0110
0010
1000
,
0100
0000
1000
0100
1000
0000
1100
0000
,
1001
0011
0001
0101
,
0001
0000
0001
0100
0001
0000
0100
0000
,
0110
1001
1000
1100
,
1000
0000
1000
0100
0010
0000
1001
0000
,
0001
0000
0100
0000
0001
0000
0100
0010
,
0100
0000
0000
0010
1000
0000
1001
0000
,
1000
0100
1000
0010
1000
0100
1000
0010
,
0100
0000
0000
0100
0001
0000
0101
0000
,
0001
0000
0100
0000
0001
0000
0100
0010
,
0100
0000
0000
0100
0010
0000
1010
0000
,
0010
1000
0100
1000
0010
1000
0100
1000
,
0001
0000
0000
0001
0100
0000
0101
0000
,
0001
0000
0010
0000
0100
0000
0010
0001
,
1000
0000
1000
0001
1000
0000
1001
0000
,
1000
0100
0010
0001
1000
0100
0010
0001
,
0100
0000
0000
0100
0100
0000
0101
0000
,
0001
0000
0100
0000
0010
0000
1000
0001
,
1000
0000
1000
0100
0010
0000
0011
0000
,
0001
0100
1000
0100
0001
0100
1000
0100
,
0001
0000
0000
0001
0010
0000
0011
0000
,
0001
0010
0100
1000
0000
1000
0100
0000
,
1000
0100
0010
0001
0000
0001
0010
0000
,
0100
1000
0010
0100
0000
0100
0010
0000
,
0100
0001
0000
1001
0000
1001
0000
0000
,
1000
0000
0100
0000
1000
0000
0010
0100
,
0001
0000
0001
0100
0010
0000
0110
0000
,
0010
1000
0001
1000
0100
1000
0010
1000
,
0100
0000
0100
0010
0001
0000
0011
0000
,
0001
0000
1000
0000
,
0001
0001
1000
1000
0001
0000
1000
0000
,
0001
0000
1000
0000
,
0001
1000
0001
1000
0001
0000
1001
0000
,
1001
0000
0000
0000
;

//---------------dance-single - ----------------
#NOTES:
     dance-single:
     :
     Easy:
     5:
     0.241138,0.244512,0.027785,0.000000,0.000000,239.000000,4.000000,0.000000,0.000000,0.000000,0.000000,0.241138,0.244512,0.027785,0.000000,0.000000,239.000000,4.000000,0.000000,0.000000,0.000000,0.000000:
0000
0000
0000
0000
,
0000
0000
0000
0000
,
0000
0000
0000
0000
,
0000
0000
0000
0000
,
0000
1000
0000
1000
,
0000
0001
0001
0001
,
0000
0100
0000
0100
,
0000
0010
0010
0010
,
0010
1000
0000
1000
,
0000
0100
0100
0100
,
0000
0010
0000
0010
,
0000
0001
0001
0001
,
0001
1000
0000
0010
,
0000
0100
0001
0100
,
0000
0100
0000
0100
,
0000
0010
0010
1000
,
0010
1000
0001
0000
,
1000
0100
1000
0000
,
0100
0010
0001
0000
,
0100
0001
0100
0001
,
0100
0010
0010
0010
,
0000
1000
1000
1000
,
0000
0100
0100
0100
,
0000
0010
0001
0001
,
0100
0100
0001
0000
,
0001
0100
0010
0000
,
0010
1000
0001
1000
,
0001
1000
1000
1000
,
1001
1000
0100
1000
,
0010
0100
0000
0100
,
0000
0001
0100
0010
,
1000
0001
0000
1000
,
0000
1000
0100
1000
,
0100
1000
0000
1000
,
0000
0010
0100
0001
,
0100
0010
0000
0010
,
0000
1000
0001
1000
,
0100
0000
0100
1000
,
0010
0000
0010
0100
,
0001
0000
0100
0001
,
1000
0100
0100
0100
,
0010
0001
0000
0001
,
0000
0100
0100
0001
,
0100
0010
0000
1000
,
0000
0001
0000
0000
,
0000
1000
0000
0000
,
0000
0001
0000
0000
,
0000
1000
0000
0000
,
0000
0100
0100
0000
,
0010
0000
0010
0000
,
0001
0000
0001
0000
,
1000
0000
1000
0000
,
0100
0000
0100
0000
,
0010
0000
0010
0000
,
0001
0000
0001
0000
,
0100
0000
0100
0000
,
0010
0000
0010
0000
,
0100
0000
0100
0000
,
0001
0000
0001
0000
,
1000
0000
0001
1001
,
1000
0100
1000
0010
,
0100
0000
0100
0000
,
0001
0001
1000
1000
,
0001
0000
1000
0000
,
0100
0100
0100
0000
,
0010
0000
0001
0000
,
0100
0001
0100
0100
,
0010
0000
1000
0000
,
0001
1000
0001
1000
,
0100
0000
0100
0000
,
1000
1000
1000
0001
,
0001
0000
0100
0000
,
0001
0010
0100
0100
,
0010
0000
0001
0000
,
1000
1000
0010
0010
,
0100
0000
0001
0000
,
0100
0001
0100
0100
,
0010
1000
0100
0100
,
1000
0010
0100
0100
,
0001
1000
0001
0001
,
1000
0010
1000
0100
,
0010
0000
0001
0000
,
0100
0100
0001
0001
,
1000
0000
1000
0000
,
1001
0000
1000
0000
,
0100
0100
0010
0010
,
0001
0000
0001
0000
,
0001
0001
0100
0100
,
0110
0000
0000
0000
;
