#TITLE:We R Who We R;
#SUBTITLE:;
#ARTIST:Ke$ha;
#TITLETRANSLIT:;
#SUBTITLETRANSLIT:;
#ARTISTTRANSLIT:;
#GENRE:;
#CREDIT:;
#BANNER:we r who we r-bn.png;
#BACKGROUND:we r who we r-background.png;
#LYRICSPATH:;
#CDTITLE:;
#MUSIC:02 We R Who We R.mp3;
#OFFSET:0.208789;
#SAMPLESTART:38.560001;
#SAMPLELENGTH:12.000000;
#SELECTABLE:YES;
#BPMS:0.000000=120.000000
;
#STOPS:145.000000=0.500000,
145.500000=0.500000,
146.000000=0.500000
;
#BGCHANGES:0.000=We R Who We R.avi=1.000=0=0=1=====,
99999=-nosongbg-=1.000=0=0=0 // don't automatically add -songbackground-
;
#KEYSOUNDS:;
#ATTACKS:;

//---------------dance-single - Copied from Copied f----------------
#NOTES:
     dance-single:
     Copied from Copied f:
     Hard:
     12:
     0.543630,0.492538,0.440178,0.163292,0.191691,451.000000,62.000000,23.000000,0.000000,0.000000,0.000000,0.543630,0.492538,0.440178,0.163292,0.191691,451.000000,62.000000,23.000000,0.000000,0.000000,0.000000:
// measure 0
0000
0000
0000
0000
,  // measure 1
0000
0000
0000
0000
,  // measure 2
0000
0000
0000
0000
,  // measure 3
0000
0000
0000
0000
,  // measure 4
0000
0000
0000
0000
1000
0000
0001
0100
0000
0000
0001
0000
1000
0000
0010
0100
,  // measure 5
0010
0000
1000
0000
0010
0000
1000
0001
0000
0000
0100
0000
0001
0000
1000
0010
,  // measure 6
1000
0000
0100
0000
0010
0000
0001
1000
0000
0000
0010
0000
0100
0000
0001
0100
,  // measure 7
0001
0000
1000
0000
0001
0000
0100
0010
0000
0000
0010
0000
0010
0000
0000
0000
,  // measure 8
1010
0000
0000
0000
1001
0000
0001
0100
0000
0000
0001
0000
0100
0010
0100
0000
,  // measure 9
0010
0000
1000
0000
0001
0000
1000
0001
0000
0000
1000
0000
0100
0000
0001
0000
,  // measure 10
0100
0000
1000
0010
1000
0000
0001
0100
0000
0000
0001
0000
0001
0000
0100
0000
,  // measure 11
0100
0000
0010
0000
1000
0000
0001
0100
0000
0000
0101
0000
0000
0000
0110
0000
,  // measure 12
1000
0000
0100
0000
0010
0000
0000
0110
0000
0000
0011
0000
0000
1001
0000
0000
,  // measure 13
0201
0001
0310
0010
,  // measure 14
1000
0000
0001
0000
0101
0000
0000
0110
0000
0000
1010
0000
0000
0110
0000
0000
,  // measure 15
2010
0010
3001
1000
,  // measure 16
0100
0000
0010
0000
0011
0000
0000
0110
0000
0000
1001
0000
0000
1100
0000
0000
,  // measure 17
1002
0100
1003
1000
,  // measure 18
0001
0000
0100
0000
0010
0000
0000
1010
0000
0000
1100
0000
0000
0000
0100
0000
,  // measure 19
0100
0010
0002
0000
1003
0001
1000
0001
,  // measure 20
0010
0000
0100
0000
0010
0000
0000
0000
0100
0000
0000
0000
0110
0000
0000
0011
,  // measure 21
0000
0110
2100
0000
3000
1000
1000
0100
,  // measure 22
0010
0000
0001
0000
0100
0000
0000
0000
0101
0000
0000
0000
1010
0000
0000
0110
,  // measure 23
0000
0101
2001
0000
3000
0001
0100
1000
,  // measure 24
0100
0000
0001
0000
1000
0000
0000
0000
1010
0000
0000
0000
0101
0000
0000
0011
,  // measure 25
0000
1001
2010
0000
3000
1000
0001
1000
,  // measure 26
0100
0010
0002
0000
1003
1000
0000
0001
,  // measure 27
0100
2000
0000
0000
3000
0100
0100
0001
,  // measure 28
0010
0000
0100
0000
1000
0000
0010
0000
1000
0000
0100
0000
0010
0000
0001
1000
,  // measure 29
0001
0100
0001
0100
0010
1000
1000
0100
,  // measure 30
0001
0000
0100
0000
1000
0000
0010
0000
0100
0000
0001
0000
1000
0000
0010
1000
,  // measure 31
0010
0100
0001
1000
0010
1000
1000
0010
,  // measure 32
0010
0000
0100
0000
0001
0000
1000
0000
0001
0000
0100
0000
0001
0000
1000
0001
,  // measure 33
1000
0001
0100
0010
1000
0100
0100
0010
,  // measure 34
0001
1000
0001
0100
0001
1000
0100
0010
,  // measure 35
0001
1000
0002
0000
1000
0000
0103
0000
,  // measure 36
0001
0000
0110
1010
1001
0202
0000
0000
,  // measure 37
0000
0000
0303
0000
1001
0000
0000
0000
0001
0000
0100
0010
0000
0000
0010
0000
,  // measure 38
1000
0100
1000
0000
0001
0000
0100
0000
0010
0000
1000
0010
0000
0000
0000
0000
,  // measure 39
1100
0000
0000
0000
1001
0000
0000
0000
0001
0000
0100
0010
0000
0000
0010
0000
,  // measure 40
0100
0010
1000
0000
0001
0000
1000
0000
0002
0000
0103
0001
0000
0000
0001
0000
,  // measure 41
0100
0010
1000
0000
0200
0000
0000
0000
1300
0100
0010
0000
0002
0000
0000
0000
,  // measure 42
0103
0001
0010
0000
0200
0000
0000
0000
0310
0001
1000
0000
0002
0000
0000
0000
,  // measure 43
0003
0000
0000
0000
0101
0000
0001
0000
0100
0000
0000
0110
0000
0000
1010
0000
,  // measure 44
0000
1100
0000
0000
1020
0000
0000
0000
0100
0000
0000
0000
1030
0000
0000
0000
,  // measure 45
0100
0000
0000
0000
0100
0000
0100
0000
0001
0000
0000
0011
0000
0000
1001
0000
,  // measure 46
0000
1010
0000
0000
0210
0000
0000
0000
0001
0000
0000
0000
0310
0000
0000
0000
,  // measure 47
0101
0000
0000
0000
0001
0000
0100
0000
0010
0000
0000
1010
0000
0000
1100
0000
,  // measure 48
0000
1001
0000
0000
0012
0000
0000
0000
0010
0000
0000
0000
1003
0000
0000
0000
,  // measure 49
1000
0000
0010
0000
0100
0000
0100
0000
0001
0000
0000
0011
0000
0000
2001
0000
,  // measure 50
0000
3001
0100
0010
0010
1000
0100
0010
,  // measure 51
0001
1000
0001
1000
0001
0010
1000
0010
,  // measure 52
0001
0000
1000
0010
0100
0000
0001
0000
0001
0000
1000
0000
0100
0000
0010
0000
,  // measure 53
0010
0100
1000
0010
0001
0010
1000
0100
,  // measure 54
1000
0000
0001
0010
0100
0000
0100
0000
0010
0000
0001
0000
0010
0000
0100
0000
,  // measure 55
1000
0010
0100
0001
1000
0100
0001
0100
,  // measure 56
1000
0000
0010
0100
0001
0000
1000
0000
0010
0000
0100
0000
0001
0000
1000
0000
,  // measure 57
0001
0000
0100
0000
0010
0000
0100
0000
0001
0000
1000
0100
1000
0000
0010
0000
,  // measure 58
0100
0001
0001
0100
0010
0000
1001
0000
,  // measure 59
1000
0100
0001
0100
1000
0010
0100
0010
,  // measure 60
1000
0000
0001
0100
0010
0000
1000
0000
0100
0000
0010
0000
0001
0000
0100
0000
,  // measure 61
0100
0000
0001
0000
0001
0000
1000
0000
0010
0000
0100
0001
1000
0000
1000
0000
,  // measure 62
0100
0010
0100
1000
0001
0100
0101
0001
,  // measure 63
0100
0000
0010
0000
1000
0000
0100
0000
1000
0000
0010
0100
0001
0000
1000
0000
,  // measure 64
0100
0010
0001
1000
0001
0100
0101
0001
,  // measure 65
0100
0000
0010
0000
1000
0000
0010
0000
0100
0000
0001
1000
0001
0000
1000
0000
,  // measure 66
0001
0100
0010
1000
0100
0010
0001
1000
,  // measure 67
0001
0000
0010
0000
0011
0000
0000
0000
0001
0000
0000
0001
0000
0000
1000
0000
,  // measure 68
0000
1000
0000
0000
0001
0000
0000
0001
0000
0000
2002
0000
0000
0000
0000
0000
,  // measure 69
0000
0000
0000
3003
0000
0000
0000
0000
;

//---------------dance-single - ----------------
#NOTES:
     dance-single:
     :
     Medium:
     8:
     0.352954,0.359420,0.220089,0.014199,0.060347,315.000000,31.000000,2.000000,0.000000,0.000000,0.000000,0.352954,0.359420,0.220089,0.014199,0.060347,315.000000,31.000000,2.000000,0.000000,0.000000,0.000000:
0000
0000
0000
0000
,
0000
0000
0000
0000
,
0000
0000
0000
0000
,
0000
0000
0000
0000
,
1000
0000
1000
0000
0001
0100
0001
1000
,
0100
0000
0100
0000
0100
1000
0100
1000
,
0010
0000
0010
0000
0010
0100
0001
1000
,
0100
0010
0001
0100
,
0110
0000
0010
1000
0100
0000
1100
0000
,
1000
0001
0101
1010
,
0010
0000
0110
0000
0100
0001
1000
0000
,
0100
0000
1000
0000
1000
0100
0010
0000
,
0001
0000
0001
0000
0001
0100
0001
0100
,
0010
1000
0100
0000
0100
0000
1000
0000
,
1000
0010
0010
0100
,
0100
0001
1000
0100
1000
0010
0100
0001
,
1000
1000
0100
0100
,
0001
0001
0100
0010
,
1000
0010
0100
0010
1000
0000
0001
0000
,
0100
0010
1000
1001
,
1000
0000
0000
0000
0100
0000
0000
0000
0010
0000
0000
0001
0000
0000
1000
0000
,
0001
0000
0100
0010
,
0100
0000
0000
0000
0100
0000
0000
0000
0001
0000
0000
1000
0000
0000
0100
0000
,
1000
0000
1000
0100
,
0010
0000
0000
0000
0001
0000
0000
0000
0100
0000
0000
0001
0000
0000
1000
0000
,
0100
0000
1000
0010
,
0010
0100
0100
0001
,
1000
0100
0010
0001
,
1001
1000
0001
0100
0010
0000
1010
0000
,
0010
1000
0100
1000
0001
0001
0100
0000
,
0101
0000
1010
0000
0010
1000
0100
0000
,
1000
0001
1000
0001
0100
0100
0010
0000
,
0010
0000
1010
0000
0010
1000
0001
1000
,
0100
0000
0100
0000
0100
1000
0010
0100
,
0001
0000
0001
0000
0001
0100
0010
1000
,
0001
1000
0001
1000
,
1010
1001
1100
0220
0000
0000
0000
0000
,
0330
1000
0001
0100
,
0001
0100
0010
0000
1000
0000
0001
0000
,
1000
0000
0100
0000
0001
0100
1000
0000
,
1000
0010
0001
0000
0011
0000
1010
0000
,
1000
0100
1100
0000
0010
0001
0011
0000
,
0001
1000
1001
0000
0100
0010
0110
0000
,
0000
0000
0000
0000
0000
0000
0000
0000
1000
0000
0000
1000
0000
0000
0001
0000
,
0000
0001
0000
0000
1001
0000
0000
0000
0001
0000
0000
0000
0100
0000
0000
0000
,
0010
0000
0000
0000
1000
0000
0100
0000
0010
0000
0000
0010
0000
0000
0100
0000
,
0000
0100
0000
0000
0010
0000
0000
0000
0001
0000
0000
0000
1000
0000
0000
0000
,
0001
0000
0000
0000
0100
0000
0010
0000
0100
0000
0000
0001
0000
0000
1000
0000
,
0000
0100
0000
0000
1000
0000
0000
0000
0010
0000
0000
0000
1000
0000
0000
0000
,
0100
0000
0000
0000
0010
0000
0001
0000
1000
0000
0000
0001
0000
0000
1000
0000
,
0000
0000
1000
0001
1000
0000
0000
0000
,
0001
0100
0010
0010
,
1000
0000
0000
1000
0000
0000
0001
0000
1000
0000
0000
0000
1100
0000
0000
0000
,
1000
0000
0100
0000
0010
0000
0000
0000
0001
0000
0000
0001
0000
0000
0000
0000
,
1000
0000
0000
0100
0000
0000
1000
0000
0010
0000
0000
0000
0110
0000
0000
0000
,
0100
0001
0010
0000
0100
0000
0100
0000
,
0010
0000
0000
0010
0000
0000
0001
0000
1000
0000
0000
0000
0101
0000
0000
0000
,
0001
0100
0010
1000
0001
0000
0001
1000
,
0000
1000
0001
1000
0000
0000
1010
0000
,
0010
1000
0100
0000
0010
0000
0010
0000
,
0001
0000
0000
1000
0000
0000
0001
0000
0100
0000
0000
0000
0101
0000
0000
0000
,
0001
0100
0010
1000
0001
0000
1000
0000
,
0100
0000
0000
0100
0000
0000
0100
0000
1000
0000
0000
0000
1010
0000
0000
0000
,
1000
0001
0100
0010
,
1000
0000
0000
0100
0000
0000
1000
0000
0010
0000
0000
0000
0110
0000
0000
0000
,
0100
0001
0100
0010
0100
0000
0100
0001
,
0000
0001
1000
0010
0000
0000
1100
0000
,
0010
0010
1001
0000
;

//---------------dance-single - ----------------
#NOTES:
     dance-single:
     :
     Easy:
     5:
     0.260659,0.263575,0.070997,0.134893,0.000000,228.000000,10.000000,19.000000,0.000000,0.000000,0.000000,0.260659,0.263575,0.070997,0.134893,0.000000,228.000000,10.000000,19.000000,0.000000,0.000000,0.000000:
0000
0000
0000
0000
,
0000
0000
0000
0000
,
0000
0000
0000
0000
,
0000
0000
0000
0000
,
0000
1000
0000
1000
,
0000
0001
0000
0001
,
0000
0100
0000
0100
,
0000
0010
0000
0010
,
0000
1000
1000
1000
,
0000
0001
0001
0001
,
0100
0001
0001
0001
,
1000
0000
0000
0100
,
0010
0000
0001
0000
0001
0000
1000
0001
,
1000
1000
0100
0010
,
1001
0000
0001
0000
0100
0000
0001
0100
,
0001
0100
0100
0010
,
0010
1000
0100
1000
,
0001
0100
0010
0010
,
1000
0001
1000
0100
,
0010
1001
0001
0100
,
0010
2000
0000
3002
,
0000
0203
0000
0320
,
0000
2030
0000
3200
,
0000
0302
0000
0203
,
0000
2300
0000
3020
,
0000
0230
0000
0302
,
0000
2003
0000
3020
,
0000
0230
0000
0302
,
0000
0000
1003
0000
1000
0000
0001
0100
,
0001
0100
0010
1000
,
0001
0000
1000
0000
0100
0000
1000
0100
,
1000
1000
0010
0010
,
0001
0010
1000
0100
,
0010
0001
1000
0000
1001
0000
0001
0000
,
0100
0010
1000
0001
,
1000
0100
0010
0001
,
1001
0000
1000
1000
1000
2002
0000
0000
,
0000
3003
0001
0100
,
0001
0001
1000
0100
,
1000
1000
0010
0001
,
0010
1000
0200
0310
,
0001
0100
0001
0101
,
1000
1100
0010
0110
,
0000
0000
1000
0100
,
0001
0100
0100
0010
,
0001
1000
0001
0001
,
0100
0010
1000
1000
,
0100
0001
0100
0100
,
1000
0010
0100
0100
,
0001
1000
0001
0100
,
0010
1000
1001
0000
,
1000
0100
1000
1000
,
0001
0001
1000
1000
,
0001
0001
0100
0100
,
0010
0010
0100
0100
,
0010
0010
0100
0100
,
0001
0001
0100
0100
,
0010
0010
1000
1000
,
0001
1000
0100
0010
,
0001
0001
0100
0100
,
1000
1000
0100
0100
,
0001
0010
0100
0100
,
1000
1000
0010
0010
,
0100
0001
1000
1000
,
0100
0100
0010
0010
,
0001
0010
0100
0100
,
0010
0010
0001
1000
,
0001
0100
0110
0000
;
