#TITLE:The Ketchup Song (Aserejé);
#SUBTITLE:;
#ARTIST:Las Ketchup;
#TITLETRANSLIT:;
#SUBTITLETRANSLIT:;
#ARTISTTRANSLIT:;
#GENRE:;
#CREDIT:;
#BANNER:The Ketchup Song (Asereje)-banner.png;
#BACKGROUND:The Ketchup Song (Asereje)-bg.png;
#LYRICSPATH:;
#CDTITLE:;
#MUSIC:01 - The Ketchup Song (Aserejé) (Spanish Version).mp3;
#OFFSET:-0.238626;
#SAMPLESTART:36.659950;
#SAMPLELENGTH:15.000000;
#SELECTABLE:YES;
#DISPLAYBPM:92.500000;
#BPMS:0.000000=92.500000
;
#STOPS:
;
#BGCHANGES:0.000=The Ketchup Song (Asereje).mp4=1.000=0=0=1=====,
258.000=Heartbreak (Make Me A Dancer)-bg.png=1.000=0=0=1=====,
99999=-nosongbg-=1.000=0=0=0 // don't automatically add -songbackground-
;
#KEYSOUNDS:;
#ATTACKS:;

//---------------dance-single - ----------------
#NOTES:
     dance-single:
     :
     Hard:
     13:
     0.467377,0.481049,0.286690,0.219234,0.666133,388.000000,354.000000,34.000000,26.000000,0.000000,0.000000,0.467377,0.481049,0.286690,0.219234,0.666133,388.000000,354.000000,34.000000,26.000000,0.000000,0.000000:
// measure 0
0000
0000
0000
0000
,  // measure 1
0000
0000
0000
0000
,  // measure 2
0000
0000
0000
0000
,  // measure 3
0000
0000
0000
0000
,  // measure 4
0000
0000
1000
1000
0010
0010
0001
0001
,  // measure 5
1000
0000
1000
0000
0100
0000
0100
0000
0001
0000
0001
0000
0100
0000
0000
0100
,  // measure 6
0000
0001
1000
0001
1000
0000
1000
0000
0100
0000
0100
0000
0001
0000
0001
0000
,  // measure 7
1000
0000
1000
0000
0010
0000
0010
0000
0001
0000
0001
0000
1000
0000
0000
1000
,  // measure 8
0000
0001
0100
0001
0100
0000
0010
0100
0010
0000
1000
0000
0002
0000
1003
0100
,  // measure 9
0010
0000
0001
0000
0020
0000
0031
0010
0001
0000
0100
0000
0110
0000
2002
0000
,  // measure 10
3003
0000
0100
0000
2000
0000
3010
0100
0010
0000
1000
0000
0002
0000
1003
0010
,  // measure 11
0100
0000
0010
0000
0200
0000
0301
1000
0001
0000
1000
0000
1100
0000
2002
0000
,  // measure 12
3003
0101
1100
2020
3030
1100
1010
0202
,  // measure 13
0303
0011
0110
2002
0000
0000
0000
0000
,  // measure 14
3003
0000
0001
0100
0101
0000
0000
0000
1010
0000
0000
0100
0101
0000
0000
0001
,  // measure 15
0100
0001
0100
0010
1000
0010
1000
0001
0000
0100
0000
0010
0000
1000
0000
0010
,  // measure 16
0100
0001
1000
0010
1000
0001
1000
0001
0010
0100
0010
0100
0000
0000
0000
0000
,  // measure 17
0000
1000
0100
1000
1010
0000
0000
0000
0011
0000
0000
1000
1010
0000
0000
1000
,  // measure 18
0100
1000
0100
0010
0001
0010
0001
1000
0000
0001
0000
0100
0000
0010
0000
1000
,  // measure 19
0100
0010
0001
1000
0010
0100
0010
0100
0001
1000
0001
1000
0000
0000
0000
0000
,  // measure 20
0000
1000
0100
0010
0011
0000
0000
0000
1100
0000
0000
0010
0011
0000
0000
1000
,  // measure 21
0010
1000
0010
0100
0001
0100
0001
1000
0000
0010
0000
0100
0000
0001
0000
0100
,  // measure 22
0010
1000
0100
0010
0001
1000
0001
1000
0100
0010
0100
0010
0000
0000
0001
0000
,  // measure 23
0000
0000
0010
0000
0000
0000
0100
0000
0000
1000
0010
0010
1000
0000
0010
0010
,  // measure 24
0001
0000
0010
0010
1000
0100
0000
0100
0000
1000
0001
0001
0100
0000
0010
1000
,  // measure 25
0001
0100
0000
0202
0000
0303
0000
0000
0000
1000
0100
0100
0001
0000
0100
0100
,  // measure 26
1000
0000
0100
0100
0001
0100
0000
1000
0000
0001
0010
0100
2000
0000
3020
0000
,  // measure 27
0032
0000
0100
0103
0000
0000
0000
0000
0000
0001
1000
1000
0100
0000
1000
1000
,  // measure 28
0010
0000
1000
1000
0100
0010
0000
0010
0000
0010
0001
0001
0100
0000
0001
0100
,  // measure 29
1000
0100
0000
2002
0000
0000
3003
0000
0000
0010
0001
0001
0010
0000
0001
0001
,  // measure 30
0100
0000
0001
0001
1000
0100
0000
0100
0000
1000
0100
0010
0002
0000
0203
0000
,  // measure 31
2300
0000
3010
0200
0000
0000
0000
0000
0300
0000
0010
0100
0110
0000
0000
0000
,  // measure 32
1001
0000
0000
0010
0110
0000
0000
0001
1000
0001
0100
0001
1000
0100
0010
0100
,  // measure 33
0000
1000
0000
0010
0000
0100
0000
0001
0010
0001
0010
0100
1000
0010
0001
0010
,  // measure 34
1000
0010
0001
0010
0000
0000
0000
0000
0000
1000
0100
0010
0011
0000
0000
0000
,  // measure 35
1100
0000
0000
0001
0011
0000
0000
0100
1000
0010
0100
0010
1000
0001
0100
0001
,  // measure 36
0000
1000
0000
0010
0000
0100
0000
0001
0010
0100
1000
0001
1000
0100
0001
0100
,  // measure 37
1000
0100
0001
0100
0000
0000
0000
0000
0000
1000
0100
1000
1001
0000
0000
0000
,  // measure 38
0110
0000
0000
1000
1001
0000
0000
0001
0010
0100
0010
0001
0100
0010
1000
0001
,  // measure 39
0000
1000
0000
0100
0000
0010
0000
0001
0100
0010
1000
0010
1000
0100
0001
0100
,  // measure 40
1000
0100
0001
0100
0000
0000
0000
0000
0000
0000
0000
0000
1001
0000
0000
0000
;

//---------------dance-single - ----------------
#NOTES:
     dance-single:
     :
     Beginner:
     3:
     0.121663,0.137443,0.033728,0.101185,0.000000,101.000000,97.000000,4.000000,12.000000,0.000000,0.000000,0.121663,0.137443,0.033728,0.101185,0.000000,101.000000,97.000000,4.000000,12.000000,0.000000,0.000000:
0000
0000
0000
0000
,
0000
0000
0000
0000
,
0000
0000
0000
0000
,
0000
0000
0000
0000
,
0000
1000
1000
1000
,
1000
0001
0001
0002
,
0003
0100
0100
0100
,
0100
0010
0010
0020
,
0030
0200
0300
0010
,
0000
0010
0000
2002
,
3003
2000
3000
0001
,
0000
0001
0000
0220
,
0330
0100
0000
0100
,
0000
0100
0000
0000
,
0000
0001
0001
0001
,
0000
1000
1000
1000
,
0000
0010
0010
0010
,
0000
0100
0100
0100
,
0000
0001
0001
0001
,
0000
1000
1000
1000
,
0000
0100
0100
0100
,
0000
0010
0010
0010
,
0000
0001
0001
0001
,
0000
0100
0000
0100
,
0000
0100
0000
0010
,
0000
0020
0030
0001
,
0000
0001
0000
1000
,
0000
1000
0000
0100
,
0000
0100
0000
0010
,
0000
0020
0030
0001
,
0000
0001
0000
0100
,
0000
0220
0330
0100
,
0100
0100
0000
0010
,
0010
0010
0000
1000
,
1000
1000
0000
0001
,
0001
0001
0000
0010
,
0010
0010
0000
0100
,
0100
0100
0000
1000
,
1000
1000
0000
0010
,
0010
0010
0000
0100
,
0100
0100
0000
1001
;

//---------------dance-single - ----------------
#NOTES:
     dance-single:
     :
     Easy:
     6:
     0.192733,0.206164,0.067456,0.042160,0.000000,160.000000,152.000000,8.000000,5.000000,0.000000,0.000000,0.192733,0.206164,0.067456,0.042160,0.000000,160.000000,152.000000,8.000000,5.000000,0.000000,0.000000:
0000
0000
0000
0000
,
0000
0000
0000
0000
,
0000
0000
0000
0000
,
0000
0000
0000
0000
,
0000
1000
0100
0010
,
0001
0100
0010
2000
,
3100
1000
0001
0100
,
0010
1000
0100
0020
,
0130
1000
1000
0000
0001
0000
0001
0000
,
1000
0000
1000
0000
0001
0000
0010
0010
,
0000
0100
0100
0010
,
0010
0000
0100
0000
1000
0000
0001
0001
,
0000
0000
1000
1000
0000
0000
0010
0010
,
0000
0000
0100
0200
0000
0000
0000
0000
,
0300
0010
1000
0100
,
0001
0100
1000
0010
,
0100
0000
0001
0001
0001
0000
0101
0000
,
0000
0100
0100
0010
,
0010
1000
0001
1000
,
0100
0000
0010
0010
0010
0000
0011
0000
,
0000
1000
0001
1000
,
0010
0100
0100
0001
,
0001
0000
1000
1000
1000
0000
1100
0000
,
0000
0000
0000
0000
0000
1000
1000
0000
,
0001
0000
0100
0100
0001
0100
0100
0000
,
0010
1000
0000
0100
,
0010
0000
0001
0001
0100
0001
0001
0000
,
1000
0000
0000
0100
,
0010
0000
0100
0100
0010
0100
0100
0000
,
0010
1001
0000
1000
,
0001
0000
1000
1000
0001
1000
1000
0000
,
0010
0220
0330
0100
,
0001
0000
0100
0000
0010
0000
1000
1000
,
1000
0000
0100
0000
0010
0000
0001
0001
,
0001
0101
0000
0100
,
0100
0000
0010
0000
1000
0000
0100
0100
,
0100
0000
0010
0000
0001
0000
0100
0100
,
0100
0110
0000
1000
,
1000
0000
0001
0000
0001
0000
0010
0010
,
0010
0000
0100
0000
0100
0000
1000
1000
,
1000
0001
0001
1001
;

//---------------dance-single - ----------------
#NOTES:
     dance-single:
     :
     Medium:
     9:
     0.299940,0.377967,0.151777,0.303554,0.029512,249.000000,231.000000,18.000000,36.000000,0.000000,0.000000,0.299940,0.377967,0.151777,0.303554,0.029512,249.000000,231.000000,18.000000,36.000000,0.000000,0.000000:
0000
0000
0000
0000
,
0000
0000
0000
0000
,
0000
0000
0000
0000
,
0000
0000
0000
0000
,
0000
0000
1000
1000
0100
0000
0010
0010
,
0001
0000
0000
0000
0100
0000
0100
0000
0010
0000
1000
0000
0001
0000
0000
0001
,
0000
0000
0100
0100
0010
0000
0010
0010
,
1000
0000
0000
0000
0001
0000
0100
0000
0010
0000
0100
0000
0001
0000
0000
0001
,
0000
0000
0000
0000
2000
0000
0000
3000
0200
0000
0000
0300
0020
0000
0000
0000
,
0032
0000
0000
0003
0100
0000
0010
0000
1000
0000
0100
0010
0001
0000
2002
0000
,
0000
3003
0000
0000
2000
0000
0000
0000
3200
0000
0000
0000
2300
0000
0000
0000
,
3020
0000
0000
0000
0130
0000
0100
0000
0001
0000
1000
0001
1000
0000
2002
0000
,
3003
0000
1000
0100
1000
0000
2200
0000
0000
3300
0001
0100
0001
0000
0202
0000
,
0000
0303
0001
1000
0001
0000
2002
0000
0000
0000
0000
0000
0000
0000
0000
0000
,
3003
0000
1000
1000
0100
0010
0001
0001
,
0100
0010
1000
0100
0010
0001
0100
0010
,
1000
0001
0100
0010
1000
0001
0101
0000
,
0000
0100
0100
0010
1000
1000
0001
0100
,
0001
1000
0010
0100
0001
1000
0100
1000
,
0010
0100
0001
1000
0100
1000
1100
0000
,
0000
0010
0010
0001
0100
0001
0010
0100
,
0010
0001
1000
0100
1000
0010
0100
0010
,
0100
0001
1000
0100
0010
0001
1001
0000
,
0000
0000
0000
0002
,
0203
0000
0320
0000
2030
0000
3100
0100
,
0110
0000
0001
0001
1001
0000
0002
0000
,
0203
0000
0320
0000
2030
0000
3100
0100
,
0110
0000
0010
0010
0011
0000
0002
0000
,
2003
0000
3200
0000
2300
0000
3010
0010
,
0110
0000
0001
0001
0101
0000
0002
0000
,
0023
0000
0230
0000
2300
0000
3010
0100
,
0001
1000
2002
0000
0000
3003
0001
0100
,
1000
0100
0001
0010
0100
0010
0001
0001
,
1000
1000
0010
1000
0100
1000
0001
0100
,
0010
1000
1001
0000
0000
1000
0100
0001
,
0100
1000
0010
0100
0001
0001
1000
0001
,
0100
0010
1000
1000
0100
1000
0001
0100
,
0010
1000
1001
0000
0000
0001
0001
0010
,
0001
0100
0010
0010
1000
0100
1000
0001
,
0100
1000
0100
0001
0010
0010
0001
1000
,
0100
1000
0001
0100
0010
1000
1001
0000
;

//---------------dance-double - ----------------
#NOTES:
     dance-double:
     :
     Hard:
     13:
     0.467377,0.481049,0.286690,0.210801,0.666133,388.000000,354.000000,34.000000,25.000000,0.000000,0.000000,0.467377,0.481049,0.286690,0.210801,0.666133,388.000000,354.000000,34.000000,25.000000,0.000000,0.000000:
00000000
00000000
00000000
00000000
,
00000000
00000000
00000000
00000000
,
00000000
00000000
00000000
00000000
,
00000000
00000000
00000000
00000000
,
00000000
00000000
10000000
10000000
00100000
00100000
00010000
00010000
,
00001000
00000000
00001000
00000000
00000100
00000000
00000100
00000000
00000001
00000000
00000001
00000000
00001000
00000000
00000000
00001000
,
00000000
00001000
00000001
00001000
00000001
00000000
00000001
00000000
00000100
00000000
00000100
00000000
00001000
00000000
00001000
00000000
,
00010000
00000000
00010000
00000000
00100000
00000000
00100000
00000000
10000000
00000000
10000000
00000000
00010000
00000000
00000000
00010000
,
00000000
10000000
01000000
10000000
01000000
00000000
00100000
00010000
00100000
00000000
00001000
00000000
00020000
00000000
00031000
00000100
,
00000010
00000000
00001000
00000000
00000002
00000000
00000013
00000100
00000010
00000000
00001000
00000000
00011000
00000000
00101000
00000000
,
00000000
00000000
00001000
00000000
02000000
00000000
03100000
00010000
00100000
00000000
10000000
00000000
02000000
00000000
03010000
00001000
,
00010000
00000000
00000100
00000000
00020000
00000000
00030100
00001000
00000100
00000000
00000010
00000000
00000011
00000000
00000202
00000000
,
00000303
00001010
00010100
00202000
00303000
00110000
11000000
20200000
,
30300000
01100000
01001000
00022000
00000000
00000000
00000000
00000000
,
00033000
00000000
00001000
00010000
00011000
00000000
00000000
00000000
00010010
00000000
00000000
00010000
00011000
00000000
00000000
00000010
,
00001000
00000010
00001000
00000001
00000100
00000001
00000100
00000010
00000000
00001000
00000000
00000100
00000000
00010000
00000000
00001000
,
01000000
00010000
00100000
01000000
10000000
00010000
10000000
00010000
00100000
01000000
00100000
01000000
00000000
00000000
00000000
00000000
,
00000000
10000000
01000000
10000000
10010000
00000000
00000000
00000000
00101000
00000000
00000000
10000000
10010000
00000000
00000000
00100000
,
00001000
00100000
00001000
00010000
00000100
00010000
00000100
00001000
00000000
00000100
00000000
00000010
00000000
00000001
00000000
00001000
,
00000001
00000100
00000010
00001000
00000100
00010000
00000100
00010000
00001000
00100000
00001000
00100000
00000000
00000000
00000000
00000000
,
00000000
00010000
01000000
00010000
01010000
00000000
00000000
00000000
11000000
00000000
00000000
00010000
01010000
00000000
00000000
00100000
,
01000000
00100000
01000000
00001000
00010000
00001000
00010000
00001000
00000000
00000010
00000000
00000001
00000000
00000010
00000000
00000001
,
00000100
00000010
00001000
00000001
00000010
00000100
00000010
00000100
00010000
00001000
00010000
00001000
00000000
00000000
01000000
00000000
,
00000000
00000000
01000000
00000000
00000000
00000000
01000000
00000000
00000000
00010000
00100000
00100000
00010000
00000000
00100000
00100000
,
10000000
00000000
00100000
00100000
00010000
00001000
00000000
00000001
00000000
00000001
00000010
00000010
00001000
00000000
00000010
00000010
,
00000001
00000100
00000000
00000202
00000000
00000303
00000000
00000000
00000000
00000001
00000100
00000100
00000001
00000000
00000100
00000100
,
00001000
00000000
00000100
00000100
00000001
00001000
00000000
00010000
00000000
10000000
01000000
00100000
00020000
00000000
00230000
00000000
,
20300000
00000000
30100000
00020000
00000000
00030000
00000000
00000000
00000000
10000000
00100000
00100000
01000000
00000000
00100000
00100000
,
10000000
00000000
00100000
00100000
00010000
00001000
00000000
00000010
00000000
00000001
00000010
00000010
00000001
00000000
00000100
00000001
,
00001000
00000001
00000000
00002002
00000000
00000000
00003003
00000000
00000000
00001000
00000100
00000100
00000010
00000000
00000100
00000100
,
00000001
00000000
00000100
00000100
00001000
00000010
00000000
00010000
00000000
00001000
01000000
00100000
00020000
00000000
00230000
00000000
,
20300000
00000000
30100000
02000000
00000000
00000000
00000000
00000000
03000000
00000000
00100000
01000000
01100000
00000000
00000000
00000000
,
10010000
00000000
00000000
00100000
01100000
00000000
00000000
10000000
00010000
00100000
00001000
00100000
00001000
00010000
00001000
00000100
,
00000000
00001000
00000000
00010000
00000000
00100000
00000000
00010000
00001000
00010000
00000100
00000010
00000001
00000100
00001000
00000100
,
00000001
00000100
00001000
00000100
00000000
00000000
00000000
00000000
00000000
00000001
00000100
00000001
00000101
00000000
00000000
00000000
,
00001100
00000000
00000000
00000001
00000101
00000000
00000000
00000001
00000100
00000010
00001000
00000100
00010000
00001000
00010000
00001000
,
00000000
00000100
00000000
00001000
00000000
00010000
00000000
01000000
10000000
00010000
10000000
00100000
10000000
01000000
00010000
01000000
,
10000000
01000000
00010000
01000000
00000000
00000000
00000000
00000000
00000000
10000000
01000000
10000000
10100000
00000000
00000000
00000000
,
01010000
00000000
00000000
10000000
10100000
00000000
00000000
10000000
00100000
01000000
00010000
00100000
00010000
00100000
00001000
00010000
,
00000000
01000000
00000000
00010000
00000000
00001000
00000000
00010000
00001000
00010000
00000100
00000010
00000001
00000010
00001000
00000010
,
00000001
00000010
00001000
00000010
00000000
00000000
00000000
00000000
00000000
00000000
00000000
00000000
00011000
00000000
00000000
00000000
;

//---------------dance-double - ----------------
#NOTES:
     dance-double:
     :
     Medium:
     9:
     0.298736,0.360787,0.143345,0.244530,0.025296,248.000000,230.000000,17.000000,29.000000,0.000000,1.000000,0.298736,0.360787,0.143345,0.244530,0.025296,248.000000,230.000000,17.000000,29.000000,0.000000,1.000000:
00000001
00000000
00000000
00000000
,
00000000
00000000
00000000
00000000
,
00000000
00000000
00000000
00000000
,
00000000
00000000
00000000
00000000
,
00000000
00000000
10000000
10000000
00100000
00000000
00010000
00010000
,
00001000
00000000
00000000
00000000
00000100
00000000
00000100
00000000
00000001
00000000
00001000
00000000
00000001
00000000
00000000
00000001
,
00000000
00000000
00000001
00000001
00000100
00000000
00001000
00001000
,
00010000
00000000
00000000
00000000
01000000
00000000
01000000
00000000
10000000
00000000
00010000
00000000
10000000
00000000
00000000
10000000
,
00000000
00000000
00000000
00000000
20000000
00000000
00000000
30000000
00020000
00000000
00000000
00000000
00032000
00000000
00000000
00000000
,
00003002
00000000
00000000
00000000
00000103
00000000
00000010
00000000
00001000
00000000
00000100
00000010
00000001
00000000
00002002
00000000
,
00003003
00000002
00002003
00023000
,
20030000
00000000
31000000
01000000
10000000
00100000
10000000
10010000
,
00000000
00000000
00001000
00010000
00001000
00000000
00011000
00000000
00000000
00000000
00000001
00001000
00000001
00000000
00001001
00000000
,
00000000
00000000
00001000
00010000
00001000
00000000
00022000
00000000
00000000
00000000
00000000
00000000
00000000
00000000
00000000
00000000
,
00033000
00000000
00010000
00010000
01000000
00100000
00001000
00001000
,
00010000
00001000
00000100
00001000
00010000
00100000
00010000
00001000
,
00000100
00000010
00001000
00000001
00000100
00000010
00000110
00000000
,
00000000
00000001
00000001
00000100
00001000
00001000
00010000
01000000
,
00010000
00001000
00000100
00001000
00010000
01000000
10000000
00100000
,
01000000
00010000
10000000
00010000
01000000
00010000
01010000
00000000
,
00000000
00100000
00100000
00001000
00010000
00001000
00000100
00000010
,
00000100
00000100
00000001
00000010
00000100
00001000
00010000
00100000
,
01000000
10000000
00010000
01000000
00001000
00010000
00011000
00000000
,
00000000
00000000
00000000
20000000
,
30200000
00000000
02300000
00000000
03020000
00000000
00130000
00100000
,
00101000
00000000
00010000
00010000
00010010
00000000
00020000
00000000
,
00030200
00000000
00000320
00000000
00000030
00000000
00000100
00000100
,
00000100
00000000
00000001
00000001
00001001
00000000
00000002
00000000
,
00000023
00000000
00002030
00000000
00023000
00000000
00130000
00100000
,
01100000
00000000
10000000
10000000
10100001
00000000
20000000
00000000
,
32000000
00000000
03200000
00000000
00320000
00000000
00031000
00000100
,
00000010
00000001
00002002
00000000
00000000
00003003
00000001
00000100
,
00001000
00000100
00000010
00010000
00000010
00001000
00000100
00000100
,
00010000
01000000
10000000
00100000
00010000
00001000
00000100
00000010
,
00010000
00010000
00011000
00000000
00000000
00010000
00001000
00000100
,
00001000
00000100
00000001
00000010
00001000
00001000
00010000
00100000
,
00010000
00100000
10000000
10000000
01000000
10000000
00010000
01000000
,
00100000
10000000
10010000
00000000
00000000
10000000
10000000
00100000
,
00010000
00001000
00000100
00000001
00000010
00001000
00010000
00001000
,
00000100
00001000
00010000
00100000
00010000
00001000
00000100
00000010
,
00001000
00000001
00000100
00000010
00001000
00000001
00001001
00000000
;

//---------------dance-double - ----------------
#NOTES:
     dance-double:
     :
     Easy:
     6:
     0.190324,0.206164,0.067456,0.075889,0.000000,158.000000,150.000000,8.000000,9.000000,0.000000,0.000000,0.190324,0.206164,0.067456,0.075889,0.000000,158.000000,150.000000,8.000000,9.000000,0.000000,0.000000:
00000000
00000000
00000000
00000000
,
00000000
00000000
00000000
00000000
,
00000000
00000000
00000000
00000000
,
00000000
00000000
00000000
00000000
,
00000000
10000000
01000000
00100000
,
00010000
00001000
00000100
00000020
,
00000031
00000001
00000100
00000010
,
00001000
00010000
01000000
00200000
,
10300000
10000000
10000000
00000000
00010000
00000000
00010000
00000000
,
00001000
00000000
00001000
00000000
00000002
00000000
00000010
00000013
,
00000000
00000100
00000100
00001000
,
00001000
00000000
00010000
00000000
00010000
00000000
00001000
00001000
,
00000000
00000000
00010000
00010000
00000000
00000000
00000100
00000100
,
00000000
00000000
00000010
00000020
00000000
00000000
00000000
00000000
,
00000030
00010000
00001000
00010000
,
01000000
10000000
00100000
00010000
,
00002000
00000000
00010000
00010000
00013000
00000000
00011000
00000000
,
00000000
00010000
00010000
01000000
,
01000000
10000000
00100000
00010000
,
00002000
00000000
00010000
00010000
00013000
00000000
00011000
00000000
,
00000000
00000100
00000010
00000100
,
00000010
00000100
00000100
00000010
,
00002000
00010000
00013000
00011000
,
00000000
00000000
00000000
00000000
00000000
01000000
01000000
00000000
,
00010000
00000000
01000000
01000000
10000000
01000000
01000000
00000000
,
00100000
10000000
00000000
01000000
,
00100000
00000000
00001000
00001000
00010000
00001000
00001000
00000000
,
00000100
00000000
00000000
00000000
,
00000010
00000000
00000100
00000100
00000010
00000100
00000100
00000000
,
00000010
00001001
00000000
00000001
,
00001000
00000000
00010000
00010000
00001000
00010000
00010000
00000000
,
10000000
20020000
30030000
10000000
,
00010000
00000000
10000000
00000000
01000000
00000000
00010000
00010000
,
00010000
00000000
00001000
00000000
00000100
00000000
00000100
00000100
,
00000100
00001001
00000000
00000001
,
00000001
00000000
00000010
00000000
00001000
00000000
00010000
00010000
,
00010000
00000000
00001000
00000000
00010000
00000000
00001000
00001000
,
00001000
00011000
00000000
01000000
,
01000000
00000000
00100000
00000000
00100000
00000000
00100000
00100000
,
00100000
00000000
01000000
00000000
01000000
00000000
00010000
00010000
,
00010000
00001000
00010000
00011000
;
