#TITLE:Summertime Sadness;
#SUBTITLE:(Cedric Gervais Radio Edit);
#ARTIST:Lana Del Rey;
#TITLETRANSLIT:;
#SUBTITLETRANSLIT:;
#ARTISTTRANSLIT:;
#GENRE:;
#CREDIT:;
#BANNER:;
#BACKGROUND:;
#LYRICSPATH:;
#CDTITLE:;
#MUSIC:2- LANA DEL REY - Summertime Sadness - CEDRIC GERVAIS RADIO EDIT.mp3;
#OFFSET:-0.321301;
#SAMPLESTART:38.362076;
#SAMPLELENGTH:15.000000;
#SELECTABLE:YES;
#BPMS:0.000000=125.999992
;
#STOPS:
;
#BGCHANGES:0.000=Summertime Sadness.avi=1.000=0=0=1=====,
99999=-nosongbg-=1.000=0=0=0 // don't automatically add -songbackground-
;
#KEYSOUNDS:;
#ATTACKS:;

//---------------dance-single - ----------------
#NOTES:
     dance-single:
     :
     Hard:
     10:
     0.434154,0.375150,0.450901,0.216433,0.000000,263.000000,50.000000,24.000000,0.000000,0.000000,0.000000,0.434154,0.375150,0.450901,0.216433,0.000000,263.000000,50.000000,24.000000,0.000000,0.000000,0.000000:
0000
0000
0000
0000
,
0000
0000
0000
0000
,
0000
0000
0000
0000
,
0000
0000
0000
0000
,
2000
0001
0001
0001
,
3002
0100
0100
0100
,
0203
1000
1000
1000
,
2300
0100
0100
0100
,
3200
0010
0010
0010
,
0320
0001
0001
0001
,
0032
0010
0010
0010
,
0023
1000
1000
1030
,
2002
0000
3003
0001
0100
0000
0000
0100
,
0010
1000
0100
0001
0100
1000
0010
0100
,
0202
0000
0303
0100
0010
0000
0000
1000
,
0001
0010
1000
0010
0001
0000
0001
0100
,
0220
0000
0330
0010
1000
0000
0000
1000
,
0100
0100
0010
0001
0100
0000
0001
0100
,
0020
0000
2030
0000
3200
0000
0310
0002
,
0000
1003
1000
0001
,
0101
0011
0101
0011
,
1001
1010
1100
1010
,
1100
0110
1001
0110
,
1001
0101
1010
1001
,
0011
1100
0011
1100
,
1010
0101
1010
0101
,
0110
0011
0110
1100
,
1010
1100
0101
0011
,
0001
0010
0001
0001
1000
0100
0001
0000
,
0001
0100
1000
0000
1100
0000
2001
0000
,
3001
0000
0100
0100
0010
1000
0010
0000
,
1000
0100
0010
0000
0011
0000
2100
0000
,
3100
0000
1000
0100
1000
0010
0001
0000
,
0001
0010
1000
0000
1010
0000
1002
0000
,
1003
0100
0001
0100
1000
0010
0001
0010
,
1000
0000
0000
1001
,
0001
0100
0001
1000
0001
0010
0001
0100
,
0010
1000
0010
0100
0010
1000
1010
0000
,
1000
0100
1000
0010
1000
0001
1000
0010
,
0100
0001
0100
0010
0100
0001
1001
0000
,
0001
0010
0100
1000
0001
0010
0100
1000
,
0010
0100
0001
1000
0010
0100
0101
0000
,
0100
0001
1000
0100
1000
0010
0100
0001
,
1000
0000
0000
1001
,
0001
0100
1000
0100
0001
0100
1000
0100
,
0010
1000
0010
0001
0010
1000
1010
0000
,
1000
0010
0001
0010
1000
0010
0001
0010
,
0100
1000
0100
0001
0100
0010
0110
0000
,
1000
0100
0001
0100
1000
0010
0001
0010
,
1000
0100
0001
0100
0010
0001
0101
0000
,
0001
0100
1000
0100
0001
0010
1000
0010
,
0002
0203
0320
1030
,
1001
0000
0000
0000
;

//---------------dance-single - ----------------
#NOTES:
     dance-single:
     :
     Medium:
     7:
     0.270541,0.304809,0.099198,0.036072,0.000000,195.000000,11.000000,4.000000,0.000000,0.000000,0.000000,0.270541,0.304809,0.099198,0.036072,0.000000,195.000000,11.000000,4.000000,0.000000,0.000000,0.000000:
0000
0000
0000
0000
,
0000
0000
0000
0000
,
0000
0000
0000
0000
,
0000
0000
0000
0000
,
1000
0000
0100
0000
0010
0000
0001
0200
,
0000
0000
0300
0000
0001
0010
0001
0010
,
0100
0000
0100
1000
0010
0100
0000
0002
,
0000
0003
0000
0000
1000
0010
1000
0010
,
0100
0000
0001
0000
0100
0010
1000
0002
,
0000
0003
0000
0000
1000
0001
0000
0100
,
0000
0000
0000
0000
0010
1000
0000
0001
,
0000
0000
0000
0000
,
1000
0000
0000
0001
0001
0000
0000
0000
,
0100
0010
1000
0100
,
0010
0000
0000
0001
0001
0000
0000
0000
,
0010
0100
1100
0000
,
1000
0000
0000
0010
0010
0000
0000
0000
,
0100
0001
1001
0000
,
0001
0100
0010
1000
,
0002
0000
0000
0000
,
1003
1000
1000
1000
,
1000
1000
1000
1000
,
0001
0001
0001
0001
,
0001
0001
0001
0001
,
0100
0100
0100
0100
,
0100
0100
0100
0100
,
0010
0010
0010
0010
,
0010
0010
0010
0010
,
1000
0100
0010
0001
,
0100
0010
0100
0000
0010
0000
1000
0000
,
0001
0000
1000
0000
0100
1000
0100
0000
,
1000
0010
0100
0001
,
0001
0000
0100
0000
0010
1000
0100
0000
,
0010
0001
0100
0001
,
0100
0000
0010
1000
,
1001
0000
0000
0000
,
0001
1000
0100
0000
1000
0000
1100
0000
,
1000
0100
0010
0000
0001
0000
0101
0000
,
0001
0100
0010
0000
1000
0000
1010
0000
,
0010
1000
0100
0000
0010
0000
1001
0000
,
0001
0100
0001
0000
0100
0000
0010
0000
,
0110
0010
1000
0100
,
0010
0001
0100
0010
,
1000
0000
0000
0000
,
1000
0000
0001
0100
0010
1000
0001
0000
,
1000
0000
1000
0100
1000
0100
1000
0000
,
1000
0000
0010
0100
0001
0100
0010
0000
,
1000
0100
0010
0000
1001
0000
1001
0000
,
0000
0000
0001
0100
0010
1000
0001
0000
,
0000
0000
1000
0100
1000
0100
1000
0000
,
0010
0000
0100
0000
0001
0100
0001
0000
,
0100
0010
1000
0001
,
1001
0000
0000
0000
;

//---------------dance-single - ----------------
#NOTES:
     dance-single:
     :
     Easy:
     4:
     0.197108,0.211022,0.099198,0.063126,0.000000,135.000000,11.000000,7.000000,0.000000,0.000000,1.000000,0.197108,0.211022,0.099198,0.063126,0.000000,135.000000,11.000000,7.000000,0.000000,0.000000,1.000000:
// measure 0
0000
0000
0000
0000
,  // measure 1
0000
0000
0000
0000
,  // measure 2
0000
0000
0000
0000
,  // measure 3
0000
0000
0000
0000
,  // measure 4
4000
0000
0000
0000
,  // measure 5
3020
0000
0000
0000
,  // measure 6
0230
0000
0000
0000
,  // measure 7
0302
0000
0000
0000
,  // measure 8
2003
0000
0000
0000
,  // measure 9
3200
0000
0000
0000
,  // measure 10
0320
0000
0000
0000
,  // measure 11
0032
0000
0000
0000
,  // measure 12
1003
0000
1000
0000
,  // measure 13
0010
0010
0010
0000
,  // measure 14
0100
0000
0100
0000
,  // measure 15
0001
0001
0001
0000
,  // measure 16
0010
0000
0010
0000
,  // measure 17
0100
0100
0100
0000
,  // measure 18
1000
0000
0100
0000
,  // measure 19
0010
0000
0001
0000
,  // measure 20
1000
1000
1000
0000
,  // measure 21
0010
0010
0010
0000
,  // measure 22
0100
0100
0100
0000
,  // measure 23
0001
0001
0001
0000
,  // measure 24
1000
0100
1000
0000
,  // measure 25
0010
0100
0010
0000
,  // measure 26
0100
0001
0100
0000
,  // measure 27
0001
0001
0001
0000
,  // measure 28
1000
1000
1000
1000
,  // measure 29
0001
0001
0001
1001
,  // measure 30
0000
0100
0100
0100
,  // measure 31
0100
0010
0010
0010
,  // measure 32
0000
0100
0001
0100
,  // measure 33
0001
1000
0100
1000
,  // measure 34
0010
0010
0100
0100
,  // measure 35
1001
0000
0000
0000
,  // measure 36
0001
0001
0010
0010
,  // measure 37
0100
0100
1000
1000
,  // measure 38
0100
0100
1000
1000
,  // measure 39
0010
0010
0100
0100
,  // measure 40
0001
0001
0100
0100
,  // measure 41
1000
1000
0100
0100
,  // measure 42
0001
0001
0010
0010
,  // measure 43
0100
0000
0000
0000
,  // measure 44
0100
1000
0100
1100
,  // measure 45
0000
0010
0001
0011
,  // measure 46
0000
0001
0100
0010
,  // measure 47
1000
0001
1001
1001
,  // measure 48
0000
1000
0100
1100
,  // measure 49
0000
0010
0001
0011
,  // measure 50
0000
0001
0100
0010
,  // measure 51
1000
0001
1001
0110
,  // measure 52
0110
0000
0000
0000
;
