#TITLE:Radioactive;
#SUBTITLE:;
#ARTIST:Rita Ora;
#TITLETRANSLIT:;
#SUBTITLETRANSLIT:;
#ARTISTTRANSLIT:;
#GENRE:;
#CREDIT:;
#BANNER:;
#BACKGROUND:;
#LYRICSPATH:;
#CDTITLE:;
#MUSIC:05 Radioactive.mp3;
#OFFSET:-0.220897;
#SAMPLESTART:69.565536;
#SAMPLELENGTH:12.000000;
#SELECTABLE:YES;
#BPMS:0.000000=124.999992
;
#STOPS:
;
#BGCHANGES:0.000=Radioactive.avi=1.000=0=0=1=====,
99999=-nosongbg-=1.000=0=0=0 // don't automatically add -songbackground-
;
#KEYSOUNDS:;
#ATTACKS:;

//---------------dance-single - ----------------
#NOTES:
     dance-single:
     :
     Hard:
     11:
     0.457379,0.427600,0.423629,0.089614,0.138494,330.000000,52.000000,11.000000,0.000000,0.000000,0.000000,0.457379,0.427600,0.423629,0.089614,0.138494,330.000000,52.000000,11.000000,0.000000,0.000000,0.000000:
0000
0000
0000
0000
,
0000
0000
0000
0000
,
0000
0000
0000
0000
,
0000
0000
0000
0000
,
0000
0000
0000
0000
,
0000
0000
0000
0000
,
0000
0000
0000
0000
,
0000
0000
0000
0000
,
1001
0000
0000
0000
0001
0000
0100
0010
1000
0001
0000
1000
0000
0000
0000
0000
,
2000
0000
0000
0000
0000
0000
0000
0000
3001
0100
0001
0100
0000
0000
0000
0000
,
0001
0000
0000
0000
0010
0000
0100
1000
0001
0010
0000
0001
0000
0000
0000
0000
,
0200
0000
0000
0000
0000
0000
0000
0000
0301
1000
0001
1000
0000
0000
0000
0000
,
1010
0000
0010
0100
0001
0010
0001
2000
,
0000
3100
1000
0010
0001
0020
0000
0000
,
0130
0000
0001
1000
0001
0010
1000
0010
,
0001
0001
0100
0010
1000
0000
2100
0000
,
3001
1000
0001
0100
0010
0000
0110
0000
,
0010
1000
0001
1000
0100
0000
1100
0000
,
1000
0000
0000
0000
0100
0000
0010
0000
0000
0010
0000
0000
0010
0000
0000
0010
,
0000
0000
0001
0000
0000
0001
0000
0000
0001
1000
0001
1000
0000
0000
0001
0100
,
0001
0000
1001
0001
1000
0010
0010
0200
,
0000
0310
0100
0001
1000
0000
1020
0000
,
1030
0000
0001
1000
0001
0001
0100
1000
,
0100
0001
0010
0100
1000
0001
2000
0000
,
3010
0000
0100
0001
0001
1000
0100
0000
,
1000
0100
1000
0010
0100
0000
0110
0000
,
0100
0001
0100
0001
0100
0000
0000
0000
0101
0000
0000
0000
1010
0000
0000
0000
,
0110
1001
0011
1100
,
1001
0000
0000
0000
0100
0000
0100
0000
0000
0001
0000
0000
0011
0000
0000
1010
,
0000
0000
0110
0000
0000
0101
0000
0000
1001
0000
0000
0000
0001
0000
0000
0000
,
0100
0000
0000
0000
0010
0000
1000
0000
0000
0001
0000
0000
1001
0000
0000
0110
,
0000
0000
0101
0000
0000
1100
0000
0000
1001
0000
0000
1010
0000
0000
0000
0000
,
0100
0000
0000
0000
1000
0000
0100
0000
0000
1000
0000
0000
0011
0000
0000
1010
,
0000
0000
0110
0000
0000
0101
0000
0000
1001
0000
0000
0000
0001
0000
0000
0000
,
1000
0000
0000
0000
0001
0000
0010
0000
0000
0100
0000
0000
1100
0000
0000
0011
,
0000
0000
1001
0000
0000
0101
0000
0000
1010
0000
0000
1001
0000
0000
0000
0000
,
1000
0100
0010
0001
1000
0001
0100
0001
,
0010
1000
0010
0001
0100
0010
0110
0000
,
0010
1000
0001
0100
0001
0010
1000
0010
,
0001
1000
0001
0100
0001
0010
0011
0000
,
1000
0001
1000
0010
0001
0010
1000
0100
,
0001
0100
1000
0010
0010
0100
0002
0000
,
0103
0001
0010
0100
0010
0001
0100
0010
,
1000
0000
0100
0000
1000
0000
1000
0000
0001
0000
0100
0000
0001
0000
0010
0100
,
0010
0100
1000
0001
0100
0010
1000
0100
,
0001
0100
1000
0010
0100
0001
0101
0000
,
0100
0010
1000
1000
0001
0010
1000
0010
,
0010
0001
0100
0010
1000
0001
1001
0000
,
1000
0010
0010
1000
0100
0001
0100
1000
,
0010
0100
0001
1000
1000
0001
2000
0000
,
3001
0010
0001
0100
0010
1000
0100
1000
,
1000
0000
0001
0000
0100
0000
0010
0000
0010
0000
1000
0000
0100
0000
0010
0001
,
0010
0011
0101
0001
,
0100
0001
0100
0010
1000
0000
0001
0000
,
1100
1010
0110
0100
,
0001
0010
0001
0100
0010
0000
0100
0000
,
0011
0101
1001
1000
,
0010
0100
0010
1000
0010
0000
0100
0000
,
0101
0000
0110
0000
1010
0000
0010
1000
,
0001
0000
1000
0000
0100
0010
0001
0100
,
0020
0000
0000
0000
,
0000
0000
0000
0030
;

//---------------dance-single - ----------------
#NOTES:
     dance-single:
     :
     Medium:
     7:
     0.309575,0.342162,0.130347,0.016293,0.057027,248.000000,16.000000,2.000000,0.000000,0.000000,0.000000,0.309575,0.342162,0.130347,0.016293,0.057027,248.000000,16.000000,2.000000,0.000000,0.000000,0.000000:
0000
0000
0000
0000
,
0000
0000
0000
0000
,
0000
0000
0000
0000
,
0000
0000
0000
0000
,
0000
0000
0000
0000
,
0000
0000
0000
0000
,
0000
0000
0000
0000
,
0000
0000
0000
0000
,
1000
0000
0001
0000
0100
0001
0100
0000
,
0020
0000
0130
0000
0010
0010
0010
0000
,
1000
0000
0001
0000
0100
0010
1000
0000
,
0002
0000
1003
0000
0001
0001
0001
0000
,
0100
0001
1000
0010
,
0100
0000
0001
1000
0100
0000
1100
0000
,
0010
0100
0001
0100
,
0010
0000
1000
0100
0010
0000
0110
0000
,
0001
0000
1000
0000
0001
0100
0010
0000
,
1000
0000
0001
0000
1000
0010
0100
0000
,
0001
1000
0100
0100
,
0010
0000
0010
0000
0001
1000
0001
1000
,
0010
0110
0100
0001
,
0100
0010
1000
0000
1001
0000
1001
0000
,
1000
0000
0100
0000
1000
0010
0100
0000
,
0001
1000
1010
0101
,
0001
0100
0010
1000
,
0100
0010
0001
1000
,
0100
0010
0001
0100
0010
0000
0010
0000
,
1000
1000
1001
1001
,
0001
0000
0000
0000
1000
0000
0001
0000
0000
0001
0000
0000
0001
0000
0000
0001
,
0000
0000
0001
0000
0000
0001
0000
0000
0001
0000
0000
0000
0000
0000
0000
0000
,
0000
0000
0000
0000
0000
0000
0100
0000
0000
0010
0000
0000
0010
0000
0000
0010
,
0000
0000
0010
0000
0000
0010
0000
0000
0010
0000
0000
0010
0000
0000
0000
0000
,
0000
0000
0000
0000
0000
0000
1000
0000
0000
0001
0000
0000
0001
0000
0000
0001
,
0000
0000
0001
0000
0000
0001
0000
0000
0001
0000
0000
0000
0000
0000
0000
0000
,
0000
0000
0000
0000
0100
0000
0001
0000
0000
1000
0000
0000
0001
0000
0000
1000
,
0000
0000
0010
0000
0000
0100
0000
0000
0001
0000
0000
1000
0000
0000
0000
0000
,
0010
0000
1000
0000
0100
0000
0010
0001
,
1000
0000
0001
0100
0010
0000
0110
0000
,
0010
0000
1000
0000
0100
1000
0010
0000
,
0100
0001
1000
0000
1010
0000
0101
0000
,
0001
0000
0100
0000
0010
1000
0100
0000
,
0010
0001
0100
0000
0001
0100
0010
1000
,
0001
0000
1001
0000
1000
1000
1000
0000
,
0100
0000
1000
0000
0010
0100
0001
0100
,
0010
0100
0001
0100
,
0010
1000
0001
0000
1000
0100
0010
0000
,
0011
0000
0101
0000
0001
0100
0010
0000
,
1000
0001
1000
0000
1000
0010
0100
0001
,
1000
0000
0100
0000
1000
0100
1000
0000
,
0010
0100
0010
0000
0100
0001
0100
0000
,
0001
0000
1000
0010
0100
0001
1000
0000
,
0100
0010
0001
0000
0100
0010
1000
0000
,
0001
0000
0001
0000
0001
0000
0000
1000
,
0000
0001
0000
1000
0000
0010
0100
0000
,
0001
0000
0100
0000
0010
0000
0000
1000
,
0000
0010
0000
1000
0000
0010
0100
0000
,
0001
0000
0100
0000
0010
0000
0000
1000
,
0000
0100
0000
1000
0000
0001
0010
0000
,
0100
0100
0010
0010
,
0001
1000
0001
1001
,
0001
0000
0000
0000
;

//---------------dance-single - ----------------
#NOTES:
     dance-single:
     :
     Easy:
     3:
     0.161770,0.195521,0.016293,0.024440,0.000000,134.000000,2.000000,3.000000,0.000000,0.000000,0.000000,0.161770,0.195521,0.016293,0.024440,0.000000,134.000000,2.000000,3.000000,0.000000,0.000000,0.000000:
// measure 0
0000
0000
0000
0000
,  // measure 1
0000
0000
0000
0000
,  // measure 2
0000
0000
0000
0000
,  // measure 3
0000
0000
0000
0000
,  // measure 4
0000
0000
0000
0000
,  // measure 5
0000
0000
0000
0000
,  // measure 6
0000
0000
0000
0000
,  // measure 7
0000
0000
0000
0000
,  // measure 8
0001
0000
0100
0000
,  // measure 9
0100
0000
0100
0000
,  // measure 10
0001
0000
1000
0000
,  // measure 11
0010
0000
0010
0000
,  // measure 12
1000
0001
0001
0100
,  // measure 13
0000
0100
0001
1000
,  // measure 14
0000
0100
0100
0010
,  // measure 15
0000
0010
0001
1000
,  // measure 16
0000
1000
0000
0001
,  // measure 17
0000
0001
0000
0100
,  // measure 18
0000
0100
0000
0010
,  // measure 19
0000
0010
1000
1000
,  // measure 20
0001
0000
1000
0100
,  // measure 21
1000
0000
0001
0100
,  // measure 22
0010
0000
0100
0100
,  // measure 23
0100
0000
0001
1000
,  // measure 24
0100
0000
0100
0000
,  // measure 25
0010
0000
0010
0000
,  // measure 26
0001
0000
0001
0000
,  // measure 27
0100
0100
0100
0000
,  // measure 28
0010
0000
0100
0000
,  // measure 29
0100
0000
0100
0000
,  // measure 30
0010
0000
1000
0000
,  // measure 31
1000
0000
1000
0000
,  // measure 32
0001
0000
0001
0000
,  // measure 33
0001
0000
0001
0000
,  // measure 34
0100
0000
0001
0000
,  // measure 35
0200
0000
0000
0300
,  // measure 36
0010
1000
1000
0001
,  // measure 37
2000
0000
0000
3100
,  // measure 38
0100
0010
0001
0100
,  // measure 39
0000
0100
0000
0001
,  // measure 40
0000
1000
1000
0100
,  // measure 41
0100
0010
0010
0001
,  // measure 42
0000
0100
0001
0100
,  // measure 43
0010
1000
0000
1000
,  // measure 44
0000
0001
0010
0100
,  // measure 45
2000
0000
0000
3001
,  // measure 46
0001
0100
0000
0100
,  // measure 47
0001
1000
0000
1000
,  // measure 48
0100
0001
0001
0001
,  // measure 49
0100
0100
1000
1000
,  // measure 50
0000
0010
0000
0100
,  // measure 51
0000
0001
0001
1000
,  // measure 52
1001
0000
1000
0000
,  // measure 53
0100
0000
1000
0000
,  // measure 54
0010
0000
0100
0000
,  // measure 55
0001
0000
0100
0000
,  // measure 56
0010
0010
0010
0000
,  // measure 57
0100
0000
0100
0000
,  // measure 58
0001
0001
0001
0000
,  // measure 59
1000
0000
1000
0000
,  // measure 60
1001
0000
0000
0000
;
