#TITLE:Number 1;
#SUBTITLE:;
#ARTIST:Goldfrapp;
#TITLETRANSLIT:;
#SUBTITLETRANSLIT:;
#ARTISTTRANSLIT:;
#GENRE:;
#CREDIT:;
#BANNER:Number 1-bn.png;
#BACKGROUND:number 1 - bg.png;
#LYRICSPATH:;
#CDTITLE:;
#MUSIC:02 Number 1.mp3;
#OFFSET:0.007415;
#SAMPLESTART:91.745865;
#SAMPLELENGTH:15.000000;
#SELECTABLE:YES;
#BPMS:0.000000=124.999992
;
#STOPS:93.000000=1.420000
;
#BGCHANGES:1.000=Number 1.avi=1.000=0=0=1=====,
99999=-nosongbg-=1.000=0=0=0 // don't automatically add -songbackground-
;
#KEYSOUNDS:;
#ATTACKS:;

//---------------dance-single - ----------------
#NOTES:
     dance-single:
     :
     Hard:
     10:
     0.425629,0.407252,0.265730,0.144944,0.004026,319.000000,33.000000,18.000000,0.000000,0.000000,0.000000,0.425629,0.407252,0.265730,0.144944,0.004026,319.000000,33.000000,18.000000,0.000000,0.000000,0.000000:
0000
0000
0000
0000
,
0000
0000
0000
0000
,
0000
0000
0000
0000
,
0000
0000
0000
0000
,
0000
0000
1000
0100
1000
0000
0001
0100
,
0001
0000
0100
0010
1000
0001
1000
0100
,
0100
0010
0001
0100
0010
0000
1000
0010
,
0100
0000
0001
1000
0010
1000
0001
0100
,
0100
0001
0010
0000
0100
0000
1000
0010
,
1010
0000
0001
0100
0010
0000
0100
0000
,
0110
0000
0010
1000
0001
0000
1000
0001
,
0101
0000
0001
1000
0100
0000
0010
0000
,
1100
0000
0010
0100
0001
0000
1000
0000
,
0101
0000
0100
0000
0010
0000
1000
0001
,
1001
0000
0001
0100
0010
0000
1000
0000
,
1010
0000
0100
0001
0010
0001
1000
0010
,
0010
1000
1010
0000
0101
0000
1001
0000
,
1000
0000
0020
0100
0000
0130
0000
0001
,
1000
0100
1100
0000
0110
0000
0011
0000
,
0001
0000
0200
0001
0000
0301
0000
1000
,
0100
0001
0101
0000
1100
0000
1001
0000
,
0100
0000
0002
0100
0000
0103
0000
0010
,
1000
0001
0101
0000
1010
0000
1001
0000
,
0110
0000
1001
0000
0002
0000
0103
0020
,
0000
1030
0002
0000
1000
0000
0100
0000
,
1000
1000
1003
0000
0020
0000
0130
0002
,
0000
1003
0200
0000
0010
0000
0001
0000
,
0010
0010
0310
0000
0200
0000
0310
0002
,
0000
2003
3020
0001
,
1000
0000
2030
0000
3020
0000
0130
0002
,
0000
0023
0230
1000
,
1000
1000
1000
0000
1300
0000
0100
0000
,
0001
1000
0010
0001
,
1000
0000
0100
0000
0001
0100
0001
0000
,
1000
0100
1000
0000
0010
0100
0010
0000
,
0100
0001
0100
0000
0001
0000
0100
0000
,
1000
0001
0010
1000
,
0001
0000
0100
0000
1000
0100
1000
0000
,
0001
0100
0001
0000
0100
0010
0100
0000
,
0010
1000
0001
0001
1000
0100
1000
0001
,
1000
0000
0101
0000
0001
0100
0010
0000
,
0010
1000
0100
0000
0010
0100
1000
0001
,
0100
0000
0110
0000
0010
1000
0001
0000
,
1000
0100
1000
0000
0001
0100
1000
0100
,
0001
0000
0101
0000
0100
0010
1000
0000
,
0100
0010
0100
0000
0010
0001
1000
0001
,
0100
0000
0101
0000
0010
1000
0010
0000
,
0100
0001
1000
0001
0100
0100
0010
1000
,
0100
0010
0110
0000
0010
0001
1000
0100
,
0000
1000
0010
0010
0100
0001
0010
1000
,
0010
0001
1001
0000
0010
0100
0001
1000
,
0000
0001
0100
0100
0001
0100
0010
1000
,
0100
1000
1010
0000
0010
1000
0001
0100
,
0000
0001
0100
0100
1000
0100
0001
0010
,
0001
0100
0101
0000
0100
0010
1000
0001
,
0010
0100
1000
0001
1000
0100
0001
0100
,
1000
0010
0100
0000
0001
0100
0101
0000
,
1000
0100
1100
0000
0010
0100
0001
0100
,
0010
1000
0001
0000
0100
0010
0110
0000
,
1000
0000
0000
0001
1000
0000
0001
0000
0101
0000
0000
0000
0000
0000
0000
0000
;

//---------------dance-single - ----------------
#NOTES:
     dance-single:
     :
     Medium:
     8:
     0.357758,0.359340,0.040262,0.458989,0.000000,249.000000,5.000000,57.000000,0.000000,0.000000,0.000000,0.357758,0.359340,0.040262,0.458989,0.000000,249.000000,5.000000,57.000000,0.000000,0.000000,0.000000:
0000
0000
0000
0000
,
0000
0000
0000
0000
,
0000
0000
0000
0000
,
0000
0000
0000
0000
,
0000
1000
1000
0100
,
0100
0001
0001
0100
,
0100
0010
0010
0001
,
0001
0000
1000
0000
0001
0000
1000
0001
,
1001
1000
0020
2030
,
3001
0000
0200
0000
0301
0200
0000
0320
,
0000
1030
0002
2003
,
3010
0000
2000
0000
3010
0200
0000
0000
,
0301
0010
0200
2300
,
3010
0000
0200
0000
0301
0020
0000
0230
,
0000
0310
0002
2003
,
3001
0000
0200
0000
0301
0200
0000
0310
,
1000
0001
1000
0000
0100
2000
0000
0000
,
3001
0000
0001
0001
0000
1000
0000
0001
,
0100
0010
1000
0000
0001
0200
0000
0320
,
0000
0000
1030
1000
0000
1000
0000
0001
,
1000
0001
0100
0000
0001
0020
0000
0000
,
0130
0000
0100
0100
0000
0010
0000
0001
,
1000
0001
0100
0000
0001
2000
0000
3002
,
0000
0003
1001
0000
2000
0000
0000
3020
,
0000
0230
0001
0010
,
0001
0000
0010
0000
0302
0000
0000
0200
,
0003
2300
0100
0001
,
0100
0000
0001
0000
3200
0000
0301
0020
,
0000
2030
3020
1000
,
1000
0000
0230
0000
0320
0000
0031
2000
,
0000
3002
2003
0001
,
0001
0000
3001
0000
0002
0000
0000
0023
,
0000
2030
0000
3010
,
0001
0100
0001
0001
,
0001
1000
1000
1000
,
0010
0000
0010
0000
2000
0000
0000
3020
,
0000
0230
0000
0301
,
0100
0010
1000
1000
,
0010
0010
0100
0100
,
0001
1000
1001
0000
1000
0010
0100
0000
,
0001
0000
0101
0000
0001
0100
0010
2000
,
0000
3002
0000
0000
1003
0000
0001
0000
,
1000
0010
0100
0000
0001
0100
0010
2000
,
0000
0000
3100
0000
1000
0100
1000
0000
,
0001
0100
0001
0000
0100
0010
0100
0020
,
0000
2030
0000
0000
3001
0000
1000
0000
,
0001
0100
0001
0000
0100
0001
0100
0020
,
0000
1030
0001
1000
0100
0000
1000
0200
,
0000
0000
0310
0000
0001
0001
0000
1000
,
0000
0001
0100
0010
1000
0000
0001
0200
,
0000
0302
0000
0000
0013
0010
0000
0100
,
0000
0100
1000
0010
0010
0000
0100
0002
,
0000
0000
1003
0000
0001
0001
0000
0100
,
0000
0010
0100
0010
0100
0000
0010
0200
,
0000
0302
0000
0000
1003
0000
0001
0000
,
0001
1000
0001
1000
0010
0000
0100
0001
,
0100
0000
0010
0000
0010
0000
1000
0010
,
1000
0000
0100
0000
0100
0000
0010
0001
,
0010
0001
0001
1000
,
0010
0100
0001
0000
1001
0000
0000
0000
;

//---------------dance-single - ----------------
#NOTES:
     dance-single:
     :
     Easy:
     4:
     0.172552,0.167692,0.016105,0.032210,0.000000,144.000000,2.000000,4.000000,0.000000,0.000000,0.000000,0.172552,0.167692,0.016105,0.032210,0.000000,144.000000,2.000000,4.000000,0.000000,0.000000,0.000000:
// measure 0
0000
0000
0000
0000
,  // measure 1
0000
0000
0000
0000
,  // measure 2
0000
0000
0000
0000
,  // measure 3
0000
0000
0000
0000
,  // measure 4
0000
0000
1000
1000
,  // measure 5
1000
0000
0001
0001
,  // measure 6
0001
0000
0100
0100
,  // measure 7
0100
0000
0010
0010
,  // measure 8
0010
0000
1000
0000
,  // measure 9
1000
0000
0100
0000
,  // measure 10
0100
0000
0010
0000
,  // measure 11
0010
0000
0001
0000
,  // measure 12
0001
0000
0100
0000
,  // measure 13
0100
0000
0001
0000
,  // measure 14
0001
0000
1000
0000
,  // measure 15
1000
0000
0010
0000
,  // measure 16
0000
1000
1000
0100
,  // measure 17
0000
0010
0010
0001
,  // measure 18
0000
0100
0100
0010
,  // measure 19
0000
1000
1000
0001
,  // measure 20
0000
1000
0100
0010
,  // measure 21
0000
1000
0100
0010
,  // measure 22
0000
0001
0010
0100
,  // measure 23
0000
1001
0002
0000
,  // measure 24
0100
0000
0100
0000
,  // measure 25
0100
0000
0203
0000
,  // measure 26
0010
0000
0010
0000
,  // measure 27
0010
0000
0320
0000
,  // measure 28
1000
0000
1000
0000
,  // measure 29
1000
0000
2030
0000
,  // measure 30
0100
0000
0100
0000
,  // measure 31
0100
0000
3100
0000
,  // measure 32
0010
0000
0001
0000
,  // measure 33
0001
0000
0100
0000
,  // measure 34
1000
0000
0100
0000
,  // measure 35
0001
0000
0010
0000
,  // measure 36
1000
0000
0010
0000
,  // measure 37
0001
0000
1000
0000
,  // measure 38
0010
0000
0001
0000
,  // measure 39
1000
0000
0001
0100
,  // measure 40
0100
0000
0001
1000
,  // measure 41
1000
0000
0010
0100
,  // measure 42
0100
0000
0001
0100
,  // measure 43
1000
0000
1000
0100
,  // measure 44
0001
0000
0001
0010
,  // measure 45
1000
0000
1000
0010
,  // measure 46
0001
0000
1000
0001
,  // measure 47
1000
0000
0010
0010
,  // measure 48
0010
0000
0100
0100
,  // measure 49
0100
0000
0010
0010
,  // measure 50
0010
0000
1000
0001
,  // measure 51
1000
0000
0010
0100
,  // measure 52
0010
0000
0100
0001
,  // measure 53
0100
0000
0010
1000
,  // measure 54
0010
0000
1000
0001
,  // measure 55
1000
1000
0010
0010
,  // measure 56
0010
0010
0000
0100
,  // measure 57
0100
0100
0100
0000
,  // measure 58
0001
0001
0001
0001
,  // measure 59
0000
1000
1001
0000
;
