#TITLE:I Should Be So Lucky;
#SUBTITLE:;
#ARTIST:Kylie Minogue;
#TITLETRANSLIT:;
#SUBTITLETRANSLIT:;
#ARTISTTRANSLIT:;
#GENRE:;
#CREDIT:;
#BANNER:;
#BACKGROUND:;
#LYRICSPATH:;
#CDTITLE:;
#MUSIC:01 I Should Be So Lucky.mp3;
#OFFSET:0.502068;
#SAMPLESTART:51.826069;
#SAMPLELENGTH:15.000000;
#SELECTABLE:YES;
#BPMS:0.000000=116.000000
;
#STOPS:
;
#BGCHANGES:0.000=I should be so lucky.avi=1.000=0=0=1=====,
99999=-nosongbg-=1.000=0=0=0 // don't automatically add -songbackground-
;
#KEYSOUNDS:;
#ATTACKS:;

//---------------dance-single - Chewi----------------
#NOTES:
     dance-single:
     Chewi:
     Hard:
     11:
     0.478320,0.412551,0.207272,0.286992,0.007972,358.000000,26.000000,36.000000,0.000000,0.000000,0.000000,0.478320,0.412551,0.207272,0.286992,0.007972,358.000000,26.000000,36.000000,0.000000,0.000000,0.000000:
0000
0000
0000
0000
,
0000
0000
0000
0000
,
0000
0000
0000
0000
,
0000
0000
0000
0000
,
0000
0000
0000
0000
,
0000
0000
0001
0100
0010
0100
0002
0000
,
1003
1000
0001
0200
0000
0310
1000
0001
,
1000
0100
0100
2000
0000
3100
0010
0001
,
0100
0020
0000
1030
1010
0000
0110
0000
,
0101
0000
0001
2000
0000
3010
0100
0001
,
1000
0100
1000
0020
0000
1030
1000
0100
,
0001
0200
0000
1300
0010
0100
0001
0010
,
0001
0100
0020
0000
1000
0000
0130
0000
,
0010
1000
0001
2000
0000
3001
0100
1000
,
0100
0001
0010
0002
0000
0103
0100
0010
,
1000
0200
0000
0300
1000
0010
0001
0010
,
1000
0100
0020
0000
0001
0000
0130
0000
,
0110
0000
0001
0200
0000
0310
1000
0100
,
0010
0001
1000
0002
0000
1003
0010
0001
,
0010
0200
0000
0310
1000
1000
0001
0100
,
0010
1000
0100
1000
0010
0000
1010
0000
,
0110
0000
1001
0001
0101
1000
0100
0010
,
0001
1000
0001
0100
0101
0010
1000
0001
,
1000
0010
0100
0010
0110
1000
0100
0010
,
0001
0000
1000
0000
0001
0000
0100
0000
0101
0000
0010
0000
1000
0000
0100
0010
,
0100
0010
0010
0002
0000
0103
0001
1000
,
0001
0010
0001
0200
0000
0301
0100
1000
,
0100
0001
1000
0020
0000
1030
0010
0100
,
0001
1000
0001
0010
0001
0000
1001
1000
,
0100
0010
0001
2000
0000
3001
0010
1000
,
0010
0001
0100
0002
0000
0103
0001
1000
,
0010
1000
0100
0020
0000
0031
1000
0100
,
1000
0010
0100
0001
1000
0000
1001
0000
,
0001
0001
0100
0020
0000
0130
0001
1000
,
0001
0100
0010
2000
0000
3100
1000
0100
,
0010
0200
0000
0310
0001
0100
1000
0100
,
0001
1000
1100
0000
1001
0000
1010
0000
,
0110
0000
0100
0002
0000
1003
1000
0100
,
0001
0100
1000
0002
0000
0013
0100
1000
,
0010
0100
0001
0000
0001
0100
0010
1000
,
0001
1000
0200
0000
0010
0000
0301
0000
,
1001
0000
1000
2000
0000
3010
0100
0001
,
1000
0010
0100
0002
0000
1003
0100
0001
,
0100
1000
0010
0100
0001
0001
1000
1000
,
0010
0020
0000
1030
0000
0001
0100
0001
,
1000
0100
1010
0010
0110
0001
1000
0100
,
0001
0100
0010
0001
0101
0010
1000
0010
,
0001
0010
1000
0100
1100
0010
0001
0100
,
0001
0000
0010
0000
0100
0000
1000
0000
1010
0000
0100
0001
0100
0000
0001
0000
,
1000
0010
0010
0200
0000
0301
0100
0010
,
1000
0100
1000
0020
0000
0031
0010
1000
,
0100
0010
0110
0020
0000
0031
1000
0010
,
0100
0001
0010
0100
1000
0000
1010
0010
,
1000
0001
0010
0002
0000
1003
1000
0010
,
1000
0100
1000
0020
0000
0130
0100
0001
,
0001
1000
1100
2000
0000
3100
0001
0100
,
1000
0010
0100
0001
0010
0000
0001
0000
,
0100
0001
0010
0100
1000
0000
0000
0000
;

//---------------dance-single - Chewi----------------
#NOTES:
     dance-single:
     Chewi:
     Medium:
     7:
     0.312047,0.297954,0.127552,0.055804,0.000000,251.000000,16.000000,7.000000,0.000000,0.000000,0.000000,0.312047,0.297954,0.127552,0.055804,0.000000,251.000000,16.000000,7.000000,0.000000,0.000000,0.000000:
0000
0000
0000
0000
,
0000
0000
0000
0000
,
0000
0000
0000
0000
,
0000
0000
0000
0000
,
0000
0000
0000
0000
,
0000
0000
0000
1000
0000
1000
0020
0000
,
0100
0130
0000
0001
0000
0001
2000
0000
,
0100
3100
0000
0010
0000
0001
0200
0000
,
0001
0301
0000
0000
0000
0001
0100
0000
,
0110
1010
1000
0001
,
1000
0000
0100
0010
0000
0010
0001
0000
,
0100
0001
1000
0100
,
1000
0010
0100
0000
1001
0000
0001
0000
,
1000
0001
0001
0100
,
0010
1000
0100
1000
,
0010
0100
0000
0100
0001
0000
1000
0000
,
0100
0010
0001
0000
0101
0000
0001
0000
,
0001
0000
0100
0010
0000
0010
1000
0000
,
0100
1000
0100
0001
,
0100
1000
0010
0100
,
0001
1000
0100
0000
1000
0001
0100
0000
,
0101
1001
0020
1030
,
0010
1000
0100
0000
0200
0000
0310
0000
,
0100
0010
0001
0000
0002
0000
1003
0000
,
0001
1000
0100
0000
0100
0000
0100
0000
,
0100
1000
0010
0100
0000
0100
0001
0000
,
1000
1000
0000
0001
0000
0001
0100
0001
,
0100
0001
0000
1000
0000
1000
0100
1000
,
0010
0100
0001
2000
0000
3000
0000
0000
,
0000
0000
0000
0001
0000
1000
0010
1000
,
0010
1000
0000
0001
0000
0001
0100
0001
,
0100
0001
0000
0100
0000
0100
0010
1000
,
0100
1000
0001
1000
0000
0000
1000
0000
,
0001
0001
0100
0010
,
1000
0000
0100
1000
0000
1000
0100
0000
,
0010
0001
0100
0001
,
0100
0001
0100
0000
0101
0000
1000
0000
,
0001
0000
1000
0010
0000
0010
0100
0000
,
0001
1000
0100
0010
,
0001
0001
0100
0001
,
0100
0010
1000
0000
1010
0000
1100
0000
,
1010
1001
0001
0100
,
0001
0000
0100
0010
0000
0010
0100
0000
,
0001
1000
0100
0010
,
0001
0100
0010
0000
1000
0000
0010
0000
,
0100
0001
0101
0001
,
0001
0001
0110
0010
,
0010
0010
1010
1000
,
1000
1000
1100
0100
,
0100
0000
0100
0010
0000
0000
0001
0000
,
0100
0001
0000
1000
0000
1000
0100
1000
,
0100
1000
0000
0010
0000
0010
0100
0001
,
1000
0100
0010
0001
0000
0000
0001
0000
,
1000
0000
0001
1000
0000
1000
0010
0000
,
0100
0000
0001
1000
0000
1000
0100
1000
,
0100
1000
0000
1000
0000
1000
0001
0100
,
0001
0100
0010
1000
0001
0000
1000
0000
,
0100
0010
1001
0000
;

//---------------dance-single - ----------------
#NOTES:
     dance-single:
     :
     Easy:
     3:
     0.184495,0.182559,0.007972,0.063776,0.000000,153.000000,1.000000,8.000000,0.000000,0.000000,0.000000,0.184495,0.182559,0.007972,0.063776,0.000000,153.000000,1.000000,8.000000,0.000000,0.000000,0.000000:
// measure 0
0000
0000
0000
0000
,  // measure 1
0000
0000
0000
0000
,  // measure 2
0000
0000
0000
0000
,  // measure 3
0000
0000
0000
0000
,  // measure 4
0000
0000
0000
0000
,  // measure 5
0000
0000
0001
0001
,  // measure 6
0001
0000
0100
0100
,  // measure 7
0001
0000
0100
0100
,  // measure 8
0100
0000
0010
0010
,  // measure 9
1000
0000
0100
0010
,  // measure 10
0100
0000
0010
0010
,  // measure 11
0001
0000
0001
0100
,  // measure 12
1000
0000
1000
0100
,  // measure 13
0001
0000
1000
1000
,  // measure 14
0010
0000
0100
0100
,  // measure 15
0001
0000
1000
0010
,  // measure 16
0001
0000
0001
0010
,  // measure 17
1000
0000
0100
0100
,  // measure 18
0100
0000
1000
1000
,  // measure 19
1000
0000
0010
0100
,  // measure 20
0010
0000
0100
0001
,  // measure 21
0100
0000
0002
0000
,  // measure 22
1003
1000
2000
0000
,  // measure 23
3010
0010
0200
0000
,  // measure 24
0301
0001
2000
0000
,  // measure 25
3001
0001
0100
0100
,  // measure 26
0001
0000
1000
0100
,  // measure 27
1000
0000
0100
0001
,  // measure 28
0100
0000
1000
0010
,  // measure 29
0100
0000
0100
0001
,  // measure 30
0100
0000
0001
0001
,  // measure 31
0001
0000
1000
0010
,  // measure 32
1000
0000
0100
0000
,  // measure 33
0100
0000
0010
0000
,  // measure 34
0010
0000
0001
0001
,  // measure 35
0001
0000
0100
1000
,  // measure 36
0100
0000
0001
0010
,  // measure 37
0001
0000
1000
1000
,  // measure 38
0100
0000
0010
0010
,  // measure 39
0001
0000
1000
0000
,  // measure 40
1000
0000
0001
0000
,  // measure 41
0100
0001
1000
1000
,  // measure 42
0010
0000
0010
1000
,  // measure 43
0001
0000
0001
0100
,  // measure 44
1000
0000
1000
0100
,  // measure 45
0001
0000
2000
0000
,  // measure 46
3001
0001
0002
0000
,  // measure 47
0103
0100
0200
0000
,  // measure 48
0310
0010
0020
0000
,  // measure 49
1030
1000
0001
0100
,  // measure 50
1000
0000
1000
1000
,  // measure 51
1000
0000
1000
0100
,  // measure 52
0001
0000
0010
0000
,  // measure 53
0100
0000
0010
0010
,  // measure 54
0010
0000
0001
0100
,  // measure 55
0001
0000
1000
1000
,  // measure 56
0010
0000
1000
0100
,  // measure 57
0010
1001
0000
0000
;
