#TITLE:I Believe in You;
#SUBTITLE:;
#ARTIST:Kylie Minogue;
#TITLETRANSLIT:;
#SUBTITLETRANSLIT:;
#ARTISTTRANSLIT:;
#GENRE:;
#CREDIT:;
#BANNER:i believe in you-bn.png;
#BACKGROUND:I believe in you-bg.png;
#LYRICSPATH:;
#CDTITLE:;
#MUSIC:I Believe in You.mp3;
#OFFSET:0.378070;
#SAMPLESTART:48.585999;
#SAMPLELENGTH:15.000000;
#SELECTABLE:YES;
#BPMS:0.000000=121.000000
;
#STOPS:
;
#BGCHANGES:1.000=i believe in you.avi=1.000=0=0=1=====,
99999=-nosongbg-=1.000=0=0=0 // don't automatically add -songbackground-
;
#KEYSOUNDS:;
#ATTACKS:;

//---------------dance-single - ----------------
#NOTES:
     dance-single:
     :
     Hard:
     11:
     0.415482,0.376634,0.283566,0.210857,0.000000,332.000000,39.000000,29.000000,0.000000,0.000000,0.000000,0.415482,0.376634,0.283566,0.210857,0.000000,332.000000,39.000000,29.000000,0.000000,0.000000,0.000000:
// measure 0
0000
0000
0000
0000
,  // measure 1
0000
0000
0000
0000
,  // measure 2
0000
0000
0000
0000
,  // measure 3
0000
0000
0000
0000
,  // measure 4
0000
0000
0000
0000
,  // measure 5
0000
0000
0000
0000
,  // measure 6
0000
0000
0000
0000
,  // measure 7
0000
0000
0000
0000
,  // measure 8
0000
0000
0000
0000
,  // measure 9
1000
0010
0100
0000
0001
1000
0001
0000
,  // measure 10
1000
0100
1000
0001
1000
0010
0100
0100
,  // measure 11
0001
0010
0100
0000
1000
0010
1000
0000
,  // measure 12
0010
0100
0001
0010
0100
0010
0001
0001
,  // measure 13
1000
0001
0010
0000
0100
1000
0100
0000
,  // measure 14
1000
0010
0100
0001
1000
0001
0100
0100
,  // measure 15
0001
0010
0100
0000
1000
0001
1000
0000
,  // measure 16
0001
0010
0100
1000
0010
0100
0001
1000
,  // measure 17
0002
0000
0103
0000
0010
1000
0001
0000
,  // measure 18
1000
0100
0010
0001
1000
0000
1001
0000
,  // measure 19
0002
0000
0013
0000
0100
1000
0010
0000
,  // measure 20
0100
0010
1000
0001
1000
0000
1100
0000
,  // measure 21
2000
0000
3001
0000
0001
0100
1000
0000
,  // measure 22
0100
0001
1000
0100
0010
0000
0110
0000
,  // measure 23
0020
0000
0031
0000
0001
1000
0010
0000
,  // measure 24
1000
0010
0001
0010
1000
0100
0010
0001
,  // measure 25
2000
0000
3100
0010
0200
0000
1300
0001
,  // measure 26
0020
0000
0031
0100
0010
0000
0110
0000
,  // measure 27
1002
0000
1000
1000
1003
0000
1001
0000
,  // measure 28
0001
0100
0001
1000
0100
1000
1010
0000
,  // measure 29
0020
0000
1030
0001
2000
0000
3001
0010
,  // measure 30
0200
0000
1300
0100
1000
0000
1100
0000
,  // measure 31
1000
0001
1000
0010
0200
0000
0301
0000
,  // measure 32
1000
0100
0010
0000
0021
0000
0031
0000
,  // measure 33
0010
0001
0100
0000
0010
0100
0110
0000
,  // measure 34
0010
1000
0001
1000
0100
0010
0001
0000
,  // measure 35
0010
0100
1000
0000
0100
1000
1100
0000
,  // measure 36
1000
0001
0100
0001
0010
0100
0010
0000
,  // measure 37
0001
1000
0010
0000
0100
0010
0110
0000
,  // measure 38
0010
1000
0100
1000
0001
0100
0010
0000
,  // measure 39
1000
0001
0010
0000
0001
1000
1001
0000
,  // measure 40
1000
0100
0001
0100
1000
0010
0100
0100
,  // measure 41
0002
0000
1003
0001
0200
0000
0310
0100
,  // measure 42
0020
0000
1030
0100
0001
0000
0101
0000
,  // measure 43
2100
0000
0100
0100
3100
0000
1001
0000
,  // measure 44
0001
0010
1000
0010
0001
0010
0011
0000
,  // measure 45
0020
0000
0130
1000
0200
0000
0310
0001
,  // measure 46
2000
0000
3001
0100
0010
0000
0110
0000
,  // measure 47
0010
1000
0100
1000
0002
0000
0013
0000
,  // measure 48
0001
0100
0010
1000
0001
1000
1001
0000
,  // measure 49
0002
0000
0013
1000
0020
0000
0031
0100
,  // measure 50
0020
0000
1030
0001
0100
0000
1010
0000
,  // measure 51
2001
0000
0001
0001
3001
0000
0110
0000
,  // measure 52
0010
1000
0100
0100
0010
0000
0101
0000
,  // measure 53
0002
0000
1003
0100
0002
0000
0103
1000
,  // measure 54
0020
0000
0130
0100
0001
0000
1001
0000
,  // measure 55
0001
0100
1000
0100
0002
0000
1003
0000
,  // measure 56
0100
0010
0001
1000
0100
1000
1010
0000
,  // measure 57
0110
0000
0100
0010
0000
1010
0000
1100
,  // measure 58
0000
1000
0100
0001
0100
0000
1100
0000
,  // measure 59
1010
0000
0010
0100
0000
0101
0000
0110
,  // measure 60
0000
0010
0100
0001
1000
0000
1001
0000
,  // measure 61
0011
0000
0001
0100
0000
0101
0000
0011
,  // measure 62
0000
0001
0100
1000
0100
0000
0101
0000
,  // measure 63
1010
0000
1000
0100
0000
0001
0000
0100
,  // measure 64
0000
0010
0000
0010
0001
0000
1001
0000
;

//---------------dance-single - ----------------
#NOTES:
     dance-single:
     :
     Medium:
     9:
     0.343811,0.376634,0.399901,0.181773,0.000000,250.000000,55.000000,25.000000,0.000000,1.000000,0.000000,0.343811,0.376634,0.399901,0.181773,0.000000,250.000000,55.000000,25.000000,0.000000,1.000000,0.000000:
0000
0000
0000
0000
,
0000
0000
0000
0000
,
0000
0000
0000
0000
,
0000
0000
0000
0000
,
0000
0000
0000
0000
,
0000
0000
0000
0000
,
0000
0000
0000
0000
,
0000
0000
0000
0000
,
0000
0000
0000
0000
,
1000
1000
0100
0100
,
0010
0010
0001
0001
,
1001
1001
0100
0100
,
0010
0010
1000
1000
,
1100
1100
0100
0100
,
0010
0010
0011
0011
,
0001
0001
0100
0100
,
0010
0010
1001
0110
,
1000
0000
0001
0100
0010
1000
0001
0000
,
1000
0000
0100
0010
0001
0000
0011
0000
,
0001
0000
0100
0010
1000
0100
0010
0000
,
0100
0000
0010
0001
1000
0000
1001
0000
,
0001
0100
0020
1000
,
0001
0000
0130
0010
1000
0000
1100
0000
,
1000
0100
0010
0001
,
1000
0001
1000
0001
1000
0000
1001
0000
,
0002
0100
0203
1000
,
2300
0000
0100
0000
3100
0001
1000
0000
,
2002
0000
0000
3003
,
0011
0101
1010
1100
,
2000
0100
3200
0001
,
0302
0000
0100
0000
0103
1000
0001
0000
,
0001
0100
1000
0010
0001
0000
1001
0000
,
1100
0110
0011
0111
,
1000
0010
0100
0010
0100
0000
0101
0000
,
0001
0000
0100
0010
1000
0000
1100
0000
,
0001
0010
0001
0010
0100
0000
1100
0000
,
1000
0100
0010
0001
1000
0000
0001
0000
,
0100
0000
0010
0000
1000
0100
0100
0000
,
0110
0000
0001
0000
0100
0001
1000
0000
,
1000
0100
0110
0001
,
1001
0110
1001
0001
,
2000
0010
3020
0001
,
0032
0000
0010
0000
0013
1000
0001
0000
,
2002
0000
0000
3003
,
0011
0101
1010
1100
,
2000
0010
3020
0001
,
0032
0000
0010
0000
0013
1000
0001
0000
,
1000
0100
0001
0010
1000
0000
1001
0000
,
1100
0011
0101
1010
,
0002
0100
0203
1000
,
2300
0000
0000
0000
3100
0001
0010
0000
,
0220
0000
0000
0330
,
1100
0011
0101
0110
,
2000
0100
3200
0001
,
0302
0000
0100
0000
0103
1000
0010
0000
,
0100
0001
0010
1000
0100
0000
1001
0000
,
0101
0011
0101
1010
,
1000
0000
1000
0001
0000
0100
0000
0100
,
0000
0100
0010
0100
0010
0000
1001
0000
,
1000
0000
1000
0001
0000
0100
0000
0110
,
0000
1000
0000
1000
0100
0000
0101
0000
,
1001
0000
1000
0010
0000
0100
0000
0001
,
0000
1000
0000
1000
0100
1000
0100
0000
,
0010
0000
0001
1000
0000
0001
0000
0100
,
0000
0010
0000
1000
0001
0000
1001
0000
;

//---------------dance-single - ----------------
#NOTES:
     dance-single:
     :
     Easy:
     5:
     0.191122,0.211857,0.130877,0.087251,0.000000,154.000000,18.000000,12.000000,0.000000,0.000000,0.000000,0.191122,0.211857,0.130877,0.087251,0.000000,154.000000,18.000000,12.000000,0.000000,0.000000,0.000000:
0000
0000
0000
0000
,
0000
0000
0000
0000
,
0000
0000
0000
0000
,
0000
0000
0000
0000
,
0000
0000
0000
0000
,
0000
0000
0000
0000
,
0000
0000
0000
0000
,
0000
0000
0000
0000
,
0000
0000
0000
0000
,
1000
1000
0001
0000
,
0100
0100
0001
0000
,
1000
1000
0100
0000
,
0010
0010
0001
0000
,
1000
1000
0001
0000
,
0001
0001
1000
0000
,
0010
0010
0100
0000
,
0100
0100
0010
0000
,
1000
0000
1000
0000
,
0100
0000
0100
0000
,
0010
0010
0001
0001
,
0100
0100
0010
0010
,
1000
0000
0100
0000
,
0010
0000
0001
0000
,
1000
1000
0001
0001
,
0100
0100
0010
0010
,
1000
0100
0001
0100
,
1000
0000
0010
0100
,
0220
0000
0330
1001
,
0000
0000
0000
1100
,
0001
0010
0001
0010
,
0001
0000
0100
1000
,
2002
0000
3003
0110
,
0000
0000
0000
1001
,
0000
0001
0000
0001
,
0000
0100
0000
0100
,
0010
0010
1000
1000
,
0100
0100
0010
0010
,
0001
0000
1000
0000
,
0100
0000
0010
0000
,
0001
0001
0100
0100
,
0010
0010
1000
0000
,
0100
0010
0100
0010
,
0100
0000
0010
0001
,
0022
0000
0033
1001
,
0000
0000
0000
1100
,
1000
0010
1000
0010
,
1000
0000
0001
0100
,
0202
0000
0303
1001
,
0000
0000
0000
0110
,
0010
1000
0001
1000
,
0100
0000
0100
0010
,
0220
0000
0330
1001
,
0000
0000
0000
1100
,
0001
0010
0001
0010
,
0100
0000
0100
0010
,
0022
0000
0033
1001
,
0000
0000
0000
0110
,
1000
0100
0001
0100
,
1000
0000
1000
1000
,
0001
0010
1000
0010
,
0001
0000
0001
0001
,
0001
0100
1000
0100
,
0001
0000
1000
1000
,
1000
0000
0000
0000
,
0000
0000
0000
0010
;
