#TITLE:Heartbreak (Make Me A Dancer);
#SUBTITLE:;
#ARTIST:Freemasons feat. Sophie Ellis-Bextor;
#TITLETRANSLIT:;
#SUBTITLETRANSLIT:;
#ARTISTTRANSLIT:;
#GENRE:;
#CREDIT:;
#BANNER:Heartbreak (Make Me A Dancer)-bn.png;
#BACKGROUND:Heartbreak (Make Me A Dancer)-bg.png;
#LYRICSPATH:;
#CDTITLE:;
#MUSIC:01 - Heartbreak (Make Me A Dancer) [feat. Sophie Ellis Bextor].mp3;
#OFFSET:0.143337;
#SAMPLESTART:46.139973;
#SAMPLELENGTH:15.000000;
#SELECTABLE:YES;
#DISPLAYBPM:148.000000;
#BPMS:0.000000=126.199997
;
#STOPS:
;
#BGCHANGES:1.000=Heartbreak (Make Me A Dancer).mp4=1.000=1=0=1=StretchNormal==CrossFade==,
258.000=Heartbreak (Make Me A Dancer)-bg.png=1.000=0=0=1=====,
99999=-nosongbg-=1.000=0=0=0 // don't automatically add -songbackground-
;
#KEYSOUNDS:;
#ATTACKS:;

//---------------dance-single - ----------------
#NOTES:
     dance-single:
     :
     Beginner:
     2:
     0.076029,0.120871,0.007496,0.007496,0.000000,71.000000,70.000000,1.000000,1.000000,0.000000,0.000000,0.076029,0.120871,0.007496,0.007496,0.000000,71.000000,70.000000,1.000000,1.000000,0.000000,0.000000:
0000
0000
0000
0000
,
0000
0000
0000
0000
,
0000
0000
0000
0000
,
0000
0000
0000
0000
,
0000
0000
0001
0000
,
0000
0000
0000
0001
,
0000
0000
0001
0000
,
0000
0000
1000
0000
,
0000
0000
0100
0000
,
0100
0000
0100
0000
,
0000
0000
0010
0000
,
0010
0000
0010
0000
,
0000
0000
0001
0000
,
0001
0000
0001
0000
,
0000
0000
1000
0000
,
1000
0000
1000
0000
,
0000
0000
0010
0000
,
0000
0000
0100
0000
,
0000
0000
0010
0000
,
0000
0000
0100
0000
,
0000
0000
0001
0000
,
0000
0000
0001
0000
,
0000
0000
1000
0000
,
0000
1000
0000
0001
,
0000
1000
0000
0100
,
0000
0100
0000
0000
,
0000
0000
0010
0000
,
0010
0000
0000
0000
,
0000
0001
0000
1000
,
0000
0100
0000
0100
,
0000
0100
0000
0000
,
0000
0000
0000
0000
,
0000
0000
0001
0001
,
0000
0000
0000
0000
,
0000
0000
1000
1000
,
0000
0000
0000
0000
,
0000
0000
0010
0010
,
0000
0000
0100
0000
,
0100
0000
0100
0000
,
0000
0000
0000
0000
,
0000
0000
2000
0000
,
0000
3000
0000
0000
,
0000
0000
0000
0000
,
0000
0000
0000
0000
,
0000
0000
0001
0000
,
0000
0000
0001
0000
,
0000
0000
1000
0000
,
0000
0000
1000
0000
,
0000
0000
0100
0000
,
0000
0000
0100
0000
,
0000
0000
0010
0000
,
0000
0000
0010
0000
,
0000
0000
0001
0001
,
0000
0000
0000
0000
,
0000
0000
0100
0100
,
0000
0000
0000
0000
,
0000
0000
0010
0010
,
0000
0100
0000
0000
,
0100
0000
0100
0000
,
0000
0000
0010
0010
,
0000
0000
1000
0000
,
0000
0000
0001
0000
,
0001
0000
1000
0000
,
1000
0000
0000
0000
,
0000
0000
1001
0000
;

//---------------dance-single - ----------------
#NOTES:
     dance-single:
     :
     Easy:
     4:
     0.158484,0.221784,0.022488,0.194892,0.000000,148.000000,145.000000,3.000000,26.000000,0.000000,0.000000,0.158484,0.221784,0.022488,0.194892,0.000000,148.000000,145.000000,3.000000,26.000000,0.000000,0.000000:
0000
0000
0000
0000
,
0000
0000
0000
0000
,
0000
0000
0000
0000
,
0000
0000
0000
0000
,
0000
0000
2000
0010
,
0010
3010
0000
0100
,
0000
0100
0002
0010
,
0010
0013
0000
0001
,
0000
0001
0000
1000
,
0000
1000
0000
0100
,
0000
0100
2000
3100
,
0002
0103
2000
3010
,
0002
0013
1000
0100
,
0000
0010
0000
0001
,
0000
0001
0002
0103
,
2000
3100
0002
0013
,
2000
0000
3010
0000
0001
0000
0000
0001
,
0000
0001
0000
0001
,
0000
0000
0000
0000
1000
0000
0000
1000
,
0000
1000
0000
1000
,
1000
0100
0000
0100
,
0000
0010
0000
0010
,
0000
0001
2000
3100
,
0002
0103
2000
3100
,
0002
0103
1000
1000
,
0000
0001
0000
0001
,
0000
0100
0001
0001
,
0000
0010
0000
0010
,
0000
0001
0001
0001
,
0000
0001
0200
0310
,
0200
0310
0200
0310
,
0000
1000
0001
1000
,
0000
0000
0100
0100
,
0000
0010
0000
0010
,
0000
0001
1000
1000
,
0000
0100
0000
0010
,
0000
0001
1000
1000
,
0000
0001
0200
0300
,
0200
0300
0100
0100
,
0000
0001
1000
0001
,
0000
0000
2002
0000
,
3003
0000
0000
0000
,
0000
0000
0000
0000
,
0000
0000
0000
0000
,
0000
0000
1000
0000
,
0000
0000
0100
0000
,
0000
0000
0010
0000
,
0000
0000
0001
0000
,
0000
0000
1000
0000
,
0100
0000
0010
0000
,
0001
0000
1000
0000
,
0100
0000
0010
0001
,
1000
0110
0100
0100
,
0000
0001
0000
0001
,
0000
1000
0100
0100
,
0000
0010
0000
0010
,
0000
0001
0100
0100
,
0000
0010
0000
0100
,
0000
0010
1000
1000
,
0000
0000
0001
0001
,
0000
0000
0200
0300
,
0001
0001
0000
2000
,
3000
0010
0010
0000
,
0200
0300
0001
0001
,
0000
0000
2002
0000
,
0000
0000
0000
3003
;

//---------------dance-single - ----------------
#NOTES:
     dance-single:
     :
     Hard:
     11:
     0.383360,0.494727,0.239867,0.232372,0.074959,358.000000,326.000000,32.000000,31.000000,0.000000,0.000000,0.383360,0.494727,0.239867,0.232372,0.074959,358.000000,326.000000,32.000000,31.000000,0.000000,0.000000:
0000
0000
0000
0000
,
0000
0000
0000
0000
,
0000
0000
0000
0000
,
0000
0000
0000
0000
,
0000
0000
2000
3010
,
0100
0001
0010
0100
0100
0000
1000
0000
,
0100
0011
0002
0103
,
1000
0100
0010
0100
0100
0000
0001
0000
,
0010
0100
1001
1000
,
0100
1000
0010
0000
0100
0000
0010
0000
,
1000
0000
0001
0000
0010
0000
0000
0000
0100
0000
0010
0000
0001
0000
0000
0001
,
0000
0000
0100
0000
0010
0000
0000
0010
0000
0000
1000
0000
0001
0000
0000
0001
,
0000
0000
0010
0000
0100
0000
0000
0100
0000
0000
0000
0000
1001
0000
0000
0000
,
0001
0100
0010
0000
0100
0000
0001
0000
,
0100
0000
0010
0000
1000
0000
0000
0000
0010
0000
0100
0000
0001
0000
0000
0001
,
0000
0000
0010
0000
0100
0000
0000
0100
0000
0000
1000
0000
0010
0000
0000
0010
,
0000
1000
0001
0000
2001
0000
0100
0000
,
0001
0000
3100
0000
1000
0010
0001
0000
,
0001
0010
1000
0000
0102
0000
1000
0000
,
0100
0000
1003
0000
1000
0100
0001
0000
,
0001
0100
1000
0000
0001
0000
0101
0000
,
0010
1000
1010
0000
0001
0000
0011
0000
,
1000
0000
0100
0000
1100
0000
0000
0000
0010
0000
0001
0000
0100
0000
0000
0100
,
0000
0000
0010
0000
1000
0000
0000
1000
0000
0000
0100
0000
0010
0000
0000
0010
,
0000
0000
0001
0000
1000
0000
0001
0100
0001
0000
0000
0000
0011
0000
0000
0000
,
0010
0100
1000
0020
0000
0130
0001
0020
,
0000
0001
0031
0000
0100
0000
1010
0000
,
0010
1000
0001
0020
0000
0130
1000
0002
,
0000
0100
0103
0000
0101
0000
1001
0000
,
0001
0100
1000
0200
0000
0301
1000
0200
,
0000
1300
0001
0200
0010
0000
0310
0000
,
1000
0001
0011
1100
,
1000
0000
0000
0000
0100
0000
1000
0100
1000
0000
0000
0000
1001
0000
0000
0000
,
0001
0010
1000
0020
0000
0031
0100
0020
,
0000
1000
1030
0000
0100
0000
1001
0000
,
1000
0100
0001
0200
0000
1300
0100
0020
,
0000
0001
0031
0000
0100
0000
0110
0000
,
0001
0100
0010
0200
0000
0301
1000
0200
,
0000
1300
0001
0200
0010
0000
0310
0000
,
1000
0001
1001
0110
,
0001
0000
0000
0000
1000
0100
0010
0001
2000
0000
0000
0000
0000
0000
0000
0000
,
0000
0000
0000
0000
0000
0000
3010
0020
,
0000
0000
0130
0200
0000
0000
0000
0000
,
0000
0000
0000
0000
,
0000
0000
0301
0001
,
1000
0000
1000
0001
1001
0000
0100
0000
,
0100
0000
0010
0100
0110
0000
0010
0000
,
1000
0000
0010
1000
1010
0000
0001
0000
,
0100
0000
0001
1000
1001
1000
0001
1000
,
0100
0000
1000
0000
0001
0000
1000
0100
1000
0000
0010
0000
0100
0000
0001
0000
,
0100
0000
0010
0000
0100
0000
0001
0010
0001
0000
1000
0000
0001
0000
0100
0000
,
0010
0000
1000
0000
0001
0000
0100
0010
0100
0000
0001
0000
0100
0000
1000
0000
,
0100
0000
0001
1000
0001
0000
0000
0000
0101
0000
0000
0000
1100
0000
0000
0000
,
1000
0010
0100
0020
0000
1030
0010
0200
,
0000
0301
0001
0100
0010
0000
1001
0000
,
1000
0100
0001
0200
0000
0310
0001
0200
,
0000
0001
0301
0000
0100
0000
1010
0000
,
0001
0010
0100
0200
0000
0001
0301
0200
,
0000
1000
1300
0200
0001
0000
0301
0000
,
0100
0000
1000
0010
0100
0010
1000
0000
,
1001
0000
0000
0000
0001
1000
0001
1000
0002
0000
0000
0000
0103
0000
0000
0000
,
0010
1000
0100
0010
0010
0000
0001
0000
,
0010
1100
0001
0010
,
1000
0010
0100
0010
0010
0000
0001
0000
,
0100
1001
0220
0000
,
0000
0000
0000
0000
,
0330
0000
0000
0000
;

//---------------dance-single - ----------------
#NOTES:
     dance-single:
     :
     Medium:
     8:
     0.260213,0.338438,0.179901,0.224876,0.000000,243.000000,219.000000,24.000000,30.000000,0.000000,0.000000,0.260213,0.338438,0.179901,0.224876,0.000000,243.000000,219.000000,24.000000,30.000000,0.000000,0.000000:
0000
0000
0000
0000
,
0000
0000
0000
0000
,
0000
0000
0000
0000
,
0000
0000
0000
0000
,
0000
0000
0002
1000
,
0100
0000
1003
0000
0100
0000
0010
0020
,
0000
0000
0130
0200
0000
0000
0310
0000
,
1000
0100
1000
0010
,
0100
0001
0110
0010
,
0000
0010
1000
0001
,
1000
0000
0100
0000
0010
0010
0001
0000
,
0100
0000
0010
0000
1000
1000
0100
0000
,
1000
0001
1001
1000
,
0000
1000
0010
0100
,
0001
0000
1000
0000
0001
0001
1000
0000
,
0001
0001
0100
0000
0001
0001
0010
0000
,
0100
0000
0010
0000
0110
0000
0000
1001
,
0000
0110
0000
0000
,
0000
0000
0000
0000
1100
0000
0000
0011
,
0000
1100
0000
0000
,
0000
1000
0001
0100
,
0001
0100
0010
1000
,
0001
0000
1000
0000
0100
0100
1000
0000
,
0100
0100
0001
0000
0100
0100
1000
0000
,
0010
0110
1001
1000
,
0100
1000
0002
0103
,
0002
0013
0110
1001
,
1000
0100
2000
3010
,
2000
3100
1000
0001
,
1000
0100
0001
0200
0000
0000
0300
0200
,
0000
0000
0300
0200
0000
0000
0300
0000
,
0000
1000
0001
1001
,
0000
0000
0011
1100
,
1000
0001
0200
0310
,
0200
0301
0100
0010
,
1000
0001
2000
3100
,
2000
3010
0100
0001
,
0001
0100
1000
0200
0000
0000
0300
0200
,
0000
0000
0300
0200
0000
0000
0300
0000
,
0010
0001
0100
0110
,
0000
0000
2000
0000
,
0000
0000
0000
0000
0000
0000
3001
0002
,
0000
0000
0013
0020
0000
0000
0000
0000
,
0000
0000
0000
0000
,
0030
0000
1000
0100
,
0001
0100
1000
0010
,
0001
0010
1001
0100
,
1000
0100
0001
0010
,
1000
0010
1001
0001
,
0100
0000
0010
0100
0010
0000
1000
0000
,
0100
0000
1000
0001
1000
0000
1000
0000
,
0010
0000
0100
0001
0100
0000
0010
0000
,
1000
0000
0001
1000
1001
0000
1001
0000
,
0001
1000
0020
0130
,
0020
1030
1000
0100
,
0010
0001
0200
0310
,
0200
0301
1001
1001
,
1000
0100
0001
0200
0000
0000
0300
0200
,
0000
0000
0300
0200
0000
0000
0300
0000
,
0000
0010
0001
0100
,
0110
1000
0002
0100
,
1000
0000
0103
0000
0001
0000
1000
2000
,
0000
0000
3100
0200
0000
0000
0310
0000
,
0001
0100
1000
0100
,
0001
0010
1001
0000
;

//---------------dance-double - ----------------
#NOTES:
     dance-double:
     :
     Hard:
     11:
     0.388714,0.494727,0.209884,0.247363,0.074959,363.000000,335.000000,28.000000,33.000000,0.000000,0.000000,0.388714,0.494727,0.209884,0.247363,0.074959,363.000000,335.000000,28.000000,33.000000,0.000000,0.000000:
// measure 0
00000000
00000000
00000000
00000000
,  // measure 1
00000000
00000000
00000000
00000000
,  // measure 2
00000000
00000000
00000000
00000000
,  // measure 3
00000000
00000000
00000000
00000000
,  // measure 4
00000000
00000000
00000000
00000000
10000000
01000000
00010000
00000000
,  // measure 5
00001000
00000100
00000001
00000000
00000002
00000000
00000013
00000000
,  // measure 6
00000200
00000000
00001300
00000000
00000020
00010000
00010030
00000000
,  // measure 7
00001000
00010000
00001000
00000000
02000000
00100000
03100000
00000000
,  // measure 8
00100000
10000000
01000000
00100000
10010000
00000000
10000000
00000000
,  // measure 9
00100000
01000000
00100000
00000000
00010000
00000000
00001000
00000000
,  // measure 10
00000010
00000000
00000100
00000000
00000010
00000000
00000000
00000000
00000001
00000000
00000100
00000000
00000010
00000000
00000000
00000010
,  // measure 11
00000000
00000000
00000100
00000000
00001000
00000000
00000000
00001000
00000000
00000000
00010000
00000000
01000000
00000000
00000000
01000000
,  // measure 12
00000000
00000000
10000000
00000000
00100000
00000000
00000000
00100000
00000000
00000000
10000000
00000000
10010000
00000000
00000000
00000000
,  // measure 13
10000000
01000000
00100000
00000000
00001000
00000000
00010000
00000000
,  // measure 14
00001000
00000000
00000100
00000000
00000010
00000000
00000000
00000000
00001000
00000000
00000100
00000000
00010000
00000000
00000000
00010000
,  // measure 15
00000000
00000000
00001000
00000000
01000000
00000000
00000000
01000000
00000000
00000000
00010000
00000000
00100000
00000000
00000000
00100000
,  // measure 16
00000000
01000000
10000000
00000000
00210000
00000000
00001000
00000000
,  // measure 17
00010000
00000000
00301000
00000000
00010000
00001000
00000100
00000000
,  // measure 18
00000010
00001000
00000001
00000000
00001020
00000000
00001000
00000000
,  // measure 19
00010000
00000000
00001030
00000000
00000001
00000010
00001000
00000000
,  // measure 20
00010000
01000000
10000000
00000000
00100000
00000000
10010000
00000000
,  // measure 21
00010000
01000000
01010000
00000000
00001000
00000000
00101000
00000000
,  // measure 22
00000010
00000000
00000100
00000000
00000110
00000000
00000000
00000000
00001000
00000000
00000001
00000000
00000010
00000000
00000000
00000010
,  // measure 23
00000000
00000000
00001000
00000000
00000010
00000000
00000000
00000010
00000000
00000000
00000001
00000000
00000100
00000000
00000000
00000100
,  // measure 24
00000000
00000000
00001000
00000000
00010000
00000000
00001000
00010000
00001000
00000000
00000000
00000000
00110000
00000000
00000000
00000000
,  // measure 25
00100000
01000000
10000000
00200000
00000000
00310000
00001000
00200000
,  // measure 26
00000000
00310000
00010000
00000000
01000000
00000000
10010000
00000000
,  // measure 27
10000000
00100000
00010000
00200000
00000000
01300000
00001000
00200000
,  // measure 28
00000000
00301000
00001000
00000000
00011000
00000000
00010100
00000000
,  // measure 29
00000010
00000001
00000010
00000200
00000000
00001300
00000010
00000200
,  // measure 30
00000000
00000301
00000010
00000200
00010000
00000300
00010000
00000000
,  // measure 31
00001000
00000000
00010000
00001000
00100000
00000000
10010000
00000000
,  // measure 32
00101000
00000000
00000000
00000000
00001000
00000000
00100000
00001000
00100000
00000000
00000000
00000000
00011000
00000000
00000000
00000000
,  // measure 33
00010000
00001000
00000100
00000020
00000000
00001030
00000001
00000200
,  // measure 34
00000000
00001000
00001300
00000000
00000100
00000000
00001001
00000000
,  // measure 35
00000001
00000100
00000010
00002000
00000000
00003100
00010000
00200000
,  // measure 36
00000000
10000000
10300000
00000000
01010000
00000000
10010000
00000000
,  // measure 37
10000000
01000000
00100000
02000000
00000000
03010000
00001000
00000200
,  // measure 38
00000000
00001300
00010000
02000000
00100000
00000000
03100000
00000000
,  // measure 39
00010000
00000000
10000000
00010000
00010000
00000000
10100000
00000000
,  // measure 40
10010000
00000000
00000000
00000000
10000000
01000000
00100000
00010000
00200000
00000000
00000000
00000000
00000000
00000000
00000000
00000000
,  // measure 41
00000000
00000000
00000000
00000000
00000000
00000000
00301000
00002000
,  // measure 42
00000000
00000000
00013000
00020000
00000000
00000000
00000000
00000000
,  // measure 43
00000000
00000000
00000000
00000000
,  // measure 44
00000000
00000000
00031000
00000100
,  // measure 45
00000001
00000000
00000010
00001000
00010000
00000000
01000000
00000000
,  // measure 46
10000000
00000000
00100000
00010000
00001000
00000000
00000100
00000000
,  // measure 47
00000001
00000000
00000010
00001000
00010000
00000000
01000000
00000000
,  // measure 48
10000000
00000000
00010000
10000000
01000000
00100000
01000000
00010000
,  // measure 49
01000000
00000000
10000000
00000000
01000000
00000000
10000000
00010000
10000000
00000000
00010000
00000000
00100000
00000000
00001000
00000000
,  // measure 50
00100000
00000000
00010000
00000000
00100000
00000000
00001000
00010000
00001000
00000000
00000100
00000000
00000010
00000000
00000100
00000000
,  // measure 51
00001000
00000000
00000100
00000000
00000001
00000000
00001000
00000001
00001000
00000000
00001000
00000000
00000100
00000000
00000100
00000000
,  // measure 52
00010000
00000000
00010000
00000100
00010000
00000000
00000000
00000000
00101000
00000000
00000000
00000000
00110000
00000000
00000000
00000000
,  // measure 53
00010000
00100000
01000000
00200000
00000000
00310000
00100000
02000000
,  // measure 54
00000000
13000000
10000000
01000000
00100000
00000000
00110000
00000000
,  // measure 55
00001000
01000000
00010000
00200000
00000000
00310000
00010000
02000000
,  // measure 56
00000000
00001000
03001000
00000000
00011000
00000000
00101000
00000000
,  // measure 57
00010000
00001000
00000100
00000200
00000000
00001300
00010000
02000000
,  // measure 58
00000000
03010000
00001000
00000200
00000010
00000000
00000310
00000000
,  // measure 59
00000010
00001000
00000100
00000010
00000100
00001000
00000010
00000000
,  // measure 60
00000100
00000000
00000000
00000000
00000010
00010000
00000010
00010000
00000020
00000000
00000000
00000000
00010030
00000000
00000000
00000000
,  // measure 61
00001000
00010000
00100000
00000000
10000000
01000000
00100000
00000000
,  // measure 62
00010000
00000000
11000000
00000000
00100000
00100000
00010000
00000000
,  // measure 63
01000000
00001000
01000000
00010000
00010000
00100000
01000000
00000000
,  // measure 64
10000000
01010000
00220000
00000000
,  // measure 65
00000000
00000000
00000000
00000000
,  // measure 66
00330000
00000000
00000000
00000000
;

//---------------dance-double - ----------------
#NOTES:
     dance-double:
     :
     Medium:
     8:
     0.261284,0.338438,0.179901,0.382289,0.000000,244.000000,220.000000,24.000000,51.000000,0.000000,0.000000,0.261284,0.338438,0.179901,0.382289,0.000000,244.000000,220.000000,24.000000,51.000000,0.000000,0.000000:
00000000
00000000
00000000
00000000
,
00000000
00000000
00000000
00000000
,
00000000
00000000
00000000
00000000
,
00000000
00000000
00000000
00000000
,
00000000
00000000
20000000
00010000
,
01000000
00000000
00010000
00000000
31000000
00000000
00100000
00200000
,
00000000
00000000
00301000
00002000
00000000
00000000
00013000
00000000
,
00001000
00000100
00000001
00000010
,
00000100
00001000
00001001
00000001
,
00000000
00000001
00000100
00001000
,
00010000
00000000
01000000
00000000
20000000
00010000
30010000
00000000
,
00010000
00000000
00001000
00000000
00002000
00000001
00003001
00000000
,
00000100
00000010
00000110
00000001
,
00000000
00000001
00000010
00001000
,
00010000
00000000
01000000
00000000
20000000
00010000
30010000
00000000
,
00010000
00000000
00001000
00000000
00002000
00000001
00003001
00000000
,
00000010
00000000
00000100
00000000
00000220
00000000
00000330
00000022
,
00000000
00000033
00002200
00000000
00000000
00003300
00000000
00000000
,
00000000
00000000
00022000
00033000
00202000
00000000
00303000
02200000
,
00000000
03300000
22000000
00000000
33000000
00000000
00000000
00000000
,
00000000
10000000
00100000
01000000
,
00001000
01000000
00010000
00100000
,
00001000
00000000
00001000
00000000
00000200
00000001
00000301
00000000
,
00000200
00000010
00000310
00000000
00000200
00001000
00001300
00000000
,
00010000
00101000
00110000
00010000
,
00100000
01000000
20000000
31000000
,
00020000
00031000
00011000
00010100
,
00000010
00000001
00000002
00000103
,
00002000
00013000
00100000
10000000
,
10000000
00100000
01000000
02000000
00000000
00000000
03000000
02000000
,
00000000
00000000
03000000
02000000
00000000
00000000
03000000
00000000
,
00000000
00010000
00001000
00011000
,
00000000
00000000
00000011
00001100
,
00001000
00000001
00000020
00001030
,
00020000
00031000
01000000
00100000
,
10000000
00010000
20000000
31000000
,
20000000
30100000
01000000
00010000
,
01000000
00001000
00010000
00000200
00000000
00000000
00000300
00000200
,
00000000
00000000
00000300
00000200
00000000
00000000
00000300
00000000
,
00000010
00000001
00000100
00000110
,
00000000
00000000
00000020
00000000
,
00000000
00000000
00000000
00000000
00000000
00000000
00010030
00020000
,
00000000
00000000
01030000
02000000
00000000
00000000
00000000
00000000
,
00000000
00000000
00000000
00000000
,
00000000
03000000
10000000
00100000
,
00010000
00001000
00000100
00000001
,
00000010
00001000
00010000
01000000
,
10000000
00100000
00010000
00001000
,
00000100
00000010
00001001
00000001
,
00000010
00000000
00000100
00000010
00000100
00000000
00001000
00000000
,
00010000
00000000
01000000
00100000
01000000
00000000
00100000
00000000
,
10000000
00000000
01000000
00010000
00001000
00000000
00001000
00010000
,
01000000
00000000
10000000
00010000
10010000
00000000
01001000
00000000
,
00001000
00010000
00000020
00000130
,
00000002
00001003
00000001
00000010
,
00000100
00001000
00020000
00130000
,
02000000
13000000
10010000
10010000
,
10000000
01000000
00010000
02000000
00000000
00000000
03000000
02000000
,
00000000
00000000
03000000
02000000
00000000
00000000
03000000
00000000
,
00000000
00010000
00000010
00000100
,
00000110
00000001
00002000
00000100
,
00010000
00000000
00003100
00000000
00000010
00000000
00000001
00000002
,
00000000
00000000
00000103
00000200
00000000
00000000
00000310
00000000
,
00001000
00100000
10000000
01000000
,
00010000
00100000
10010000
00000000
;

//---------------dance-double - ----------------
#NOTES:
     dance-double:
     :
     Easy:
     4:
     0.158484,0.222627,0.022488,0.194892,0.000000,148.000000,145.000000,3.000000,26.000000,0.000000,0.000000,0.158484,0.222627,0.022488,0.194892,0.000000,148.000000,145.000000,3.000000,26.000000,0.000000,0.000000:
00000000
00000000
00000000
00000000
,
00000000
00000000
00000000
00000000
,
00000000
00000000
00000000
00000000
,
00000000
00000000
00000000
00000000
,
00000000
00000000
20000000
01000000
,
01000000
31000000
00000000
00010000
,
00000000
00010000
00002000
00010000
,
00010000
00013000
00000000
00000100
,
00000000
00000100
00000000
00000001
,
00000000
00000001
00000000
00000010
,
00000000
00000010
00002000
00013000
,
00020000
00031000
02000000
03100000
,
00200000
01300000
10000000
01000000
,
00000000
00001000
00010000
00001000
,
00000000
00000100
00000200
00000310
,
00000020
00000130
00000002
00000103
,
00002000
00000000
00003100
00000000
00000001
00000000
00000000
00001000
,
00000000
00010000
00000000
10000000
,
00000000
00000000
00000000
00000000
00010000
00000000
00000000
00001000
,
00000000
00000001
00000000
00001000
,
00001000
00000100
00000000
00000000
,
00000000
00010000
00000000
00100000
,
00000000
10000000
20000000
31000000
,
00020000
01030000
20000000
30010000
,
00020000
00031000
00000001
00000001
,
00000000
00000100
00000000
00000100
,
00000000
00010000
00001000
00001000
,
00000000
00100000
00000000
00100000
,
00000000
00010000
00010000
00010000
,
00000000
10000000
02000000
03010000
,
02000000
13000000
02000000
03010000
,
00000000
00001000
00010000
00001000
,
00000000
00000000
00000100
00000100
,
00000000
00000010
00000000
00000010
,
00000000
00001000
00000001
00000001
,
00000000
00001000
00000000
00000100
,
00000000
00000010
00000001
00000100
,
00000000
00001000
02000000
03000000
,
02000000
03000000
01000000
01000000
,
00000000
00010000
10000000
00010000
,
00000000
00000000
00022000
00000000
,
00033000
00000000
00000000
00000000
,
00000000
00000000
00000000
00000000
,
00000000
00000000
00000000
00000000
,
00000000
00000000
10000000
00000000
,
00000000
00000000
01000000
00000000
,
00000000
00000000
00100000
00000000
,
00000000
00000000
00010000
00000000
,
00000000
00000000
00001000
00000000
,
00000100
00000000
00000010
00000000
,
00000001
00000000
00000100
00000000
,
00000010
00000000
00001000
00010000
,
01000000
01100000
10000000
10000000
,
00000000
00010000
00000000
00010000
,
00000000
10000000
00100000
00100000
,
00000000
00001000
00000000
00001000
,
00000000
00000100
00000010
00000010
,
00000000
00001000
00000000
00000001
,
00000000
00001000
00100000
00100000
,
00000000
00000000
10000000
10000000
,
00000000
00000000
02000000
03000000
,
00010000
00010000
00000000
00000200
,
00000300
00000010
00000010
00000000
,
00000002
00000003
00001000
00001000
,
00000000
00000000
00022000
00000000
,
00000000
00000000
00000000
00000000
,
00033000
00000000
00000000
00000000
;
