#TITLE:Good Time;
#SUBTITLE:;
#ARTIST:Owl City & Carly Rae Jepsen;
#TITLETRANSLIT:;
#SUBTITLETRANSLIT:;
#ARTISTTRANSLIT:;
#GENRE:;
#CREDIT:;
#BANNER:Good Time-bn.png;
#BACKGROUND:Good Time-bg.png;
#LYRICSPATH:;
#CDTITLE:;
#MUSIC:05 Good Time.mp3;
#OFFSET:-0.213639;
#SAMPLESTART:61.283012;
#SAMPLELENGTH:15.000000;
#SELECTABLE:YES;
#BPMS:0.000000=125.999992
;
#STOPS:
;
#BGCHANGES:0.000=Good Time.avi=1.000=0=0=1=====,
272.000=Good Time-bg.png=1.000=0=0=1=====,
99999=-nosongbg-=1.000=0=0=0 // don't automatically add -songbackground-
;
#KEYSOUNDS:;
#ATTACKS:;

//---------------dance-single - ----------------
#NOTES:
     dance-single:
     :
     Hard:
     11:
     0.410307,0.448166,0.256690,0.173439,0.083251,352.000000,37.000000,25.000000,0.000000,0.000000,0.000000,0.410307,0.448166,0.256690,0.173439,0.083251,352.000000,37.000000,25.000000,0.000000,0.000000,0.000000:
// measure 0
0000
0000
0000
0000
,  // measure 1
0000
0000
0000
0000
,  // measure 2
0000
0000
0000
0000
,  // measure 3
0000
0000
0000
0000
,  // measure 4
0000
0000
0000
0000
,  // measure 5
0000
0000
0000
0000
,  // measure 6
1000
0100
0010
0001
0010
0100
2000
0000
,  // measure 7
0000
0000
3000
1001
,  // measure 8
0101
0000
1010
0000
0110
0000
0001
1000
,  // measure 9
0020
0000
1030
0000
0001
1000
0200
0000
,  // measure 10
0310
0000
0011
0000
0101
0000
0001
1000
,  // measure 11
0200
0000
1300
0100
0010
0001
2000
0000
,  // measure 12
3001
0000
1010
0000
0110
0000
0100
0001
,  // measure 13
2000
0000
3100
0100
0010
0000
0001
0000
,  // measure 14
0100
0010
0100
0001
1000
0000
1001
0000
,  // measure 15
0001
0100
1000
0100
0001
0000
0011
0000
,  // measure 16
0001
0000
1001
0000
0110
0000
0010
1000
,  // measure 17
0200
0000
0310
0001
0001
0010
0200
0000
,  // measure 18
1300
0000
1010
0000
0101
0000
0001
0100
,  // measure 19
1000
0000
1000
0100
0001
0010
0020
0000
,  // measure 20
0130
0000
1001
0000
1100
0000
0001
1000
,  // measure 21
0002
0000
0103
0001
0020
0000
0130
1000
,  // measure 22
0010
0100
0001
1000
0001
0010
0100
1000
,  // measure 23
1000
0100
0001
0100
1000
0000
1001
0000
,  // measure 24
1000
0000
0000
0001
0100
0010
1000
0002
,  // measure 25
0000
0000
0000
2000
0000
0000
0000
0000
,  // measure 26
3003
0000
0000
0010
0100
0001
0100
0020
,  // measure 27
0000
0000
0000
2000
0000
0000
3030
0000
,  // measure 28
1000
1000
0001
0001
,  // measure 29
0100
0100
0010
0010
,  // measure 30
1000
0100
0010
0001
0100
0010
1000
0001
,  // measure 31
1000
0010
1000
0010
0100
0001
0100
0001
1000
0000
0000
0000
1001
0000
0000
0000
,  // measure 32
0001
0000
0100
0000
0010
0000
1000
0000
0010
0000
0000
0010
1000
0000
0000
1000
,  // measure 33
0001
0000
0000
0001
0100
0000
0000
0100
0001
0000
0000
0000
0011
0000
0000
0000
,  // measure 34
0010
0100
1000
0001
0010
0000
0011
0000
,  // measure 35
0001
0100
1000
0100
0001
0000
0201
0000
,  // measure 36
0301
0000
1000
0000
0010
0000
1000
0000
0001
0000
0000
0001
0100
0000
0000
0100
,  // measure 37
0010
0000
0000
0010
1000
0000
0000
1000
0100
0000
0000
0000
1100
0000
0000
0000
,  // measure 38
1000
0100
0001
0100
1000
0010
0010
0000
,  // measure 39
0010
0100
0001
1000
0001
0000
1001
0000
,  // measure 40
0001
0001
0010
0010
,  // measure 41
0100
0000
0100
0000
0000
1000
1000
0000
,  // measure 42
0010
0100
0001
0100
0010
0000
1010
0000
,  // measure 43
0010
0100
0002
1003
,  // measure 44
0001
0000
1100
0000
0011
0000
0001
0100
,  // measure 45
0010
0000
1000
0100
0010
0001
2000
0000
,  // measure 46
3001
0000
0101
0000
1010
0000
0010
1000
,  // measure 47
0001
0000
0100
0100
0001
0010
0200
0000
,  // measure 48
1300
0000
1010
0000
0110
0000
0010
1000
,  // measure 49
0001
0000
1000
0010
0001
0000
0001
0010
,  // measure 50
1000
0010
0100
0001
0010
0100
1000
0000
,  // measure 51
0010
0100
0010
0100
0001
0000
1010
0000
,  // measure 52
0010
0000
1000
0100
0010
0001
0010
0200
,  // measure 53
0000
0000
0000
0020
0000
0000
0000
0000
,  // measure 54
0330
0000
0001
0010
0100
1000
0001
0200
,  // measure 55
0000
0000
0000
0020
0000
0000
0000
0330
,  // measure 56
0100
0001
0100
0000
0010
1000
0010
0000
,  // measure 57
1000
0001
1000
0000
0100
0010
0100
0000
,  // measure 58
0010
0001
0010
0001
0100
0010
0100
0010
,  // measure 59
1000
0001
1000
0001
0100
0010
0100
0010
0100
0000
0000
0000
1001
0000
0000
0000
,  // measure 60
0001
0000
0100
0000
1000
0000
0100
0000
0001
0000
0000
0001
0100
0000
0000
0100
,  // measure 61
0010
0000
0000
0010
1000
0000
0000
1000
0100
0000
0000
0000
1100
0000
0000
0000
,  // measure 62
0100
1000
0010
0100
0001
0000
1001
0000
,  // measure 63
1000
0010
0001
0010
1000
0000
1010
0000
,  // measure 64
0001
0000
0100
0000
0010
0000
1000
0000
0010
0000
0000
0010
0001
0000
0000
0001
,  // measure 65
0010
0000
0000
0010
1000
0000
0000
1000
0100
0000
0000
0000
1100
0000
0000
0000
,  // measure 66
1000
0100
0010
0001
1000
1000
0001
0000
,  // measure 67
0001
0100
0010
0100
0001
0000
0202
0000
,  // measure 68
0303
0000
0000
0000
;

//---------------dance-single - ----------------
#NOTES:
     dance-single:
     :
     Medium:
     7:
     0.295342,0.377403,0.291377,0.048563,0.000000,249.000000,42.000000,7.000000,0.000000,0.000000,0.000000,0.295342,0.377403,0.291377,0.048563,0.000000,249.000000,42.000000,7.000000,0.000000,0.000000,0.000000:
0000
0000
0000
0000
,
0000
0000
0000
0000
,
0000
0000
0000
0000
,
0000
0000
0000
0000
,
0000
0000
0000
0000
,
0000
0000
0000
0000
,
0001
1000
0001
1000
0001
1000
0002
0000
,
0000
0000
0000
0003
,
1000
0100
0100
0010
,
0001
0100
0010
1001
,
0000
1000
0100
0001
,
0100
0100
1000
1010
,
0000
0010
0010
0100
,
0001
0010
0100
1001
,
1000
0100
0010
0001
,
0100
0010
0110
0110
,
0000
0100
0001
0100
,
0100
1000
1100
0101
,
0000
0001
0010
1000
,
0010
0010
0011
0101
,
0000
0001
0001
0100
,
0010
0010
1000
0001
,
1000
0100
0010
0001
1000
0100
0010
0000
,
0001
0001
1001
1001
,
0002
0000
0103
0000
,
0100
0000
0100
0000
,
0020
0000
1000
0000
,
1000
0000
1030
0000
,
1001
0001
0001
0001
,
1001
1000
1000
1000
,
1010
1010
0101
0101
,
0011
0011
1100
1001
,
0000
1000
0100
0010
,
0001
0100
0010
0110
,
1000
0100
0010
0001
,
1000
0001
1000
0010
0100
0000
0110
0000
,
0100
0100
0001
0001
,
0011
0101
1010
0000
,
0010
1000
0100
0010
,
0001
1000
0001
1000
0001
0000
1001
0000
,
0001
0001
0001
0001
,
0100
0100
0100
0100
,
0100
0010
0010
0010
,
0010
1000
0001
1001
,
0000
1000
0100
0001
,
0100
0100
0010
0001
,
0100
1000
0100
0100
,
0010
1000
0001
1001
,
1000
0010
0001
0010
,
0100
0100
0001
1000
,
0100
0010
0100
0010
0100
0010
0100
0000
,
0010
0001
1001
1001
,
0001
0100
1000
0100
,
0001
0100
1000
0100
,
0001
0010
1000
0010
,
0001
0010
1000
0010
,
0001
0001
1000
1000
,
0010
0010
0100
0100
,
0001
0100
0001
0100
0001
0100
0001
0000
,
1000
0100
1000
0100
1000
0000
1001
0000
,
1000
0010
0010
0100
,
0101
0011
2002
3003
,
1000
0100
1000
1010
,
0010
0000
0100
0001
0100
0000
0101
0000
,
0001
0010
0100
1000
,
1001
0110
2002
3003
,
1000
0000
0100
0000
0010
0001
0100
0000
,
0100
0010
1000
0001
1000
0000
1001
0000
,
1001
0000
0000
0000
;

//---------------dance-single - ----------------
#NOTES:
     dance-single:
     :
     Easy:
     5:
     0.185332,0.212289,0.090188,0.006938,0.000000,173.000000,13.000000,1.000000,0.000000,0.000000,0.000000,0.185332,0.212289,0.090188,0.006938,0.000000,173.000000,13.000000,1.000000,0.000000,0.000000,0.000000:
0000
0000
0000
0000
,
0000
0000
0000
0000
,
0000
0000
0000
0000
,
0000
0000
0000
0000
,
0000
0000
0000
0000
,
0000
0000
0000
0000
,
1000
1000
0001
0001
,
1001
0000
0000
0110
,
0000
0100
0100
0100
,
0001
0001
0010
0010
,
0000
0100
0100
0100
,
1000
1000
0010
0010
,
0000
0100
0100
0100
,
0001
0001
1000
0001
,
1001
0000
0000
1100
,
0001
1000
0100
0100
,
0000
0010
0010
0010
,
0001
0100
0010
0010
,
0000
1000
1000
1000
,
0001
1000
0100
0100
,
0000
0010
0001
0100
,
0001
0001
1000
0001
,
1001
0000
0000
0000
,
0100
0100
0100
0100
,
0010
0000
0000
0000
,
0000
0000
0000
0000
,
0000
0000
0000
0000
,
0000
0000
0000
0000
,
1000
1000
0100
0100
,
0010
0010
0001
0001
,
0100
1000
0100
0001
,
0010
0100
1000
1001
,
0000
1000
1000
1000
,
0001
0001
0001
0000
,
0100
0100
0100
0100
,
0010
0010
0010
0010
,
0000
1000
1000
0001
,
0100
0010
1000
0000
,
1000
0100
0010
0001
,
0100
0100
0010
1001
,
0000
0000
0000
0000
,
0000
0000
0000
0000
,
0000
0000
0000
0000
,
0000
0000
0000
1001
,
0001
0100
0100
0010
,
1000
1000
0001
0001
,
0000
1000
0100
0010
,
0001
0100
0100
0100
,
0000
0001
1000
0100
,
1000
0010
0100
0001
,
0200
0000
0000
0300
,
0010
0010
0010
1001
,
1000
0000
0000
0000
,
0000
0000
0000
0000
,
0001
0000
0000
0000
,
0000
0000
0000
0000
,
0100
0000
0010
0000
,
0100
0000
0010
0000
,
1000
0100
0001
0100
,
1000
0010
0100
0110
,
0000
0001
0001
1000
,
1000
0100
0010
0000
,
0001
0001
0100
0100
,
0010
1000
0001
1000
,
0000
0010
0010
1000
,
1000
0001
0001
0000
,
0100
0001
0101
0000
,
0010
1000
1010
0000
,
1001
0000
0000
0000
;
