#TITLE:Glowing;
#SUBTITLE:;
#ARTIST:Nikki Williams;
#TITLETRANSLIT:;
#SUBTITLETRANSLIT:;
#ARTISTTRANSLIT:;
#GENRE:;
#CREDIT:;
#BANNER:glowing-bn.png;
#BACKGROUND:Glowing-bg.png;
#LYRICSPATH:;
#CDTITLE:;
#MUSIC:tumblr_mf91n61hWX1riu0s6o1.mp3;
#OFFSET:0.250260;
#SAMPLESTART:60.866104;
#SAMPLELENGTH:15.000000;
#SELECTABLE:YES;
#BPMS:0.000000=125.999992
;
#STOPS:
;
#BGCHANGES:0.000=Glowing.avi=1.000=0=0=1=====,
99999=-nosongbg-=1.000=0=0=0 // don't automatically add -songbackground-
;
#KEYSOUNDS:;
#ATTACKS:;

//---------------dance-single - Chewi----------------
#NOTES:
     dance-single:
     Chewi:
     Medium:
     7:
     0.298889,0.351494,0.324295,0.000000,0.000000,169.000000,31.000000,0.000000,0.000000,0.000000,0.000000,0.298889,0.351494,0.324295,0.000000,0.000000,169.000000,31.000000,0.000000,0.000000,0.000000,0.000000:
0000
0000
0000
0000
,
0000
0000
0000
0000
,
0000
0000
0000
0000
,
0000
0000
0000
0000
,
0000
0000
0000
0000
,
0000
0000
0000
0000
,
0000
0000
0000
0000
,
0000
0000
0000
0000
,
0000
0100
0001
0010
,
0100
0000
1000
0000
0001
1000
0000
1000
,
0001
1000
0010
0010
,
0100
0100
0100
1001
,
1001
0000
0001
0000
1000
0100
1000
0000
,
0010
0000
0100
0000
0001
0100
0010
0000
,
1000
0000
0001
0000
0000
1000
0000
0000
,
0100
0010
0010
0010
,
0011
0000
0001
0000
0100
0001
0100
0000
,
0010
0000
1000
0000
0001
1000
0000
1000
,
0001
1000
0100
0010
,
0001
0001
1000
1000
,
1001
0000
0001
0000
0100
0010
1000
0000
,
1100
0000
1000
0000
0100
0010
0001
0000
,
1001
0000
0001
0000
0100
0000
0010
0100
,
0010
0000
1000
0000
0001
0000
1000
0001
,
1000
1000
1000
1000
,
1000
0001
0001
0001
,
0001
0100
0100
0100
,
0100
0010
0010
0010
,
0010
0000
1000
0010
1000
0000
0100
0001
,
0100
0000
1000
0010
1000
0000
0100
0001
,
0100
0000
1000
0010
0100
0001
0100
0010
,
1000
0001
1000
0010
0100
0010
0100
0000
,
0000
0000
1001
0000
0000
0101
0000
0000
,
0011
0001
0001
0001
,
1000
0000
1100
0000
0000
1010
0000
0000
,
1001
1000
0100
1000
,
1000
0000
0110
0000
0000
0101
0000
0000
,
0110
0010
1000
0001
,
1000
0000
1001
0000
0000
1010
0000
0000
,
0110
0100
0100
0100
,
0001
0000
1001
0000
0000
1010
0000
0000
,
1001
0001
1000
0001
,
0001
0000
0101
0000
0000
0011
0000
0000
,
1001
1000
0100
0001
,
0100
0000
1100
0000
0000
1010
0000
0000
,
1001
1000
0001
0001
,
0100
0000
0110
0000
0000
1001
0000
0000
,
1100
0100
0010
0001
,
1001
0000
0000
0000
;

//---------------dance-single - ----------------
#NOTES:
     dance-single:
     :
     Easy:
     4:
     0.254056,0.451921,0.198761,0.062767,0.000000,145.000000,19.000000,6.000000,0.000000,0.000000,0.000000,0.254056,0.451921,0.198761,0.062767,0.000000,145.000000,19.000000,6.000000,0.000000,0.000000,0.000000:
0000
0000
0000
0000
,
0000
0000
0000
0000
,
0000
0000
0000
0000
,
0000
0000
0000
0000
,
0000
0000
0000
0000
,
0000
0000
0000
0000
,
0000
0000
0000
0000
,
0000
0000
0000
0000
,
0000
1000
1000
0001
,
0000
0100
0001
0100
,
0000
0100
0100
0000
,
0010
0010
0000
1000
,
1000
0100
1000
0010
,
0100
0001
0100
0001
,
1000
0001
0000
1000
,
0000
0100
0000
0010
,
0010
0010
0001
0100
,
0000
0100
0001
1000
,
0000
1000
0100
0010
,
0001
0001
0100
0100
,
0010
1000
0100
0001
,
0100
0000
0100
1000
,
0010
0200
0000
0302
,
0000
2003
0000
3020
,
0000
0130
0100
0100
,
0100
0001
0001
0001
,
0001
1000
1000
1000
,
1000
0010
0010
0010
,
0010
0100
0101
0001
,
0101
1000
1100
1000
,
1100
1001
1001
0110
,
0110
1001
1001
2020
,
3030
0001
0100
0010
,
1000
1000
0001
1000
,
1001
1000
0100
0100
,
1000
0010
0100
0001
,
0101
0001
0100
0010
,
0100
0001
0001
1000
,
1001
1000
0100
1000
,
1000
0010
0100
0010
,
1001
1000
0100
0001
,
0100
0100
1000
0010
,
0110
0100
0001
0100
,
0001
1000
0100
0100
,
1001
1000
0010
0100
,
0100
0001
0010
0001
,
0011
0001
0001
1000
,
1000
1000
0001
0100
,
1001
0000
0000
0000
;

//---------------dance-single - ----------------
#NOTES:
     dance-single:
     :
     Hard:
     10:
     0.424423,0.401707,0.177839,0.073228,0.000000,260.000000,17.000000,7.000000,0.000000,0.000000,0.000000,0.424423,0.401707,0.177839,0.073228,0.000000,260.000000,17.000000,7.000000,0.000000,0.000000,0.000000:
// measure 0
0000
0000
0000
0000
,  // measure 1
0000
0000
0000
0000
,  // measure 2
0000
0000
0000
0000
,  // measure 3
0000
0000
0000
0000
,  // measure 4
0000
0000
0000
0000
,  // measure 5
0000
0000
0000
0000
,  // measure 6
0000
0000
0000
0000
,  // measure 7
0000
0000
0000
0000
,  // measure 8
0000
0001
0100
0010
,  // measure 9
1000
0000
0001
0000
1000
0100
0000
0100
,  // measure 10
2000
0000
3001
0000
0100
0001
0000
1000
,  // measure 11
0010
0100
0001
1000
0001
0010
0100
1000
,  // measure 12
0010
0100
0010
0000
0100
0001
0100
0010
,  // measure 13
1000
0000
1000
0100
0001
0100
1000
0000
,  // measure 14
0010
0010
0100
0000
0001
1000
0000
1000
,  // measure 15
0200
0010
0310
1001
,  // measure 16
0011
0000
0001
0000
1000
0100
1000
0000
,  // measure 17
0101
0000
0001
0000
0010
0100
0000
0100
,  // measure 18
0020
0000
0031
0000
1000
0001
0000
1000
,  // measure 19
0100
0010
0001
1000
0001
0100
0010
1000
,  // measure 20
0010
0100
0001
0000
0010
0100
1000
0000
,  // measure 21
2010
0000
3001
0100
0100
0001
0200
0000
,  // measure 22
0310
1000
0001
0000
0001
0100
0000
0001
,  // measure 23
0020
0130
1100
0011
,  // measure 24
1001
0000
0001
0100
1000
0100
0001
0010
,  // measure 25
0100
0000
0100
1000
0010
0001
0010
1000
,  // measure 26
0100
0000
0100
0100
0010
0001
1000
0001
,  // measure 27
1000
0000
1000
0001
1000
0100
0001
0100
,  // measure 28
1000
0000
1000
0100
0010
0001
0100
0010
,  // measure 29
1000
0001
1000
0010
0100
0010
1000
0100
,  // measure 30
0010
0001
0100
0100
0010
1000
0001
0100
,  // measure 31
0001
0001
1000
0100
0001
0100
2000
0000
,  // measure 32
3001
0000
0101
0100
0001
0100
0010
1000
,  // measure 33
0001
0001
0010
0100
1000
0010
0100
0000
,  // measure 34
1001
0000
1000
0100
0001
0100
1000
1000
,  // measure 35
0010
0100
0010
1000
0001
0100
0001
0000
,  // measure 36
0011
0000
0010
0100
1000
1000
0001
0010
,  // measure 37
1000
0010
0001
0100
0001
1000
0010
0000
,  // measure 38
0110
0000
0100
0001
0100
0010
1000
0010
,  // measure 39
1000
0001
0010
0010
0100
1000
0001
0000
,  // measure 40
1100
0000
1001
1000
0100
1000
0010
0001
,  // measure 41
0010
1000
0100
0100
1000
0001
0010
0000
,  // measure 42
0101
0000
0001
0001
0100
0010
0100
0001
,  // measure 43
1000
0100
0010
0010
0100
1000
0010
0000
,  // measure 44
1001
0000
0001
0010
1000
0010
0001
0001
,  // measure 45
0100
0010
1000
0100
1000
0010
0100
0000
,  // measure 46
0110
0000
0100
0001
0100
0010
1000
0100
,  // measure 47
0010
0001
1000
1000
0001
0100
0001
0000
,  // measure 48
1001
0000
0000
0000
;
