#TITLE:Düm Tek Tek;
#SUBTITLE:;
#ARTIST:Hadise;
#TITLETRANSLIT:;
#SUBTITLETRANSLIT:;
#ARTISTTRANSLIT:;
#GENRE:;
#CREDIT:;
#BANNER:Düm Tek Tek-banner.png;
#BACKGROUND:Düm Tek Tek-bg.png;
#LYRICSPATH:;
#CDTITLE:;
#MUSIC:Hadise - Dum Tek Tek.ogg;
#OFFSET:0.379835;
#SAMPLESTART:43.919621;
#SAMPLELENGTH:15.000000;
#SELECTABLE:YES;
#DISPLAYBPM:115.000000;
#BPMS:0.000000=115.000000
;
#STOPS:
;
#BGCHANGES:0.000=Düm Tek Tek.mp4=1.000=0=0=1=====,
228.000=Düm Tek Tek-bg.png=1.000=0=0=1=====,
99999=-nosongbg-=1.000=0=0=0 // don't automatically add -songbackground-
;
#KEYSOUNDS:;
#ATTACKS:;

//---------------dance-single - ----------------
#NOTES:
     dance-single:
     :
     Hard:
     12:
     0.458117,0.509032,0.138015,0.121778,0.369393,395.000000,378.000000,17.000000,15.000000,0.000000,0.000000,0.458117,0.509032,0.138015,0.121778,0.369393,395.000000,378.000000,17.000000,15.000000,0.000000,0.000000:
// measure 0
0000
0000
0000
0000
,  // measure 1
0000
0000
0000
0000
,  // measure 2
0000
0000
0000
0000
,  // measure 3
0000
0000
0000
0000
,  // measure 4
0000
0000
0000
0000
1000
0000
0000
1000
0000
0100
1000
0000
0010
0000
1000
0000
,  // measure 5
0010
0000
0100
0000
0001
0000
0000
0001
0000
0010
0001
0000
0100
0000
0001
0000
,  // measure 6
0010
0000
0000
0000
0100
0000
0000
0100
0000
0010
0100
0000
1000
0000
0010
0000
,  // measure 7
1000
0000
0001
0000
0010
0000
0000
0010
0000
0100
0010
0000
0001
0000
1000
0000
,  // measure 8
0001
0000
0000
0000
1000
0000
0000
1000
0100
0000
0010
0000
0001
0000
0000
0001
,  // measure 9
0100
0000
0010
0000
0100
0000
0000
0100
0010
0000
1000
0000
0010
0000
0000
0010
,  // measure 10
0100
0000
0001
0000
1000
0000
0000
1000
0001
0000
0100
0000
0010
0000
0000
0010
,  // measure 11
1000
0100
0002
0000
0203
0000
2300
0000
,  // measure 12
3000
0000
0000
0000
0010
0000
0000
0010
0100
0000
0001
0000
1000
0000
0000
1000
,  // measure 13
0100
0000
0010
0000
0100
0000
0000
0100
0010
0000
0001
0000
1000
0000
0000
1000
,  // measure 14
0010
0000
1000
0000
0010
0000
0000
0010
0100
0000
0001
0000
1000
0000
0000
1000
,  // measure 15
0001
0010
2000
0000
3020
0000
0032
0000
,  // measure 16
0003
0022
0033
2200
,  // measure 17
3300
0100
0220
0000
0330
0010
0022
0000
,  // measure 18
0033
0001
0101
0000
0000
0000
1001
0000
,  // measure 19
0000
0000
0000
0000
2000
0000
0000
0000
0000
0000
0000
0000
0001
0000
0000
0010
,  // measure 20
0000
0100
3100
0000
0000
0000
1000
0010
,  // measure 21
0001
0000
0100
0000
1000
0000
0010
1000
0000
0010
1000
0000
0100
0000
0001
0000
,  // measure 22
0100
0000
1000
0000
0010
0000
0100
0010
0000
0100
0010
0000
1000
0000
1001
0000
,  // measure 23
1001
0000
0000
0000
0001
0000
0010
0001
0000
0010
0001
0000
0100
0000
1000
0000
,  // measure 24
0100
0000
0001
0000
0010
0000
0100
0010
0000
0100
0010
0000
0001
0000
1000
0000
,  // measure 25
1001
0000
0000
0000
0010
0000
1000
0001
0000
1000
0001
0000
0010
0000
1000
0000
,  // measure 26
0010
0000
0001
0000
1000
0000
0010
1000
0000
0010
1000
0000
0010
0000
0110
0000
,  // measure 27
0110
0000
0000
0000
0010
0000
1000
0001
0000
1000
0001
0000
1000
0000
0010
0000
,  // measure 28
0001
0000
0010
0000
1000
0000
0010
0100
0000
0010
0100
0000
0010
0000
1000
0000
,  // measure 29
0001
0000
0000
0000
1000
0100
0000
1000
0000
0010
1000
0000
0001
0000
0001
0000
,  // measure 30
0001
0000
0100
0000
0010
1000
0000
0010
0000
0100
0010
0000
1000
0000
0001
0000
,  // measure 31
1000
0000
0000
0000
0001
0100
0000
0001
0000
0010
0001
0000
1000
0000
1000
0000
,  // measure 32
1000
0000
0100
0000
0010
0100
0000
1000
0000
0010
1000
0000
0100
0000
0010
0000
,  // measure 33
0001
0000
0000
0000
0001
0010
0000
0010
0000
0100
0010
0000
1000
0000
0010
0000
,  // measure 34
0001
0000
1000
0000
1000
0100
0000
0100
0000
0010
0100
0000
0001
0000
0100
0000
,  // measure 35
1000
0000
0000
0000
1000
0010
0000
0010
0000
0100
0010
0000
0001
0000
0010
0000
,  // measure 36
1000
0000
0001
0000
0100
0010
0000
0100
0000
0100
1000
0000
0100
0000
0001
0000
,  // measure 37
1000
0000
0000
0000
,  // measure 38
0000
0000
0000
0000
,  // measure 39
0000
0000
0000
0000
,  // measure 40
0000
0000
0000
0000
,  // measure 41
0000
0000
0000
0000
0010
0100
0010
0000
0100
0000
0001
0000
0010
0000
1000
0000
,  // measure 42
0010
0000
0001
0000
1000
0001
1000
0000
0001
0000
1000
0000
0100
0000
0001
0000
,  // measure 43
0100
0000
1000
0000
0010
1000
0010
0000
0100
0000
0001
0000
0100
0000
1000
0000
,  // measure 44
0100
0000
0001
0000
0010
0100
0010
0000
0001
0000
0010
0000
1000
0000
0010
0000
,  // measure 45
0001
0000
1000
0000
0100
0000
0010
0001
0000
0010
0001
0010
0001
0000
1000
0000
,  // measure 46
0100
0000
1000
0000
0100
0000
0010
0100
0000
0010
0100
0000
1000
0000
1001
0000
,  // measure 47
1001
0000
0000
0000
1000
0000
0010
1000
0000
0010
1000
0000
0100
0000
0001
0000
,  // measure 48
0100
0000
1000
0000
0010
0000
0100
0010
0000
0100
0010
0000
1000
0000
0001
0000
,  // measure 49
0010
0000
0000
0000
0010
0000
0100
0010
0000
0100
0010
0100
0010
0000
0001
0000
,  // measure 50
1000
0000
0100
0000
0010
0000
0100
1000
0000
0100
1000
0000
0010
0000
0110
0000
,  // measure 51
0110
0000
0000
0000
0001
0000
1000
0010
0000
1000
0010
0000
1000
0000
0010
0000
,  // measure 52
0001
0000
0010
0000
1000
0000
0001
0100
0000
0001
0100
0000
0010
0000
1000
0000
,  // measure 53
0001
0000
0000
0000
1000
0000
0001
0100
0000
0001
0100
0000
0001
0000
0100
0000
,  // measure 54
1000
0000
0100
0000
0001
0000
1000
0010
0000
1000
0010
0000
1000
0000
0100
0000
,  // measure 55
0010
0000
0000
0000
0001
0000
0010
0100
0000
0010
0100
0000
0010
0000
1000
0000
,  // measure 56
0010
0000
0001
0000
1000
0000
0100
1000
0000
0100
1000
0000
0010
0000
1001
0000
,  // measure 57
0110
0000
0000
0000
;

//---------------dance-single - ----------------
#NOTES:
     dance-single:
     :
     Medium:
     9:
     0.306185,0.323929,0.032474,0.105541,0.093363,264.000000,260.000000,4.000000,13.000000,0.000000,0.000000,0.306185,0.323929,0.032474,0.105541,0.093363,264.000000,260.000000,4.000000,13.000000,0.000000,0.000000:
0000
0000
0000
0000
,
0000
0000
0000
0000
,
0000
0000
0000
0000
,
0000
0000
0000
0000
,
0000
0000
0000
0000
1000
0000
0000
1000
0000
0000
0000
0000
0010
0000
0010
0000
,
0010
0000
0000
0000
1000
0000
0000
1000
0000
0000
0000
0000
0001
0000
0001
0000
,
0001
0000
0000
0000
0001
0000
0000
0001
0000
0000
0000
0000
1000
0000
1000
0000
,
1000
0000
0000
0000
0001
0000
0000
0001
0000
0000
0000
0000
0100
0000
0100
0000
,
0100
0000
0010
0010
0000
1000
0001
1000
,
0001
0000
0100
0000
0001
0000
0000
0001
0000
0000
0000
0000
0001
0000
0010
0000
,
0100
0000
1000
0000
0010
0000
0000
0010
0000
0000
0000
0000
1000
0000
0100
0000
,
0010
0001
0100
0000
0100
0000
0200
0000
,
0300
0000
0010
0010
0000
1000
0100
1000
,
0100
0010
0100
0000
0010
0000
0001
0100
,
0010
1000
0100
0100
0000
0010
0001
0010
,
0100
0010
0001
0000
0001
0000
0002
0000
,
0003
2000
3000
0002
,
0003
2000
3000
0002
,
0003
0001
1001
0000
0000
0000
1001
0000
,
0000
0000
0000
0000
0000
0000
0000
0000
0000
0000
0000
0000
1000
0000
0000
0100
,
0000
0010
0010
0000
0000
0000
0002
0000
,
0000
0000
0000
0003
0100
0000
0000
0100
0000
0000
0010
0000
1000
0000
0001
0000
,
0100
0000
0000
0000
0001
0000
0000
0001
0000
0000
0100
0000
0010
0000
0100
0000
,
0110
0000
0000
0000
1000
0000
0000
1000
0000
0000
0000
0000
0001
0000
0010
0000
,
0001
0000
1000
0000
0001
0000
0000
0001
0000
0000
0000
0000
0100
0000
0100
0000
,
0010
0000
0000
0000
0100
0000
0000
0100
0000
0000
0001
0000
0010
0000
1000
0000
,
0010
0000
0000
0000
0001
0000
0000
0001
0000
0000
1000
0000
0001
0000
1000
0000
,
1001
0000
0000
0000
0100
0000
0000
0100
0000
0000
0001
0000
0100
0000
1000
0000
,
0100
0000
0000
0000
0001
0000
0000
0001
0000
0000
0100
0000
0010
0000
1000
0000
,
0001
0000
0000
0000
0100
0000
0000
0001
0000
0000
0000
0000
0100
0000
0001
0000
,
0100
0000
0000
0000
0010
0000
0000
1000
0000
0000
0000
0000
0010
0000
1000
0000
,
0010
0000
0000
0000
1000
0000
0000
0001
0000
0000
0000
0000
1000
0000
0001
0000
,
1000
0000
0000
0000
0100
0000
0000
1000
0000
0000
0000
0000
0100
0000
1000
0000
,
0100
0000
0000
0000
1000
0000
0000
1000
0000
0000
0000
0000
0010
0000
0010
0000
,
0010
0000
0000
0000
0100
0000
0000
0100
0000
0000
0000
0000
0001
0000
0001
0000
,
0001
0000
0000
0000
1000
0000
0000
1000
0000
0000
0000
0000
0100
0000
0100
0000
,
0100
0000
0000
0000
0010
0000
0000
0010
0000
0000
0000
0000
0001
0000
0001
0000
,
0001
0000
0000
0000
,
0000
0000
0000
0000
,
0000
0000
0000
0000
,
0000
0000
0000
0000
,
0000
0000
1000
1000
1000
0000
0100
0010
,
1000
0000
0001
0001
0001
0000
0010
0001
,
0100
0000
0010
0010
0010
0000
0100
0001
,
1000
0000
1000
0100
1000
0000
0010
0010
,
0010
0000
0100
0000
0010
0001
1000
0001
,
0100
0000
0001
0000
0010
0100
2000
0100
,
3100
0000
1000
0100
0010
0100
1000
0000
,
0001
0001
0100
0000
0010
0000
2000
0100
,
0100
3000
0000
0000
0010
0000
0001
0000
1000
0000
0001
0000
0100
0000
0000
0000
,
0010
0100
1000
0000
0100
0000
0200
0010
,
0010
0300
0000
0000
0001
0000
0010
0000
0001
0000
1000
0000
0001
0000
0000
0000
,
0100
0001
0010
0000
0100
0000
2000
0001
,
3001
0000
1000
0100
1000
0010
1000
0000
,
0001
0000
0010
0001
1000
0000
0200
0010
,
0310
0000
0001
0010
0001
1000
0001
0000
,
1000
0000
0010
0010
0100
0000
0002
1000
,
1003
0000
0000
0000
;

//---------------dance-single - ----------------
#NOTES:
     dance-single:
     :
     Easy:
     6:
     0.179767,0.254516,0.016237,0.138015,0.000000,155.000000,153.000000,2.000000,17.000000,0.000000,0.000000,0.179767,0.254516,0.016237,0.138015,0.000000,155.000000,153.000000,2.000000,17.000000,0.000000,0.000000:
0000
0000
0000
0000
,
0000
0000
0000
0000
,
0000
0000
0000
0000
,
0000
0000
0000
0000
,
0000
0002
0000
0100
,
0103
2000
0000
0100
,
3100
0020
0000
0100
,
0130
0002
0000
1000
,
1003
1000
0000
0100
,
0000
0010
0010
0010
,
0000
0001
0000
0100
,
0000
0010
0010
0010
,
0000
1000
0000
0001
,
0001
0001
0000
0010
,
0000
0100
0100
0100
,
0000
1000
0001
1000
,
0000
0020
0000
0030
,
0000
0200
0000
0300
,
0000
0002
0000
0000
,
0003
0000
0000
0000
,
0000
0000
0000
2002
,
3003
0000
1000
0000
1000
0000
1000
0100
,
1000
0000
0001
0000
0001
0000
0001
0100
,
0001
0100
0100
0010
,
0010
1000
1000
0001
,
0001
0000
1000
0000
1000
0000
1000
0100
,
1000
0000
0001
0000
0001
0000
0001
0100
,
0001
0100
0100
0010
,
0010
1000
1000
0001
,
0001
0002
0000
0100
,
0103
2000
0000
0100
,
3100
0002
0000
0010
,
0013
2000
0000
0010
,
3010
1000
1000
1000
,
0000
0001
0001
0001
,
0000
0010
0010
0010
,
0000
0100
0100
0100
,
0000
0000
0000
0000
,
0000
0000
0000
0000
,
0000
0000
0000
0000
,
0000
0000
0000
0000
,
0000
2000
0000
0000
,
0000
3200
0000
0000
,
0000
0320
0000
0000
,
0000
0032
0000
0000
,
0000
0000
1003
0000
1000
0000
1000
0010
,
1000
0000
0001
0000
0001
0000
0001
0010
,
0001
0100
0100
0010
,
0010
1000
1000
0001
,
0001
0000
1000
0000
1000
0000
1000
0100
,
1000
0000
0001
0000
0001
0000
0001
0100
,
0001
0100
0100
0010
,
0010
1000
1000
0001
,
0001
1000
1000
0100
,
0100
0010
0010
0001
,
0001
0100
0100
0010
,
0010
1000
1000
0001
,
1001
0000
0000
0000
;

//---------------dance-single - ----------------
#NOTES:
     dance-single:
     :
     Beginner:
     3:
     0.111340,0.161254,0.000000,0.048711,0.000000,96.000000,96.000000,0.000000,6.000000,0.000000,0.000000,0.111340,0.161254,0.000000,0.048711,0.000000,96.000000,96.000000,0.000000,6.000000,0.000000,0.000000:
0000
0000
0000
0000
,
0000
0000
0000
0000
,
0000
0000
0000
0000
,
0000
0000
0000
0000
,
0000
1000
0000
0000
,
0000
0001
0000
0000
,
0000
1000
0000
0000
,
0000
0001
0000
0000
,
0000
0100
0000
0100
,
0000
0100
0000
0000
,
0000
0010
0000
0010
,
0000
0020
0000
0000
,
0030
0100
0000
0100
,
0000
0001
0000
0001
,
0000
1000
0000
1000
,
0000
0200
0000
0000
,
0300
0010
0000
0000
,
0000
0001
0000
0000
,
0000
1000
0000
0000
,
0000
0000
0000
0000
,
0000
0000
0000
0000
,
0000
1000
1000
1000
,
0000
0001
0001
0001
,
0000
0100
0100
0100
,
0000
0010
0010
0010
,
0000
1000
0000
1000
,
0000
0001
0000
0001
,
0000
0100
0000
0100
,
0000
0010
0000
0010
,
0000
1000
1000
1000
,
0000
0100
0100
0100
,
0000
0010
0010
0010
,
0000
0001
0001
0001
,
0000
0100
0000
0100
,
0000
0010
0000
0010
,
0000
1000
0000
1000
,
0000
0001
0000
0001
,
0000
0000
0000
0000
,
0000
0000
0000
0000
,
0000
0000
0000
0000
,
0000
0000
0000
0000
,
0000
2000
0000
3000
,
0000
0002
0000
0003
,
0000
2000
0000
3000
,
0000
0002
0003
0000
,
0000
0100
0100
0100
,
0000
0010
0010
0010
,
0000
1000
1000
1000
,
0000
0001
0001
0001
,
0000
0010
0000
0010
,
0000
0100
0000
0100
,
0000
0010
0000
0010
,
0000
1000
0000
1000
,
0000
0001
0001
0001
,
0000
1000
1000
1000
,
0000
0010
0010
0010
,
0000
0100
0100
0100
;

//---------------dance-double - ----------------
#NOTES:
     dance-double:
     :
     Hard:
     12:
     0.460437,0.509032,0.154252,0.121778,0.369393,397.000000,378.000000,19.000000,15.000000,0.000000,0.000000,0.460437,0.509032,0.154252,0.121778,0.369393,397.000000,378.000000,19.000000,15.000000,0.000000,0.000000:
00000000
00000000
00000000
00000000
,
00000000
00000000
00000000
00000000
,
00000000
00000000
00000000
00000000
,
00000000
00000000
00000000
00000000
,
00000000
00000000
00000000
00000000
00100000
00000000
00000000
00100000
00000000
01000000
00010000
00000000
00100000
00000000
00001000
00000000
,
00010000
00000000
00000100
00000000
00001000
00000000
00000000
00001000
00000000
00000100
00000010
00000000
00000001
00000000
00000100
00000000
,
00000010
00000000
00000000
00000000
00000100
00000000
00000000
00000100
00000000
00000010
00001000
00000000
00000100
00000000
00010000
00000000
,
00001000
00000000
00100000
00000000
00100000
00000000
00000000
00100000
00000000
00010000
00100000
00000000
01000000
00000000
10000000
00000000
,
01000000
00000000
00000000
00000000
10000000
00000000
00000000
00100000
01000000
00000000
00010000
00000000
10000000
00000000
00000000
01000000
,
00100000
00000000
00010000
00000000
10000000
00000000
00000000
00010000
10000000
00000000
00010000
00000000
01000000
00000000
00000000
00100000
,
10000000
00000000
00010000
00000000
10000000
00000000
00000000
10000000
00010000
00000000
01000000
00000000
00100000
00000000
00000000
01000000
,
00010000
10000000
02000000
00000000
03020000
00000000
00032000
00000000
,
00003100
00000000
00000000
00000000
00000001
00000000
00000000
00000010
00000100
00000000
00001000
00000000
00000001
00000000
00000000
00000100
,
00000010
00000000
00000100
00000000
00000001
00000000
00000000
00001000
00000100
00000000
00001000
00000000
00000001
00000000
00000000
00000010
,
00000001
00000000
00000100
00000000
00000010
00000000
00000000
00001000
00000001
00000000
00000100
00000000
00000010
00000000
00000000
00000100
,
00000001
00000010
00002000
00000000
00023000
00000000
02030000
00000000
,
03000000
20200000
30300000
02002000
,
03003000
00001000
00022000
00000000
00033000
00001000
00002020
00000000
,
00003030
00000010
00000011
00000000
00000000
00000000
00001001
00000000
,
00000000
00000000
00000000
00000000
00000000
00000000
00000000
00000000
00000000
00000000
00000000
00000000
00000011
00000000
00000000
00001100
,
00000000
00010000
00020000
00000000
00000000
00000000
00031000
00100000
,
10000000
00000000
00100000
00000000
00010000
00000000
01000000
00001000
00000000
01000000
00001000
00000000
00010000
00000000
00010000
00000000
,
00001000
00000000
00010000
00000000
00001000
00000000
00000100
00000010
00000000
00000100
00000010
00000000
00001000
00000000
00001001
00000000
,
00001001
00000000
00000000
00000000
00000001
00000000
00000010
00000001
00000000
00000010
00000001
00000000
00000100
00000000
00001000
00000000
,
00010000
00000000
00010000
00000000
00001000
00000000
00010000
00000100
00000000
00010000
00000100
00000000
00010000
00000000
01000000
00000000
,
01100000
00000000
00000000
00000000
00100000
00000000
00010000
10000000
00000000
00010000
10000000
00000000
00100000
00000000
00010000
00000000
,
00100000
00000000
10000000
00000000
00010000
00000000
00100000
00001000
00000000
00100000
00001000
00000000
00100000
00000000
00110000
00000000
,
00110000
00000000
00000000
00000000
00001000
00000000
00010000
00000100
00000000
00010000
00000100
00000000
00000010
00000000
00001000
00000000
,
00000010
00000000
00000001
00000000
00000100
00000000
00000010
00000100
00000000
00000010
00000100
00000000
00001000
00000000
00010000
00000000
,
00100000
00000000
00000000
00000000
10000000
00100000
00000000
10000000
00000000
00100000
10000000
00000000
00010000
00000000
00010000
00000000
,
00010000
00000000
00100000
00000000
00001000
00010000
00000000
00001000
00000000
00010000
00001000
00000000
00000100
00000000
00000010
00000000
,
00001000
00000000
00000000
00000000
00000100
00010000
00000000
00000100
00000000
00010000
00000100
00000000
00001000
00000000
00001000
00000000
,
00001000
00000000
00000100
00000000
00000010
00000100
00000000
00000010
00000000
00000100
00000010
00000000
00000001
00000000
00001000
00000000
,
00000100
00000000
00000000
00000000
00010000
00001000
00000000
00010000
00000000
00001000
00100000
00000000
00010000
00000000
01000000
00000000
,
00010000
00000000
00100000
00000000
01000000
00100000
00000000
00100000
00000000
00010000
10000000
00000000
00010000
00000000
01000000
00000000
,
00100000
00000000
00000000
00000000
10000000
00100000
00000000
10000000
00000000
00100000
01000000
00000000
00010000
00000000
00100000
00000000
,
00100000
00000000
00010000
00000000
00100000
00001000
00000000
00010000
00000000
00001000
00010000
00000000
00001000
00000000
00000100
00000000
,
00000010
00000000
00000000
00000000
,
00000000
00000000
00000000
00000000
,
00000000
00000000
00000000
00000000
,
00000000
00000000
00000000
00000000
,
00000000
00000000
00000000
00000000
00000001
00001000
00000001
00000000
00000100
00000000
00001000
00000000
00010000
00000000
00100000
00000000
,
00010000
00000000
00001000
00000000
00010000
00001000
00010000
00000000
01000000
00000000
10000000
00000000
01000000
00000000
00010000
00000000
,
01000000
00000000
10000000
00000000
00100000
10000000
00100000
00000000
01000000
00000000
00010000
00000000
01000000
00000000
00100000
00000000
,
00010000
00000000
00001000
00000000
00010000
00001000
00010000
00000000
00001000
00000000
00000100
00000000
00000010
00000000
00001000
00000000
,
00000001
00000000
00000010
00000000
00000100
00000000
00001000
00000100
00000000
00001000
00000100
00001000
00000100
00000000
00010000
00000000
,
00100000
00000000
01000000
00000000
00010000
00000000
00100000
01000000
00000000
00100000
01000000
00000000
10000000
00000000
10010000
00000000
,
10010000
00000000
00000000
00000000
00010000
00000000
00100000
00001000
00000000
00100000
00001000
00000000
00010000
00000000
00001000
00000000
,
00000100
00000000
00000010
00000000
00001000
00000000
00000001
00001000
00000000
00000001
00001000
00000000
00000001
00000000
00000010
00000000
,
00000100
00000000
00000000
00000000
00010000
00000000
00001000
00010000
00000000
00001000
00010000
00001000
00010000
00000000
01000000
00000000
,
00100000
00000000
00010000
00000000
00100000
00000000
01000000
10000000
00000000
01000000
10000000
00000000
00100000
00000000
01100000
00000000
,
01100000
00000000
00000000
00000000
00010000
00000000
10000000
00100000
00000000
10000000
00100000
00000000
10000000
00000000
00100000
00000000
,
00010000
00000000
00001000
00000000
00000100
00000000
00000010
00000100
00000000
00000010
00000100
00000000
00000001
00000000
00001000
00000000
,
00001000
00000000
00000000
00000000
00000001
00000000
00001000
00000010
00000000
00001000
00000010
00000000
00000100
00000000
00001000
00000000
,
00010000
00000000
01000000
00000000
10000000
00000000
00100000
01000000
00000000
00100000
01000000
00000000
00010000
00000000
10000000
00000000
,
10000000
00000000
00000000
00000000
00100000
00000000
10000000
00010000
00000000
10000000
00010000
00000000
10000000
00000000
01000000
00000000
,
00010000
00000000
00001000
00000000
00000100
00000000
00000010
00000100
00000000
00000010
00000100
00000000
00000001
00000000
00000110
00000000
,
00001001
00000000
00000000
00000000
;

//---------------dance-double - ----------------
#NOTES:
     dance-double:
     :
     Medium:
     9:
     0.300386,0.347067,0.032474,0.170489,0.089304,259.000000,255.000000,4.000000,21.000000,0.000000,0.000000,0.300386,0.347067,0.032474,0.170489,0.089304,259.000000,255.000000,4.000000,21.000000,0.000000,0.000000:
00010000
00000000
00000000
00000000
,
00000000
00000000
00000000
00000000
,
00000000
00000000
00000000
00000000
,
00000000
00000000
00000000
00000000
,
00000000
00000000
00000000
00000000
10000000
00000000
00000000
10000000
00000000
00000000
00000000
00000000
00100000
00000000
00100000
00000000
,
00100000
00000000
00000000
00000000
00010000
00000000
00000000
00010000
00000000
00000000
00000000
00000000
00001000
00000000
00001000
00000000
,
00001000
00000000
00000000
00000000
00000010
00000000
00000000
00000010
00000000
00000000
00000000
00000000
00000001
00000000
00000001
00000000
,
00000001
00000000
00000000
00000000
00000100
00000000
00000000
00000100
00000000
00000000
00000000
00000000
00001000
00000000
00001000
00000000
,
00001000
00000000
00010000
00020000
00000000
01030000
10000000
00100000
,
01000000
00000000
00000000
00000000
00010000
00000000
00000000
00010000
00000000
00000000
00000000
00000000
00100000
00000000
00001000
00000000
,
00010000
00000000
00000100
00000000
00001000
00000000
00000000
00001000
00000000
00000000
00000000
00000000
00000001
00000000
00000010
00000000
,
00000100
00001000
00010000
00000000
00100000
00000000
02000000
00000000
,
03000000
00000000
00100000
00100000
00000000
00100000
00001000
00100000
,
00010000
00100000
00001000
00000000
00000010
00000000
00000001
00000100
,
00001000
00000000
00010000
00000000
00100000
00000000
10000000
01000000
,
00100000
00010000
00001000
00000000
00000100
00000000
00000020
00000000
,
00000030
00000002
00000000
00002003
,
00000000
00023000
00000000
20030000
,
00000000
30010000
10010000
00000000
00000000
00000000
00011000
00000000
,
00010000
00000000
00000000
00000000
00000000
00000000
00000000
00000000
00000000
00000000
00000000
00000000
00000001
00000000
00000000
00000010
,
00010000
00000100
00000100
00000000
00020000
00000000
00002000
00000000
,
00033000
00000000
01000000
00000000
00010000
00010000
00100000
10000000
,
00100000
00000000
00010000
00000000
00001000
00000000
00000000
00001000
00000000
00000000
00000100
00000000
00000010
00000000
00000100
00000000
,
00000110
00000000
00000000
00000000
00000010
00000000
00000000
00000001
00000000
00000000
00000001
00000000
00000010
00000000
00001000
00000000
,
00000010
00000000
00000001
00000000
00001000
00000000
00000000
00001000
00000000
00000000
00000000
00000000
00000100
00000000
00000100
00000000
,
00010000
00000000
00000000
00000000
01000000
00000000
00000000
01000000
00000000
00000000
10000000
00000000
00100000
00000000
00010000
00000000
,
00100000
00000000
00000000
00000000
10000000
00000000
00000000
10000000
00000000
00000000
00010000
00000000
10000000
00000000
00010000
00000000
,
10010000
00000000
00000000
00000000
00010000
00000000
00000000
00010000
00000000
00000000
01000000
00000000
10000000
00000000
01000000
00000000
,
00010000
00000000
00000000
00000000
00100000
00000000
00000000
00100000
00000000
00000000
00001000
00000000
00010000
00000000
00000100
00000000
,
00000010
00000000
00000000
00000000
00000001
00000000
00000000
00000001
00000000
00000000
00000000
00000000
00000010
00000000
00000100
00000000
,
00000010
00000000
00000000
00000000
00001000
00000000
00000000
00001000
00000000
00000000
00000000
00000000
00000010
00000000
00000001
00000000
,
00000100
00000000
00000000
00000000
00000010
00000000
00000000
00000010
00000000
00000000
00000000
00000000
00001000
00000000
00000100
00000000
,
00001000
00000000
00000000
00000000
00000100
00000000
00000000
00000100
00000000
00000000
00000000
00000000
00010000
00000000
00001000
00000000
,
01000000
00000000
00000000
00000000
00100000
00000000
00000000
00100000
00000000
00000000
00000000
00000000
20000000
00000000
01000000
00000000
,
31000000
00000000
00000000
00000000
00010000
00000000
00000000
00010000
00000000
00000000
00000000
00000000
01000000
00000000
00100000
00000000
,
01000000
00000000
00000000
00000000
10000000
00000000
00000000
10000000
00000000
00000000
00000000
00000000
00200000
00000000
00010000
00000000
,
00310000
00000000
00000000
00000000
00001000
00000000
00000000
00001000
00000000
00000000
00000000
00000000
00010000
00000000
00000100
00000000
,
00000010
00000000
00000000
00000000
,
00000000
00000000
00000000
00000000
,
00000000
00000000
00000000
00000000
,
00000000
00000000
00000000
00000000
,
00000000
00000000
00000002
00000100
00000103
00000000
00002000
00000100
,
00003100
00000100
00000001
00000010
,
00001000
00000000
00020000
01000000
01030000
00000000
20000000
01000000
,
31000000
10000000
00100000
00010000
,
00100000
00000000
10000000
00000000
01000000
00100000
00001000
00100000
,
01000000
00000000
10000000
00000000
01000000
00010000
00002000
00010000
,
00013000
00000000
00000100
00000010
00000001
00000010
00000100
00000000
,
00001000
00000000
00000010
00000000
00000100
00000000
00000002
00001000
,
00001003
00000000
00000001
00000100
00000010
00010000
00000010
00000000
,
00010000
00000000
01000000
00000000
00100000
00000000
02000000
00100000
,
00100000
03000000
00000000
00000000
00001000
00000000
00100000
00000000
00001000
00000000
01000000
00000000
00001000
00000000
00000000
00000000
,
01000000
00010000
00100000
00000000
01000000
00000000
20000000
00010000
,
30010000
00000000
10000000
01000000
00010000
00001000
00010000
00000000
,
00001000
00000000
00000010
00000000
00000001
00000000
00002000
00000001
,
00003001
00000000
00000001
00000100
00001000
00010000
00001000
00000000
,
00100000
00000000
10000000
00000000
00100000
00000000
00020000
10000000
,
10030000
00000000
00000000
00000000
;

//---------------dance-double - ----------------
#NOTES:
     dance-double:
     :
     Easy:
     6:
     0.186726,0.254516,0.016237,0.113659,0.000000,161.000000,159.000000,2.000000,14.000000,0.000000,0.000000,0.186726,0.254516,0.016237,0.113659,0.000000,161.000000,159.000000,2.000000,14.000000,0.000000,0.000000:
00000000
00000000
00000000
00000000
,
00000000
00000000
00000000
00000000
,
00000000
00000000
00000000
00000000
,
00000000
00000000
00000000
00000000
,
00000000
20000000
00000000
01000000
,
31000000
00020000
00000000
00001000
,
00031000
00000020
00000000
00000001
,
00000031
00000200
00000000
00001000
,
00001300
00010000
00000000
00001000
,
00000000
01000000
01000000
01000000
,
00000000
00100000
00000000
10000000
,
00000000
00100000
00100000
00100000
,
00000000
00010000
00000000
00001000
,
00001000
00001000
00000000
00000100
,
00000000
00000010
00000010
00000010
,
00000000
00001000
00000001
00001000
,
00000000
00000002
00000000
00000003
,
00000000
00000020
00000000
00000030
,
00000000
00002000
00000000
00003000
,
00020000
00000000
00030000
01000000
,
00000000
00000000
00000000
20020000
,
30030000
00000000
10000000
00000000
10000000
00000000
10000000
00100000
,
10000000
00000000
00010000
00000000
00010000
00000000
00010000
00100000
,
00010000
01000000
01000000
00001000
,
00001000
00000010
00000010
00000001
,
00000001
00000000
00001000
00000000
00001000
00000000
00001000
00000100
,
00001000
00000000
00000001
00000000
00000001
00000000
00000001
00000100
,
00000001
00000100
00000100
00000010
,
00000010
00001000
00001000
00000001
,
00000001
00000002
00000000
00000100
,
00000103
00002000
00000000
00010000
,
00013000
00020000
00000000
01000000
,
01030000
20000000
00000000
00100000
,
30100000
10000000
10000000
10000000
,
00000000
00010000
00010000
00010000
,
00000000
00001000
00001000
00001000
,
00000000
00000001
00000001
00000001
,
00000000
00000000
00000000
00000000
,
00000000
00000000
00000000
00000000
,
00000000
00000000
00000000
00000000
,
00000000
00000000
00000000
00000000
,
00000000
00000001
00000000
00000010
,
00000000
00001000
00000000
00010000
,
00000000
01000000
00000000
10000000
,
00000000
00100000
00000000
00010000
,
00000000
00000000
00001000
00000000
00001000
00000000
00001000
00010000
,
00001000
00000000
00010000
00000000
00010000
00000000
00001000
00010000
,
00001000
00000010
00000010
00000001
,
00000001
00000100
00000100
00000010
,
00000010
00000000
00010000
00000000
00010000
00000000
00010000
00001000
,
00010000
00000000
00001000
00000000
00001000
00000000
00001000
00010000
,
00001000
01000000
01000000
10000000
,
10000000
00100000
00100000
00010000
,
00010000
00001000
00001000
00000010
,
00000010
00000001
00000001
00000100
,
00000100
00001000
00001000
00010000
,
00010000
00100000
00100000
10000000
,
10010000
00000000
00000000
00000000
;
