#TITLE:Come and Get It;
#SUBTITLE:;
#ARTIST:Krewella;
#TITLETRANSLIT:;
#SUBTITLETRANSLIT:;
#ARTISTTRANSLIT:;
#GENRE:;
#CREDIT:;
#BANNER:Come and Get it-bn.png;
#BACKGROUND:Come and Get it-bg.png;
#LYRICSPATH:;
#CDTITLE:;
#MUSIC:03 Come & Get It.mp3;
#OFFSET:0.154595;
#SAMPLESTART:33.586086;
#SAMPLELENGTH:15.000000;
#SELECTABLE:YES;
#BPMS:0.000000=174.000000
;
#STOPS:
;
#BGCHANGES:;
#KEYSOUNDS:;
#ATTACKS:;

//---------------dance-single - ----------------
#NOTES:
     dance-single:
     :
     Medium:
     13:
     0.567142,0.938232,0.095204,0.352253,0.000000,370.000000,10.000000,37.000000,0.000000,0.000000,0.000000,0.567142,0.938232,0.095204,0.352253,0.000000,370.000000,10.000000,37.000000,0.000000,0.000000,0.000000:
0000
0000
0000
0000
,
0000
0000
0000
0000
,
0000
0000
0000
0000
,
0000
0000
0000
0000
,
0000
0000
0000
0000
,
0000
0000
0000
0000
,
0000
0000
0000
0000
,
0000
0000
0000
0000
,
0000
0000
0000
0000
,
1000
0100
0000
0001
,
0100
1000
0000
1000
,
0010
0001
0000
0001
,
0010
1000
0000
1000
,
0100
0001
0100
1000
,
0010
0100
0001
0100
,
0010
0100
0001
1000
,
0001
0100
0010
1000
0100
0100
0010
0010
,
1001
0000
0001
0000
0000
0100
0001
0000
,
1000
0000
0010
0000
0000
1000
0010
0000
,
1000
0000
0001
0000
0000
1000
0001
0000
,
1000
0000
0100
0000
0000
0010
0001
0000
,
0100
0000
0001
0000
0100
0010
0100
0000
,
0010
0000
1000
0000
0001
1000
0001
0000
,
1000
0100
0010
0001
1000
0001
1000
0100
,
0010
0010
0100
0100
1001
0000
0000
0000
,
0001
0100
0110
0010
,
1000
0001
0000
0101
0000
0001
0100
1000
,
0100
0000
0010
1000
0000
0100
1000
0001
,
0100
0000
0001
1000
0000
0010
0100
0010
,
0100
0000
0001
1000
0000
1000
0100
1000
,
0100
0000
0100
1000
0000
1000
0010
0100
,
0010
0000
0010
1000
0010
1000
0001
0100
,
0001
0001
1000
1000
0110
0000
0000
0000
,
0020
0000
1030
0001
1000
0001
2000
3002
,
0103
0010
0100
0010
0100
0010
0100
0010
,
0200
0320
1030
0100
1000
0100
1000
0100
,
1000
0010
0001
0010
1000
0100
0010
0001
,
2000
0000
3001
0100
0001
0100
0002
0203
,
0301
1000
0001
1000
0001
1000
0001
1000
,
0010
0010
0100
0100
0010
0000
0000
0000
,
0100
0100
0001
0001
0100
0001
0100
0010
,
2000
0000
3001
1000
0001
1000
0002
2003
,
3002
0103
0001
0100
0001
0200
0302
0203
,
0320
2030
3020
2030
3002
2003
3002
1003
,
0001
0010
1000
0010
0001
0100
0010
1000
,
0002
0000
0103
0001
0100
0001
0200
0302
,
0203
0301
1000
0001
1000
0002
2003
3002
,
0103
0001
0100
0010
,
1000
1000
0001
0001
1001
0000
0000
0000
,
1000
0100
0010
0001
,
0100
0000
0001
0000
0100
0010
0100
0010
,
1000
0001
1000
0100
,
1000
0000
0010
0000
0100
0001
0100
0001
,
1000
0100
1000
0010
,
1000
0000
0100
0000
0010
0001
0010
0001
,
1000
0001
0100
0010
,
1000
1000
0001
0001
1001
0000
0000
0000
,
0001
0000
1000
0100
0000
1000
0100
1000
,
0010
0000
0010
0100
0000
0100
0001
0100
,
0001
0000
0001
1000
0000
1000
0010
1000
,
0010
0000
0010
0100
0000
0100
0001
0100
,
0010
0000
0010
1000
0000
1000
0100
1000
,
0100
0000
0100
1000
0000
1000
0010
1000
,
0010
0010
0100
0100
,
0001
0001
1000
1000
0110
0000
0000
0000
,
2000
0000
3001
0100
0001
0100
0002
0203
,
0301
1000
0001
1000
0001
1000
0001
1000
,
0200
0320
0031
0100
0010
1000
0001
0100
,
0010
1000
0100
0001
0100
1000
0010
0100
,
0020
0000
0130
0001
0100
0010
2000
3002
,
1003
0100
1000
0100
1000
0100
1000
0010
,
1000
0000
0000
0001
0001
0000
0000
0000
,
0100
0100
0001
0001
1100
0000
0000
0000
,
0110
0000
0000
0000
;

//---------------dance-single - ----------------
#NOTES:
     dance-single:
     :
     Easy:
     7:
     0.368574,0.382243,0.047602,0.009520,0.000000,265.000000,5.000000,1.000000,0.000000,0.000000,0.000000,0.368574,0.382243,0.047602,0.009520,0.000000,265.000000,5.000000,1.000000,0.000000,0.000000,0.000000:
0000
0000
0000
0000
,
0000
0000
0000
0000
,
0000
0000
0000
0000
,
0000
0000
0000
0000
,
0000
0000
0000
0000
,
0000
0000
0000
0000
,
0000
0000
0000
0000
,
0000
0000
0000
0000
,
0000
0000
0000
0000
,
1000
0001
0000
0001
,
0100
0001
0000
0001
,
0100
0010
0000
1000
,
0100
0010
0000
0010
,
0100
1000
0000
1000
,
0001
0100
0000
0100
,
0001
1000
0010
1000
,
0100
0000
0010
0000
0001
0100
0010
0000
,
1000
0001
1000
0010
,
0100
0001
0100
0000
0001
0000
1000
0000
,
0001
1000
0010
0100
,
0001
1000
0001
0000
1000
0000
0100
0000
,
1000
0010
0100
0001
,
1000
0100
1000
0000
0001
0000
0100
0000
,
0010
1000
0100
0010
,
0001
1000
0001
1000
0001
0000
0000
0000
,
0001
0100
0001
0001
,
0100
0010
1000
1000
,
0100
1000
0010
0001
,
0010
1000
0100
0010
,
0001
0100
0001
0100
,
0010
1000
0100
1000
,
0001
0000
1000
0000
0010
0000
0100
0001
,
1000
0100
0010
0000
1001
0000
0000
0000
,
0002
0000
0103
0000
0001
0000
1000
0100
,
1000
0010
0100
0001
,
0100
0010
0100
0000
0010
0000
1000
0000
,
0001
0000
1000
0000
0100
0000
0010
0001
,
1000
0000
0001
0000
0100
0000
0010
1000
,
0100
1000
0100
1000
,
0010
0100
0001
0010
,
1000
0010
0001
0000
,
1000
0000
0100
0000
1000
0000
0010
0100
,
0010
0000
0100
0000
0001
0000
1000
0100
,
1000
0001
1000
0100
,
0010
0000
0001
0000
1000
0000
0001
0100
,
0010
0100
0001
0100
,
1000
0100
0001
0010
,
0100
1000
0001
1000
,
0010
0100
0001
0000
1000
0000
0000
0000
,
1000
0100
1000
0100
,
0001
0100
1000
0010
,
0100
0100
0001
0100
,
0100
0001
1000
0100
,
1000
0010
0001
0010
,
1000
0100
0100
0010
,
0001
0001
1000
1000
,
0001
1000
0001
0000
1000
0000
0000
0000
,
0010
0100
0010
0010
,
1000
0001
1000
0100
,
0010
0001
0100
0100
,
0001
1000
0100
1000
,
1000
0001
0010
0100
,
0010
0010
0001
0100
,
0001
0001
0100
0100
,
0110
1001
0110
0000
,
1000
0000
0100
0000
1000
0000
0100
1000
,
0100
1000
0001
0100
,
0001
0100
0001
0000
0100
0000
0001
0000
,
0100
0000
0010
0000
1000
0000
0001
1000
,
0001
0000
1000
0000
0100
0000
0010
0010
,
0001
0100
0001
0100
,
0010
1000
0001
1000
,
0100
0100
0010
0000
,
1001
0000
0000
0000
;

//---------------dance-single - ----------------
#NOTES:
     dance-single:
     :
     Hard:
     15:
     0.749389,0.972981,0.085683,0.552181,0.223729,484.000000,9.000000,58.000000,0.000000,0.000000,0.000000,0.749389,0.972981,0.085683,0.552181,0.223729,484.000000,9.000000,58.000000,0.000000,0.000000,0.000000:
// measure 0
0000
0000
0000
0000
,  // measure 1
0000
0000
0000
0000
,  // measure 2
0000
0000
0000
0000
,  // measure 3
0000
0000
0000
0000
,  // measure 4
0000
0000
0000
0000
,  // measure 5
0000
0000
0000
0000
,  // measure 6
0000
0000
0000
0000
,  // measure 7
0000
0000
0000
0000
,  // measure 8
0000
0000
0000
0000
,  // measure 9
1000
0000
0001
0000
0000
0100
0001
0000
,  // measure 10
0010
0000
0100
0000
0000
0000
1000
1000
,  // measure 11
0010
0000
0100
0000
0000
0010
0100
0000
,  // measure 12
0001
0000
1000
0000
0000
0010
1000
0010
,  // measure 13
0100
0000
0010
0000
0000
1000
0001
0000
,  // measure 14
0010
0000
0100
0000
0000
1000
0100
0010
,  // measure 15
0001
0000
0100
0001
1000
0001
0100
0100
,  // measure 16
0010
0000
1000
0000
0100
0000
0010
0000
0001
0010
0001
0010
0100
1000
0100
1000
,  // measure 17
0001
0100
1000
0100
0001
0100
0010
1000
,  // measure 18
0001
1000
0010
0001
0010
0100
0010
1000
,  // measure 19
0001
0000
0010
0000
0001
0000
0100
0000
1000
0000
0100
0000
0001
0000
1000
0100
,  // measure 20
1000
0010
0100
0001
1000
0100
0010
0001
,  // measure 21
0100
1000
0100
0010
0100
0001
1000
0001
,  // measure 22
0010
0100
1000
0010
1000
0100
1000
0001
,  // measure 23
1000
0100
0001
0100
1000
0010
0001
0010
,  // measure 24
1000
0001
1000
0100
1000
0010
0100
0001
0100
0000
0000
0000
0000
0000
0000
0000
,  // measure 25
0001
0000
0100
0001
0000
0001
1000
0010
,  // measure 26
0100
0000
0100
0001
0000
0001
0100
1000
,  // measure 27
0100
0000
0001
0010
0000
0100
1000
0010
,  // measure 28
0100
0000
0000
0000
0001
0000
0100
0000
0000
0000
0010
0000
1000
0000
0100
1000
,  // measure 29
0100
0000
1000
0001
0000
1000
0100
0001
,  // measure 30
0100
0000
1000
0010
0000
0100
0001
0010
,  // measure 31
1000
0000
0010
0000
0001
0000
0010
0001
0010
0001
0100
0010
0100
0000
0010
0000
,  // measure 32
0010
1000
0001
0100
0010
1000
0100
0010
0001
0000
0000
0000
0000
0000
0000
0000
,  // measure 33
2001
0000
3001
0100
0010
1000
0002
2003
,  // measure 34
3100
1000
0010
0001
0010
1000
0001
1000
,  // measure 35
0020
0230
0301
0010
0001
1000
0100
1000
,  // measure 36
0002
0203
2300
3002
0023
2030
3002
1003
,  // measure 37
1200
0000
0310
0001
0100
0010
2000
3002
,  // measure 38
0013
0000
0001
0000
0100
0000
1000
0000
0100
0000
0001
0000
0010
0000
0100
1000
,  // measure 39
0100
0010
0100
1000
0010
0100
0001
1000
0010
0000
0000
0000
0100
0000
0000
0000
,  // measure 40
0010
0100
0000
0100
0001
0000
1000
0000
0001
0000
0001
0000
1000
0000
1000
0000
,  // measure 41
2010
0000
3100
0001
0100
0010
0002
0203
,  // measure 42
2300
3100
0010
1000
0100
0002
0203
0320
,  // measure 43
0032
0000
2003
0000
3002
0000
0203
0000
0320
0000
0230
0000
0320
0000
1030
0001
,  // measure 44
2000
3200
0302
2003
3020
0032
0203
0301
,  // measure 45
0021
0000
0130
0100
1000
0010
0002
0023
,  // measure 46
0230
0301
1000
0100
0010
0002
0203
0320
,  // measure 47
1030
0100
1000
0010
0100
0001
0100
0001
,  // measure 48
1000
0010
1000
0001
0010
0100
1000
0001
1000
0000
0000
0000
0000
0000
0000
0000
,  // measure 49
1000
0010
0100
0010
1000
0100
0001
0100
,  // measure 50
1000
0010
0100
0001
0001
1000
0100
1000
,  // measure 51
0010
0000
0001
0000
0010
0000
0100
0000
0001
0000
0010
0000
0100
0000
1000
0001
,  // measure 52
1000
0100
1000
0010
0100
0001
1000
0100
,  // measure 53
0001
0100
0010
0001
1000
0010
1000
0001
,  // measure 54
0010
0010
0001
0100
0001
0001
1000
0001
,  // measure 55
0010
0001
0010
0100
1000
0100
1000
0010
,  // measure 56
0100
0001
0010
0100
1000
0001
1000
0100
1000
0000
0000
0000
0000
0000
0000
0000
,  // measure 57
1001
0000
0001
0100
0000
0100
0010
1000
,  // measure 58
0001
0000
1000
0100
0000
0001
0100
1000
,  // measure 59
0010
0000
0100
0010
0000
0100
0001
1000
,  // measure 60
0001
0000
0000
0000
1000
0000
0010
0000
0000
0000
0001
0000
0010
0000
1000
0100
,  // measure 61
1000
0000
0001
1000
0000
0100
0010
0001
,  // measure 62
0100
0000
0001
0100
0000
1000
0100
0001
,  // measure 63
0010
0000
0100
0000
0010
0000
0001
0010
0100
1000
0010
1000
0001
0000
1000
0000
,  // measure 64
0010
0100
0001
0010
0100
1000
0001
0100
0001
0000
0000
0000
0000
0000
0000
0000
,  // measure 65
2001
0000
3001
0010
1000
0010
0020
0230
,  // measure 66
1300
0001
1000
0100
0001
0100
0100
0010
,  // measure 67
0002
0203
0310
1000
0010
0100
0010
1000
,  // measure 68
0002
0023
2030
3002
0203
2300
3020
0130
,  // measure 69
0120
0000
1030
0010
0001
0010
0020
0230
,  // measure 70
0301
0010
0100
1000
0100
0010
0001
0001
,  // measure 71
1001
0000
0000
0000
0001
0000
1000
0100
1000
0000
0000
0000
0100
0000
1000
0000
,  // measure 72
0010
0100
0001
0100
0010
1000
0100
1000
0001
0000
0000
0000
0000
0000
0000
0000
,  // measure 73
1001
0000
0000
0000
;
