#TITLE:Closer;
#SUBTITLE:;
#ARTIST:Tegan and Sara;
#TITLETRANSLIT:;
#SUBTITLETRANSLIT:;
#ARTISTTRANSLIT:;
#GENRE:;
#CREDIT:;
#BANNER:closer-bn.png;
#BACKGROUND:closer-bg.png;
#LYRICSPATH:;
#CDTITLE:;
#MUSIC:Promo Modern Rock Radio (11-2012) - 12 - Tegan And Sara - Closer.mp3;
#OFFSET:0.242013;
#SAMPLESTART:36.397659;
#SAMPLELENGTH:15.000000;
#SELECTABLE:YES;
#BPMS:0.000000=137.000000
;
#STOPS:79.000000=1.300000,
206.000000=1.300000
;
#BGCHANGES:0.000=Closer.avi=1.000=0=0=1=====,
99999=-nosongbg-=1.000=0=0=0 // don't automatically add -songbackground-
;
#KEYSOUNDS:;
#ATTACKS:;

//---------------dance-single - ----------------
#NOTES:
     dance-single:
     :
     Hard:
     11:
     0.469643,0.448623,0.062322,0.327192,0.031161,372.000000,8.000000,42.000000,0.000000,0.000000,0.000000,0.469643,0.448623,0.062322,0.327192,0.031161,372.000000,8.000000,42.000000,0.000000,0.000000,0.000000:
0000
0000
0000
0000
,
0000
0000
0000
0000
,
0000
0000
0000
0000
,
0000
0000
0000
0000
,
0000
0000
0000
0000
,
0000
0000
0000
0000
,
0000
0000
0000
0000
,
0000
0000
0000
0000
,
0000
0000
1000
0000
0010
0000
0100
0010
,
0100
0000
0001
0000
0100
0000
0010
1000
,
0010
0000
1000
0000
0100
0000
1000
0001
,
1000
0010
0200
0302
,
2003
0000
3100
0000
1000
0000
0010
0100
,
0001
0000
1000
0000
0010
0000
0100
0001
,
0010
0000
0100
0000
1000
0000
0010
0100
,
0001
0100
0002
0023
,
0230
0000
1300
0010
1000
0001
1000
0010
,
0100
0100
0002
0000
0103
0010
1000
0100
,
1000
1000
0020
0000
1030
0000
0010
0100
,
0001
0010
1000
0010
0001
0100
0101
0000
,
1010
0000
1000
0000
0001
1000
0000
0100
,
0010
0000
0001
1000
0100
0100
0020
0000
,
0031
0100
1000
0100
0000
0001
1000
0100
,
1000
0010
0100
0001
0100
0100
0010
1000
,
1001
0000
0001
0000
0001
0100
0000
0010
,
1000
0000
0100
1000
0010
0100
0200
0000
,
0301
1000
0100
0001
0000
0100
1000
0010
,
0100
0000
0001
0000
1000
0000
0100
0000
0010
0000
0001
0010
0001
0000
1000
0100
,
2000
0000
3010
0100
0002
0000
1000
0000
,
0203
0000
0301
0100
0020
0000
1000
0000
,
0130
0001
0010
1000
0000
1000
0010
0001
,
0100
0000
0010
0000
0100
0000
0001
0000
1000
0000
1000
0000
0001
0000
0010
0100
,
1000
0100
1000
0010
2000
0000
0002
0000
,
3003
1000
0001
0000
0100
0100
0100
0000
,
0010
1000
0100
1000
0002
0000
2000
0000
,
3003
0001
1000
0000
0010
0010
0010
0000
,
0100
0001
0100
0010
0200
0000
0020
0000
,
0330
0100
0001
0000
0100
0100
0100
0000
,
0001
0010
0100
1000
0020
0000
0200
0000
,
0330
0100
0001
0000
0001
1000
0001
0000
,
2000
0000
3001
1000
0100
0100
0010
0000
,
0002
0000
0013
0001
1000
1000
0100
0000
,
2000
0000
3010
0100
0001
0001
0100
0000
,
0001
0020
0230
2300
,
3020
0000
0130
0001
0010
0010
0100
0000
,
2000
0000
3001
0100
0001
0001
0010
0000
,
0200
0000
1300
0100
0010
0001
0001
0000
,
0100
0020
2030
3002
,
0103
0001
0100
0010
1000
0001
0001
1000
,
0200
0000
1300
0100
0001
0100
1000
0010
,
0200
0000
0301
0000
0100
0001
0010
1000
,
0010
0001
1000
0010
0110
0000
0101
0000
,
1001
0000
1000
0100
0000
0010
0001
0100
,
0010
1000
0001
0001
2000
0000
3100
1000
,
0010
0001
0000
0001
0010
1000
0100
0010
,
0001
1000
0001
0100
1000
0100
0101
0000
,
1001
0000
0010
0100
0000
0001
1000
0100
,
1000
0010
0100
0100
0002
0000
1003
0001
,
0100
1000
0000
0100
0001
1000
0001
0010
,
0100
0000
1000
0000
0001
0000
0100
0000
0001
0100
0010
1000
0002
0000
0000
0000
,
1003
0010
1000
0001
1000
0100
2000
0000
,
3010
0100
0010
0001
0010
1000
0010
0000
,
0100
0001
1000
0000
1000
0100
0000
0010
,
0001
0000
0100
0000
0001
0000
1000
0100
1000
0000
0100
0000
0020
0000
0000
0000
,
0031
0100
0001
1000
0001
0010
0002
0000
,
0103
0000
0001
0000
0100
0000
1000
0000
0100
0000
0010
0100
0010
0000
0000
0000
,
0010
1000
0001
0000
0001
0100
0000
0010
,
0100
0000
0001
0000
0100
0000
0100
0000
0010
0000
1000
0001
1000
0000
0000
0000
;

//---------------dance-single - ----------------
#NOTES:
     dance-single:
     :
     Medium:
     8:
     0.365030,0.422233,0.342773,0.093483,0.000000,272.000000,44.000000,12.000000,0.000000,0.000000,0.000000,0.365030,0.422233,0.342773,0.093483,0.000000,272.000000,44.000000,12.000000,0.000000,0.000000,0.000000:
0000
0000
0000
0000
,
0000
0000
0000
0000
,
0000
0000
0000
0000
,
0000
0000
0000
0000
,
0000
0000
0000
0000
,
0000
0000
0000
0000
,
0000
0000
0000
0000
,
0000
0000
0000
0000
,
0000
0001
0100
1000
,
0100
0100
0001
0010
,
1000
0010
0010
0001
,
1000
1010
1100
1010
,
1100
1000
0100
0010
,
0010
0001
0100
0010
,
0010
1000
0001
1000
,
0100
1000
1010
0101
,
1001
0000
0002
0000
0103
0000
0001
0100
,
0010
0000
2000
0000
3100
0000
1000
0100
,
0010
0000
0002
0000
1003
0000
0001
1000
,
0001
1000
0010
0110
,
0000
0000
0101
0000
0000
1001
0000
0000
,
1000
0000
0001
0000
1000
0001
2000
0000
,
3000
0010
0100
0001
0000
0001
0100
0010
,
1000
0000
0001
0000
1000
0100
0001
0100
,
1000
0000
1001
0000
0000
0101
0000
0000
,
0001
0000
0100
0000
0001
0100
0020
0000
,
1030
0001
1000
0100
0000
0100
1000
0010
,
0100
0000
0001
0000
0100
0001
0100
0010
,
2000
0000
0000
3001
2000
0000
0000
0000
,
3200
0000
0300
0010
0002
0000
0000
0000
,
1003
0000
0001
0000
0100
0001
0100
0000
,
0001
0000
0100
0000
0010
1000
0001
1000
,
0100
0000
0010
0010
0000
0000
0001
0000
,
0000
0100
0100
0000
0001
1000
0001
0000
,
1000
0000
0010
0010
0000
0000
0100
0000
,
0000
0100
0100
0000
0001
1000
0001
0000
,
1000
0000
0010
0010
0000
0000
1000
0000
,
0000
0100
0100
0000
0010
0001
0010
0000
,
0001
0000
0100
0100
0000
0000
0001
0000
,
0000
1000
1000
0000
0010
1000
0010
0000
,
1000
0100
1000
0100
,
0010
0001
1000
0001
,
1000
0001
1000
0000
0101
0000
2010
0000
,
0001
0010
0010
3010
,
1000
0001
1000
0001
,
0100
0010
1000
0001
,
1000
1100
1010
0101
,
2000
0001
0010
3100
,
1100
0000
0001
0000
0100
1000
0100
0000
,
0001
0000
1000
0000
0100
1000
0100
0000
,
1000
0000
0010
0000
0100
0000
0001
0100
,
0010
1000
1001
0000
,
1100
0000
0000
1010
0000
0000
1000
0000
,
0001
0000
1000
0100
0002
0000
0003
0100
,
1000
0010
0000
0010
0100
0001
1000
0000
,
0001
0000
0100
0010
1000
0001
1000
0000
,
1100
0000
0000
0101
0000
0000
0001
0000
,
0100
0000
1000
0010
0100
0000
0000
0001
,
0100
0010
0000
0010
1000
0001
1000
0000
,
0100
0000
0010
0001
1000
0001
1000
0000
,
1010
1100
1010
1100
,
0101
0011
0101
0011
,
0101
0000
1001
0000
0000
1010
0000
0010
,
1000
0100
1000
0001
1000
0000
0010
0000
,
0110
1001
0110
1001
,
1100
0011
0101
1010
,
0011
0000
0101
0000
0001
0100
0000
0001
,
1000
0100
1000
0001
1000
0010
0100
0000
;

//---------------dance-single - ----------------
#NOTES:
     dance-single:
     :
     Easy:
     5:
     0.215902,0.211117,0.023371,0.155806,0.000000,171.000000,3.000000,20.000000,0.000000,0.000000,0.000000,0.215902,0.211117,0.023371,0.155806,0.000000,171.000000,3.000000,20.000000,0.000000,0.000000,0.000000:
// measure 0
0000
0000
0000
0000
,  // measure 1
0000
0000
0000
0000
,  // measure 2
0000
0000
0000
0000
,  // measure 3
0000
0000
0000
0000
,  // measure 4
0000
0000
0000
0000
,  // measure 5
0000
0000
0000
0000
,  // measure 6
0000
0000
0000
0000
,  // measure 7
0000
0000
0000
0000
,  // measure 8
0000
1000
1000
1000
,  // measure 9
1000
0001
0001
0001
,  // measure 10
0001
0100
0100
0100
,  // measure 11
0010
0000
0000
0000
,  // measure 12
0000
1000
1000
1000
,  // measure 13
1000
0001
0001
0001
,  // measure 14
0001
0100
0100
0100
,  // measure 15
0100
0010
0000
0000
,  // measure 16
0000
2000
0000
3002
,  // measure 17
0000
0203
0000
0320
,  // measure 18
0000
2030
0000
3200
,  // measure 19
0000
0310
0001
1001
,  // measure 20
0000
0000
0001
0000
0000
0100
0000
0000
,  // measure 21
0001
1000
0100
0100
,  // measure 22
0000
1000
0000
0010
,  // measure 23
0100
0001
0100
0100
,  // measure 24
0001
0000
1000
0000
0000
1000
0000
0000
,  // measure 25
1000
0100
0010
0001
,  // measure 26
0000
0100
0001
0100
,  // measure 27
0010
1000
0001
1000
,  // measure 28
0020
0000
0230
0000
,  // measure 29
0302
0000
2003
0000
,  // measure 30
3100
0100
0010
0010
,  // measure 31
0001
1000
0001
1000
,  // measure 32
0010
0000
0010
0000
,  // measure 33
0100
0000
0100
0000
,  // measure 34
0001
0000
0001
0000
,  // measure 35
0100
0000
0100
0000
,  // measure 36
0001
0000
0001
0000
,  // measure 37
1000
0000
1000
0000
,  // measure 38
0010
0000
0010
0000
,  // measure 39
0001
0000
0001
0000
,  // measure 40
0010
1000
0100
1000
,  // measure 41
0000
1000
0000
0100
,  // measure 42
0010
0001
1000
0001
,  // measure 43
0000
0100
0000
0100
,  // measure 44
0001
1000
0100
1000
,  // measure 45
0000
1000
0000
1000
,  // measure 46
0010
0010
0100
0100
,  // measure 47
0000
0001
0000
0001
,  // measure 48
0200
0000
0320
0000
,  // measure 49
2030
0000
3002
0000
,  // measure 50
2003
0000
3020
0000
,  // measure 51
0130
0001
1001
0000
,  // measure 52
1000
0000
0000
1000
0000
0000
0100
0000
,  // measure 53
0010
0001
0001
0000
,  // measure 54
0100
0000
0100
0001
,  // measure 55
1000
0010
0010
1000
,  // measure 56
0100
0000
0000
0100
0000
0000
0010
0000
,  // measure 57
0001
0100
0100
0000
,  // measure 58
0001
0000
0001
1000
,  // measure 59
1000
1000
0010
0200
,  // measure 60
0000
0010
0010
0320
,  // measure 61
0000
1000
1000
1030
,  // measure 62
0000
0001
0000
0001
,  // measure 63
0100
0010
1000
0002
,  // measure 64
0000
1000
1000
2003
,  // measure 65
0000
0010
3010
0100
,  // measure 66
0000
0100
0000
0001
,  // measure 67
1000
0100
1000
1001
;
