#TITLE:Bionic;
#SUBTITLE:;
#ARTIST:Christina Aguilera;
#TITLETRANSLIT:;
#SUBTITLETRANSLIT:;
#ARTISTTRANSLIT:;
#GENRE:;
#CREDIT:;
#BANNER:;
#BACKGROUND:;
#LYRICSPATH:;
#CDTITLE:;
#MUSIC:01 Bionic.mp3;
#OFFSET:-0.527533;
#SAMPLESTART:54.965984;
#SAMPLELENGTH:15.000000;
#SELECTABLE:YES;
#BPMS:0.000000=70.415001
,16.000000=140.830002
;
#STOPS:
;
#BGCHANGES:0.000=Nothing in this world.avi=1.000=0=0=1=====,
99999=-nosongbg-=1.000=0=0=0 // don't automatically add -songbackground-
;
#KEYSOUNDS:;
#ATTACKS:;

//---------------dance-single - ----------------
#NOTES:
     dance-single:
     :
     Hard:
     13:
     0.526064,0.512925,0.095173,0.117135,0.128117,474.000000,13.000000,16.000000,0.000000,0.000000,0.000000,0.526064,0.512925,0.095173,0.117135,0.128117,474.000000,13.000000,16.000000,0.000000,0.000000,0.000000:
0000
0000
0000
0000
,
0000
0000
0000
0000
,
0000
0000
0000
0000
,
0000
0000
0000
0000
,
1000
0001
0100
0010
1000
0100
0010
0001
,
1000
0001
0100
0010
2000
0000
3001
0000
,
1000
0000
0001
0000
0100
0000
0010
1000
0100
0000
0100
0000
0001
0000
0100
0000
,
1000
0000
0010
0000
0100
0000
0001
0000
0010
0000
0000
0000
0001
0010
0001
0000
,
1000
0010
0001
0010
0010
0100
0010
1000
,
0100
0010
0001
0100
0001
0000
1001
0000
,
0001
0000
0100
0000
0100
0000
0010
0000
1000
0000
1000
0000
0001
0010
0100
0000
,
1000
0000
0100
0000
0001
0000
0100
0000
2000
0000
0000
0000
3010
0100
0010
0000
,
0100
0001
0100
0010
1000
0001
1000
0010
,
0001
0000
0010
1000
0000
0010
1000
0000
0001
0000
0000
0000
0101
0000
0000
0000
,
0001
0000
0010
0000
0001
0000
0100
0000
0100
0000
0001
0000
1000
0010
0100
0000
,
0010
0000
1000
0001
0100
0000
0010
0000
0100
0000
0000
0000
0001
0010
0001
0000
,
1000
0000
0010
0000
0001
0000
0001
0000
0010
0000
0100
0010
0100
0000
0010
0000
,
1000
0100
0001
0100
2000
0000
3010
0000
,
1000
0001
0001
1000
1000
0100
0010
0001
,
0200
0000
0300
0000
,
0001
1000
0001
0100
0001
0010
0001
0100
,
0010
1000
0100
0020
0000
0000
0000
0000
,
0000
0031
0001
0200
0000
0000
0020
0000
,
0000
0000
0000
0330
,
1000
0010
1000
0100
1000
0001
1000
0010
,
0100
0001
1000
0020
0000
0000
0000
0000
,
0130
0001
0001
2000
0000
0000
0200
0000
,
0000
0000
0000
3300
,
0011
0000
0001
0100
0001
1000
0000
0100
,
0000
0010
0001
0100
0010
1000
1001
0000
,
1000
0010
0100
0010
1000
0001
0000
1000
,
0000
0000
0001
0000
0010
0000
1000
0000
0010
0000
0001
0000
0100
0001
1000
0000
,
1000
0000
0001
0100
0010
0100
0000
0001
,
0000
0010
0000
0100
1000
0010
0100
0100
,
0001
0001
0010
0010
1000
1000
0001
0001
,
0100
0000
0100
0000
1000
0000
1000
0000
0100
0000
1000
0000
0010
0100
0010
0000
,
1001
0000
0001
0010
0001
0100
0000
0010
,
0000
1000
0100
0001
0100
1000
1010
0000
,
0100
0001
0100
0010
1000
0001
0000
0010
,
0000
0000
0010
0000
0100
0000
1000
0000
0001
0000
0100
0000
0001
1000
0001
0000
,
0011
0000
1000
0000
0001
0100
0000
0010
,
0000
1000
0000
0001
1000
0100
1000
1000
,
0010
0010
0001
0001
1000
1000
0100
0100
,
0001
0001
1000
0010
0100
0001
0110
0000
,
0001
0100
0010
1000
0001
1000
0010
1000
,
0100
1000
0010
0100
0010
1000
0020
0000
,
0130
0000
0001
0000
0001
0000
1000
0000
0010
0000
1000
0100
0000
1000
0100
0000
,
1000
0000
0001
0100
0000
0001
0100
0000
0001
0000
0100
0000
0010
1000
0010
0000
,
1000
0000
0001
0000
0100
0000
1000
0000
0100
0000
0001
0010
0000
0001
0010
0000
,
0100
1000
0010
0100
0001
1000
0002
0000
,
0103
0000
0001
0000
0010
0000
1000
0000
0010
0000
0001
0010
0000
0001
0010
0000
,
0001
0000
0100
0010
0000
0100
0010
0000
1000
0000
0001
0000
1000
0010
1000
0000
,
0001
0000
0100
0000
0010
0000
1000
0000
0010
0000
0100
0010
0000
0100
0010
0000
,
1000
0000
0001
1000
0000
0001
1000
0000
0001
0000
0100
0000
1000
0000
0000
0000
,
1000
0000
1000
0000
0100
0000
0100
0000
0001
0000
0010
0100
0000
0010
0100
0000
,
1000
0000
0001
0100
0000
0001
0100
0000
0001
0000
0100
0000
0010
0100
0001
0000
,
1001
1000
1000
1000
0001
0001
0001
0010
,
0010
0010
0100
0100
0100
0100
0010
0011
,
0000
0001
0001
0001
0100
0100
0100
0010
,
0010
0010
1000
1000
0001
0100
1000
0100
,
0001
0001
0100
0010
1000
0001
1000
0100
,
0010
0001
1000
0002
0000
0000
0000
0000
,
0003
0100
0010
2000
0000
0000
0200
0000
,
0000
0000
0000
3300
,
0011
0000
0001
0100
0010
1000
0000
0001
,
0000
1000
0010
0001
0010
1000
1010
0000
,
0010
0100
0001
1000
0001
0100
0000
0001
,
0000
0000
1000
0000
0100
0000
0001
0000
0100
0000
1000
0000
0100
0010
0001
0000
,
0100
0000
0010
1000
0010
0100
0000
0010
,
0000
1000
0000
0001
0010
0100
1000
1000
,
0010
0010
0001
0001
1000
1000
0100
0100
,
0001
0001
0010
0010
0100
0010
1001
0000
,
0001
0000
0100
0001
0000
1000
0100
1000
,
0002
0000
0000
0003
;

//---------------dance-single - ----------------
#NOTES:
     dance-single:
     :
     Medium:
     10:
     0.390103,0.427544,0.117135,0.109814,0.003660,342.000000,16.000000,15.000000,0.000000,0.000000,0.000000,0.390103,0.427544,0.117135,0.109814,0.003660,342.000000,16.000000,15.000000,0.000000,0.000000,0.000000:
0000
0000
0000
0000
,
0000
0000
0000
0000
,
0000
0000
0000
0000
,
0000
0000
0000
0000
,
1000
0100
0001
0100
,
1000
0010
0100
0001
2000
0000
3001
0000
,
0000
0100
0001
0100
,
0010
1000
0010
0100
0020
0000
1030
0000
,
0000
1000
0100
1000
,
0001
0010
0001
0100
0002
0000
0103
0000
,
0000
0001
0100
0010
,
1000
0100
0010
0001
2000
0000
3010
0000
,
0100
0000
0100
0000
0001
0100
0001
0000
,
0100
0000
0100
0000
0100
0010
1010
0000
,
1000
0000
0100
0000
1000
0100
0010
0000
,
0001
0000
0100
0000
0001
0100
0101
0000
,
0001
0100
0010
0000
1000
0000
0100
0000
,
1000
0100
0010
0000
1001
0000
1001
0000
,
0001
0000
0000
0000
0100
0000
0000
0000
0001
0000
0001
1000
0000
0000
0010
0000
,
0200
0000
0301
0000
0100
0001
0101
0000
,
0001
0100
0010
1000
,
1000
0100
0001
0200
0000
0000
0000
0000
,
0000
1300
1000
1000
0000
0000
2002
0000
,
0000
0000
0000
0000
0000
0000
0000
3003
,
0001
0100
1000
0100
,
0001
0010
0100
2000
0000
0000
0000
0000
,
0000
3010
0010
0010
0000
0000
0220
0000
,
0000
0000
0000
0000
0000
0000
0000
0330
,
0001
0000
0100
0000
0001
1000
0000
0010
,
0000
0010
1000
0001
1000
0100
1100
0000
,
1000
0100
0010
0000
0001
0100
0000
0001
,
0000
0001
1000
0100
1000
0010
0001
0010
,
1000
0000
1000
0000
0100
0010
0000
0001
,
0000
1000
0000
0001
0100
0010
1000
0001
,
1000
0100
0001
0100
1000
0010
0001
0010
,
1000
0100
0001
0100
1000
0010
1010
0000
,
0100
0000
0001
0000
0100
0001
0000
1000
,
0000
1000
0100
0001
0100
1000
1010
0000
,
0000
0010
0100
0000
0001
1000
0000
0001
,
0000
0001
0100
1000
0100
0001
0010
0010
,
0001
0001
1000
1000
,
0010
0010
0100
0100
,
0001
0100
0001
0000
0100
0010
0100
0000
,
0010
1000
0010
0000
1000
0001
1001
0000
,
1000
0000
0100
0000
1000
0010
0100
0000
,
0100
0001
1000
0001
1000
0100
0020
0000
,
0031
0000
0100
0000
0001
0100
0010
0000
,
1000
0000
0100
0010
0001
1000
0001
0000
,
0100
0001
0100
0100
,
0010
0010
0010
0000
1000
1000
1000
0000
,
0001
1000
0100
0010
,
0001
0001
0001
0000
0100
0100
0100
0000
,
0010
1000
0001
1000
,
0001
0100
1000
0000
0100
0001
0010
0000
,
0011
0001
1000
0100
,
1000
0010
0100
0000
0100
0001
1000
0000
,
1001
1000
1000
0001
,
0001
0000
0100
0100
0100
0100
0010
0000
,
0000
0010
0010
1000
,
1000
0000
0001
0001
0001
0001
1000
0001
,
0100
0000
0001
0000
0100
0010
0100
0000
,
0010
1000
0001
2000
0000
0000
0000
0000
,
0000
3100
0100
0100
0000
0000
2002
0000
,
0000
0000
0000
0000
0000
0000
0000
3003
,
0001
0000
0100
0000
0001
0100
0000
0010
,
0000
0010
1000
0001
1000
0100
1100
0000
,
0000
0100
1000
0000
0010
0100
0000
0001
,
0000
0001
0100
0010
1000
0001
1000
0100
,
0010
0000
0001
0000
0100
0001
0000
0100
,
0000
0100
0000
0001
1000
0000
0001
0000
,
1000
0100
0001
0100
1000
0010
0001
0010
,
1000
0100
0010
0001
1000
0001
1001
0000
,
0000
0000
0001
0000
0000
0000
0100
0001
,
0100
0000
0000
0000
;

//---------------dance-single - ----------------
#NOTES:
     dance-single:
     :
     Easy:
     6:
     0.242638,0.267215,0.131777,0.029284,0.000000,210.000000,18.000000,4.000000,0.000000,0.000000,0.000000,0.242638,0.267215,0.131777,0.029284,0.000000,210.000000,18.000000,4.000000,0.000000,0.000000,0.000000:
// measure 0
0000
0000
0000
0000
,  // measure 1
0000
0000
0000
0000
,  // measure 2
0000
0000
0000
0000
,  // measure 3
0000
0000
0000
0000
,  // measure 4
0000
1000
1000
1000
,  // measure 5
0000
0001
0001
0001
,  // measure 6
0000
0100
0100
0100
,  // measure 7
0000
0010
0010
0010
,  // measure 8
0000
1000
1000
1000
,  // measure 9
0000
0100
0100
0100
,  // measure 10
0000
0010
0010
0010
,  // measure 11
0000
0001
0001
0001
,  // measure 12
0000
0100
0001
0100
,  // measure 13
0000
0010
1000
0010
,  // measure 14
0000
1000
0001
1000
,  // measure 15
0000
0100
0010
0001
,  // measure 16
0000
0001
0001
0001
,  // measure 17
0100
0100
0100
0110
,  // measure 18
0000
0010
0010
0010
,  // measure 19
1000
0000
0000
0000
,  // measure 20
0001
0000
1000
0000
,  // measure 21
0001
0001
0101
0000
,  // measure 22
0001
0000
0100
0000
,  // measure 23
0010
0010
1010
0000
,  // measure 24
1000
0000
0100
0000
,  // measure 25
1000
1000
1100
0000
,  // measure 26
1000
0000
0100
0000
,  // measure 27
0010
0010
0011
0000
,  // measure 28
0001
0100
1000
0100
,  // measure 29
0100
0001
0010
0110
,  // measure 30
0000
0010
0001
1000
,  // measure 31
0100
1000
0010
0100
,  // measure 32
0100
0001
0100
0100
,  // measure 33
0001
0100
0010
1000
,  // measure 34
0002
0000
2003
0000
,  // measure 35
3020
0000
0230
0000
,  // measure 36
0301
0100
1000
0000
,  // measure 37
1000
0100
0001
0011
,  // measure 38
0000
0001
0010
0100
,  // measure 39
1000
0001
1000
0010
,  // measure 40
0100
0000
0100
0000
,  // measure 41
0001
0000
0001
0000
,  // measure 42
1000
1000
0001
0001
,  // measure 43
1000
1000
1001
1001
,  // measure 44
0000
1000
0100
0010
,  // measure 45
0000
0001
0100
0010
,  // measure 46
0000
1000
0100
1000
,  // measure 47
0000
0010
0100
0001
,  // measure 48
0000
0100
0100
0100
,  // measure 49
0000
0001
0001
0001
,  // measure 50
0000
0010
0010
0010
,  // measure 51
0000
0100
0100
0100
,  // measure 52
0000
0001
0001
0001
,  // measure 53
0000
0100
0010
1000
,  // measure 54
0000
1000
0100
0010
,  // measure 55
0000
0001
1000
0001
,  // measure 56
0000
0100
0100
0100
,  // measure 57
0100
0001
0001
1001
,  // measure 58
0000
0000
1000
1000
,  // measure 59
1000
0100
0100
0110
,  // measure 60
0010
0000
0001
0000
,  // measure 61
0100
0001
0101
0000
,  // measure 62
0001
0100
0110
0000
,  // measure 63
0010
0010
0010
0000
,  // measure 64
1000
0100
0010
0000
,  // measure 65
0010
0001
1000
1001
,  // measure 66
0000
1000
0100
0010
,  // measure 67
0001
0100
0010
0100
,  // measure 68
0110
0000
0010
0000
,  // measure 69
1000
0001
1000
0000
,  // measure 70
0100
0100
0010
0010
,  // measure 71
0001
0001
1001
1001
,  // measure 72
0001
0000
0100
0000
,  // measure 73
1001
0000
0000
0000
;
