#TITLE:American Girl;
#SUBTITLE:;
#ARTIST:Bonnie McKee;
#TITLETRANSLIT:;
#SUBTITLETRANSLIT:;
#ARTISTTRANSLIT:;
#GENRE:;
#CREDIT:;
#BANNER:American Girl-bn.png;
#BACKGROUND:American Girl-bg.png;
#LYRICSPATH:;
#CDTITLE:;
#MUSIC:bonnie_mckee_-_american_girl.mp3;
#OFFSET:0.744074;
#SAMPLESTART:50.525990;
#SAMPLELENGTH:15.000000;
#SELECTABLE:YES;
#BPMS:0.000000=128.000000
;
#STOPS:
;
#BGCHANGES:1.000=american girl.avi=1.000=0=0=1=====,
99999=-nosongbg-=1.000=0=0=0 // don't automatically add -songbackground-
;
#KEYSOUNDS:;
#ATTACKS:;

//---------------dance-single - ----------------
#NOTES:
     dance-single:
     :
     Easy:
     4:
     0.183959,0.203888,0.022995,0.000000,0.000000,165.000000,3.000000,0.000000,0.000000,0.000000,0.000000,0.183959,0.203888,0.022995,0.000000,0.000000,165.000000,3.000000,0.000000,0.000000,0.000000,0.000000:
0000
0000
0000
0000
,
0000
0000
0000
0000
,
0000
0000
0000
0000
,
0000
0000
0000
0000
,
0000
0000
0000
0000
,
1000
0000
0001
0000
,
1000
0000
0001
0000
,
0100
0000
0010
0000
,
0100
0000
0010
0000
,
1000
0000
0010
0000
,
1000
0000
0001
0000
,
1000
0000
0001
0000
,
0000
0000
0100
0100
,
0100
0000
0001
0001
,
0001
0000
1000
1000
,
1000
0000
0010
0010
,
0010
0000
1000
1000
,
1000
0000
0100
0100
,
0100
0000
0010
0010
,
0010
0000
0001
0000
,
0000
0000
0100
0001
,
0100
0100
0100
0000
,
0010
1000
0100
1000
,
0001
0001
0000
0100
,
0000
0001
0100
0010
,
1000
1000
1000
0000
,
0001
0000
1000
0100
,
0010
0001
1000
0000
,
0000
0000
1001
1000
,
0100
0001
0100
1000
,
0010
0100
0001
0100
,
0100
0010
1000
0001
,
1000
0100
1000
1000
,
0010
0001
0010
1000
,
0100
0010
0001
0001
,
0100
0001
0001
0100
,
0010
1000
0001
0000
,
0001
0000
1000
1000
,
1000
0000
0010
0000
,
0010
0000
0100
0100
,
0100
0000
0001
0000
,
0001
0000
0001
0001
,
0001
0000
0010
0000
,
0010
0000
0100
0100
,
0100
0000
1001
0000
,
0000
0000
0000
0000
,
0000
0000
1000
0000
,
1000
0000
0100
0000
,
0100
0000
0001
0000
,
0001
0000
0100
0000
,
0100
0000
1000
1000
,
1000
0000
0010
0000
,
0100
0100
0001
0100
,
0010
0010
0010
0000
,
1000
0000
0001
1000
,
0100
0100
0100
0000
,
1000
0000
0010
0000
,
0001
0010
0010
0000
,
1000
0000
0100
0100
,
0100
0000
0010
0000
,
0001
0000
1001
0000
,
0001
0000
0100
0100
,
0100
0000
0001
0000
,
1000
0000
0100
0100
,
0100
0000
0010
0000
,
0010
0000
0001
0001
,
0001
0000
0100
0000
;

//---------------dance-single - ----------------
#NOTES:
     dance-single:
     :
     Hard:
     11:
     0.494937,0.436519,0.061320,0.283603,0.015330,407.000000,8.000000,37.000000,0.000000,0.000000,0.000000,0.494937,0.436519,0.061320,0.283603,0.015330,407.000000,8.000000,37.000000,0.000000,0.000000,0.000000:
// measure 0
0000
0000
0000
0000
,  // measure 1
0000
0000
0000
0000
,  // measure 2
0000
0000
0000
0000
,  // measure 3
0000
0000
0000
0000
,  // measure 4
0000
0000
0000
0000
1000
0100
0010
0001
,  // measure 5
1000
0001
0100
0010
0010
0100
0100
0001
,  // measure 6
1000
0100
2000
0000
3000
0010
0100
0001
,  // measure 7
0010
0001
1000
1000
0100
1000
0010
0100
,  // measure 8
0010
1000
0002
0000
0003
1000
0010
0100
,  // measure 9
0001
1000
0100
1000
0010
0010
0100
0001
,  // measure 10
1000
0100
2000
0000
3010
0100
0010
1000
,  // measure 11
0000
0001
0000
2002
0000
0000
0000
0000
,  // measure 12
0000
0000
3003
0000
1000
0100
0001
0100
,  // measure 13
1000
0010
0100
0001
0010
0001
1000
0100
,  // measure 14
1000
0010
0200
0000
0301
0001
0100
0010
,  // measure 15
0100
0001
1000
0100
1000
0010
0100
0001
,  // measure 16
1000
0001
0200
0000
0310
0010
1000
0100
,  // measure 17
1000
0001
1000
0010
0100
0010
0100
0001
,  // measure 18
1000
0100
2000
0000
3000
0001
0100
0010
,  // measure 19
0000
0010
0000
2002
0000
0000
0000
0000
,  // measure 20
3003
0000
1000
0000
1000
0000
0010
0100
0001
0000
1000
0000
0001
0000
0100
0000
,  // measure 21
0002
0000
1003
0002
0000
1003
0100
0010
,  // measure 22
0001
0100
0010
1000
1000
0010
0100
0010
,  // measure 23
2000
0000
3001
2000
0000
3100
0100
1000
,  // measure 24
0010
0001
0010
1000
1000
0010
0100
0001
,  // measure 25
0200
0000
0310
0200
0000
0301
0100
1000
,  // measure 26
0100
0001
0010
0100
0100
1000
0001
0100
,  // measure 27
0001
0100
0010
1000
0000
1000
1000
0010
,  // measure 28
0010
0100
0101
0000
0001
0100
0000
0100
,  // measure 29
0010
0000
2000
0000
3100
0100
0001
0100
,  // measure 30
1000
0001
1000
0010
0100
0001
0000
0001
,  // measure 31
1000
0000
0200
0000
0310
0010
0001
1000
,  // measure 32
0001
0100
0010
1000
0100
0010
0000
0010
,  // measure 33
0100
0000
2000
0000
3010
0010
0100
0001
,  // measure 34
1000
0001
0100
0001
0010
0100
0000
0100
,  // measure 35
1000
0000
0010
0200
0000
0000
0301
0000
,  // measure 36
0001
0000
0010
0000
0100
0010
0100
0010
0100
0000
1000
0000
0000
0000
1000
0000
,  // measure 37
0001
0001
0010
2000
0000
0000
3010
0001
,  // measure 38
0100
0010
1000
1000
0010
0100
0000
0100
,  // measure 39
0001
1000
0100
0002
0000
0000
0103
1000
,  // measure 40
0001
1000
0010
0010
0100
0001
0000
0001
,  // measure 41
1000
1000
0010
0002
0000
0000
0013
1000
,  // measure 42
0001
0100
0100
0001
0010
0100
0000
0100
,  // measure 43
1000
0000
0001
2000
0000
0000
3010
0000
,  // measure 44
0100
0001
0101
0000
1000
0000
1000
0000
,  // measure 45
0100
0100
0001
0001
,  // measure 46
0010
0000
0010
0000
0110
0100
0001
0010
,  // measure 47
1000
0010
0010
0100
1000
0100
0010
0001
,  // measure 48
0100
0010
0200
0000
0301
1000
0100
1000
,  // measure 49
1000
0100
0001
0100
0010
0001
1000
0001
,  // measure 50
0100
0100
0002
0000
1003
0100
0010
0001
,  // measure 51
0000
0101
0000
2001
0000
3001
0010
0100
,  // measure 52
1000
0000
0100
0000
0010
0000
0001
0100
0010
0000
1000
0000
0100
0000
0001
0000
,  // measure 53
0200
0000
0301
0200
0000
1300
0010
0100
,  // measure 54
0001
0001
0100
0010
1000
0100
1000
0010
,  // measure 55
0002
0000
0013
0002
0000
0013
1000
1000
,  // measure 56
0100
1000
0010
0100
0100
0001
1000
0100
,  // measure 57
0002
0000
0103
0002
0000
0103
0100
1000
,  // measure 58
0010
0100
0001
0100
0010
1000
0001
1000
,  // measure 59
0100
1000
0001
0100
0000
0100
0100
0001
,  // measure 60
0001
1000
1001
0000
0001
1000
0000
1000
,  // measure 61
0010
0000
0200
0000
0301
0100
1000
0100
,  // measure 62
0001
0010
1000
0010
0001
1000
0000
1000
,  // measure 63
0100
0000
2000
0000
3001
0100
0010
1000
,  // measure 64
0100
0001
0100
1000
0010
0100
0000
0100
,  // measure 65
0001
0000
0002
0000
1003
1000
0100
0010
,  // measure 66
0001
1000
0001
0200
0000
0000
0000
0000
,  // measure 67
0300
0000
0000
0000
;

//---------------dance-single - ----------------
#NOTES:
     dance-single:
     :
     Medium:
     7:
     0.335068,0.309281,0.022995,0.122639,0.000000,287.000000,3.000000,16.000000,0.000000,0.000000,0.000000,0.335068,0.309281,0.022995,0.122639,0.000000,287.000000,3.000000,16.000000,0.000000,0.000000,0.000000:
0000
0000
0000
0000
,
0000
0000
0000
0000
,
0000
0000
0000
0000
,
0000
0000
0000
0000
,
0000
0000
1000
0001
,
1000
0001
0100
0010
,
1000
0100
0020
0000
0031
0000
0100
0000
,
0001
0100
0010
1000
,
0100
1000
0020
0000
0130
0000
0001
0000
,
0100
0001
1000
0010
,
1000
0100
0020
0000
0031
0000
0100
0000
,
0001
0000
1000
0002
0000
0000
0000
0000
,
0000
0000
1003
0100
,
0001
0100
0100
1000
,
0010
0100
0002
0000
0103
0000
0010
0000
,
1000
0010
0001
0010
,
1000
0100
0020
0000
0031
0000
0100
0000
,
0001
0100
0010
1000
,
0001
1000
0200
0000
1300
0010
0100
0001
,
0000
1000
0000
0002
0000
0000
0000
0000
,
0003
1000
1000
0000
0100
0010
0100
0000
,
0010
0001
0010
0000
0001
0100
0001
0000
,
0100
0100
0100
0000
0010
1000
0010
0000
,
1000
0100
1000
0000
0010
0100
0001
0000
,
0100
0100
0100
0000
0001
1000
0001
0000
,
1000
0010
1000
0000
0010
0100
0001
0000
,
1000
1000
1000
0000
0001
0100
0001
0000
,
0100
0010
0100
0000
0010
0000
1000
0000
,
0001
1001
0001
1000
,
0001
1000
0100
0010
,
0001
1000
0001
2000
0000
0000
0100
0000
,
0010
3000
0010
0000
1000
0000
0001
0000
,
0100
0001
1000
0200
0000
0000
0010
0000
,
1300
0001
1000
0010
,
0100
0001
0100
0020
0000
0000
1000
0000
,
0130
0010
1000
0001
,
1000
0000
0010
1000
0001
0000
1000
0000
,
0100
1000
0010
0100
0000
0000
0100
0000
,
0001
0100
0001
0100
0000
0000
0010
0000
,
1000
0010
1000
0010
,
1000
0001
1000
0001
0000
0000
1000
0000
,
0100
0010
0001
0100
,
0010
1000
0010
1000
0000
0000
1000
0000
,
0001
0100
0010
0010
,
1000
0001
1000
0000
1100
0000
0000
0000
,
0000
0000
0000
0000
,
0000
0000
0010
0010
,
0001
0100
0010
1000
,
0001
1000
0200
0000
1300
0000
0010
0000
,
0010
0100
0001
0100
,
0010
1000
0002
0000
1003
0000
0100
0000
,
1000
0010
0100
0100
,
0001
0000
1000
0000
0100
1000
0100
0000
,
1000
0010
1000
0000
0010
0100
0010
0000
,
0100
0100
0100
0000
0001
0100
0001
0000
,
0100
0010
0100
0000
0010
1000
0010
0000
,
1000
1000
1000
0000
0001
1000
0001
0000
,
0100
0010
0100
0000
0010
1000
0010
0000
,
1000
1000
1000
0000
0100
0010
0100
0000
,
0010
0001
0010
0000
0001
0000
1000
0000
,
0001
1001
1000
0010
,
1000
0100
0010
0001
,
1000
0001
1000
0002
0000
0000
1000
0000
,
0103
0100
0001
0100
,
0010
1000
0010
2000
0000
0000
0100
0000
,
3100
0100
0010
0001
,
1000
0001
1000
0002
0000
0000
0000
0000
,
0000
0003
0000
0000
;
