#TITLE:911;
#SUBTITLE:;
#ARTIST:Lady Gaga;
#TITLETRANSLIT:;
#SUBTITLETRANSLIT:;
#ARTISTTRANSLIT:;
#GENRE:;
#CREDIT:;
#BANNER:;
#BACKGROUND:911-bg.png;
#LYRICSPATH:;
#CDTITLE:;
#MUSIC:08 - 911.ogg;
#OFFSET:0.327338;
#SAMPLESTART:53.160053;
#SAMPLELENGTH:15.000000;
#SELECTABLE:YES;
#DISPLAYBPM:116.000000;
#BPMS:0.000000=116.000000
;
#STOPS:
;
#BGCHANGES:0.500=911.mp4=1.000=0=0=1=====,
99999=-nosongbg-=1.000=0=0=0 // don't automatically add -songbackground-
;
#KEYSOUNDS:;
#ATTACKS:;

//---------------dance-single - ----------------
#NOTES:
     dance-single:
     :
     Hard:
     10:
     0.365686,0.436438,0.230541,0.238491,0.047698,322.000000,293.000000,29.000000,30.000000,0.000000,0.000000,0.365686,0.436438,0.230541,0.238491,0.047698,322.000000,293.000000,29.000000,30.000000,0.000000,0.000000:
// measure 0
0000
0000
0000
0000
,  // measure 1
0000
0000
0000
0000
,  // measure 2
0000
0000
0000
0000
,  // measure 3
0000
0000
0000
0000
,  // measure 4
0000
0000
0000
0000
,  // measure 5
0000
0000
0000
0000
0000
0000
0001
0100
,  // measure 6
0001
0001
1000
0100
1000
1000
0001
0010
,  // measure 7
0001
0001
1000
0010
1000
1000
0100
0010
,  // measure 8
0100
0100
1000
0001
1000
1000
0010
0100
,  // measure 9
0010
0010
1000
0001
1000
1000
0001
0100
,  // measure 10
0010
0000
0100
0001
0000
0001
0100
0000
0001
0000
0000
0000
1000
0000
0100
0000
,  // measure 11
0010
0000
0100
1000
0000
1000
0100
0000
1000
0000
0000
0000
0010
0000
0100
0000
,  // measure 12
0001
0000
0100
0010
0000
0010
1000
0000
0100
0000
0000
0000
1000
0000
0010
0000
,  // measure 13
0001
0010
1000
0010
0200
0000
0301
0010
,  // measure 14
0100
0000
1000
0001
0000
0001
1000
0000
0001
0000
0000
0000
1000
0000
0100
0000
,  // measure 15
0010
0000
0001
1000
0000
1000
0001
0000
1000
0000
0000
0000
0001
0000
0100
0000
,  // measure 16
0010
0000
1000
0100
0000
0100
1000
0000
0001
0000
0000
0000
0001
0000
0100
0000
,  // measure 17
1000
0100
0001
0100
0010
0000
2001
0000
,  // measure 18
0001
0100
3001
0012
,  // measure 19
1000
0010
1003
0210
,  // measure 20
0001
1000
0301
0010
,  // measure 21
0001
0000
2002
0000
3003
0000
0002
0010
,  // measure 22
0000
0010
0000
0010
0000
0013
2000
0010
,  // measure 23
0000
0010
0000
0010
0000
3010
0002
0100
,  // measure 24
0000
0100
0000
0100
0000
0103
2000
0100
,  // measure 25
0000
0200
0000
0000
3300
0000
1001
1000
,  // measure 26
0010
0010
1000
0100
0010
0100
1001
0000
,  // measure 27
0002
0000
1000
0000
0100
0000
0013
0001
,  // measure 28
1000
1000
0001
0100
0010
1000
0110
0000
,  // measure 29
0020
0000
0001
0000
1000
0000
0130
0010
,  // measure 30
0100
0100
0010
1000
0001
0010
1001
0000
,  // measure 31
2000
0100
0001
3010
,  // measure 32
0002
0000
0100
0000
1000
0000
0013
1000
,  // measure 33
0010
0001
0010
1000
0010
0000
2002
0000
,  // measure 34
0000
0000
0000
0000
,  // measure 35
0000
3003
0000
0220
,  // measure 36
0000
0000
0000
0000
,  // measure 37
0000
0330
0000
2000
,  // measure 38
0100
3002
0100
2003
,  // measure 39
0010
3002
0010
2003
,  // measure 40
0100
3002
0100
2000
,  // measure 41
0000
0000
0000
0000
3003
0000
0010
1000
,  // measure 42
0010
1000
0001
0100
0001
0100
0010
1000
,  // measure 43
0001
0100
1000
0000
1100
0000
0101
0001
,  // measure 44
0100
0001
1000
0010
1000
0010
1000
0001
,  // measure 45
1000
0100
0001
0000
0101
0000
1100
1000
,  // measure 46
0100
1000
0001
0010
0001
0010
0100
1000
,  // measure 47
0001
0100
1000
0000
1100
0000
0101
0000
,  // measure 48
0011
0000
1010
0000
0110
0000
1001
0001
,  // measure 49
1000
0100
0010
0001
0100
0000
0010
1000
,  // measure 50
0010
0010
0100
0001
0100
0100
0001
1000
,  // measure 51
0001
0001
0100
0010
1000
1000
0200
0000
,  // measure 52
1300
0000
1000
0100
0001
0000
0101
0000
,  // measure 53
1100
0000
0110
0000
1001
0000
0001
0100
,  // measure 54
0001
0001
1000
0100
1000
1000
0010
0100
,  // measure 55
0010
0010
1000
0001
1000
1000
0002
0000
,  // measure 56
0103
0000
0001
0100
1000
0000
1100
0000
,  // measure 57
1001
0011
1100
0220
,  // measure 58
0000
0000
0000
0000
,  // measure 59
0000
0000
0000
0000
,  // measure 60
0000
0000
0000
0000
,  // measure 61
0330
0000
0000
0000
;

//---------------dance-single - ----------------
#NOTES:
     dance-single:
     :
     Beginner:
     3:
     0.106753,0.143095,0.007950,0.119245,0.000000,94.000000,93.000000,1.000000,15.000000,0.000000,0.000000,0.106753,0.143095,0.007950,0.119245,0.000000,94.000000,93.000000,1.000000,15.000000,0.000000,0.000000:
0000
0000
0000
0000
,
0000
0000
0000
0000
,
0000
0000
0000
0000
,
0000
0000
0000
0000
,
0000
0000
0000
0000
,
0000
0000
0000
0001
,
0000
0001
0000
1000
,
0000
1000
0000
0001
,
0000
0001
0000
1000
,
0000
1000
0000
0010
,
0000
0010
0000
0100
,
0000
0100
0000
0001
,
0000
0001
0000
1000
,
0000
0000
0000
0100
,
0000
0100
0000
0010
,
0000
0010
0000
0001
,
0000
0001
0000
0100
,
0000
0100
0000
0020
,
0030
0000
0000
0200
,
0300
0000
0000
0020
,
0030
0000
0000
0000
,
0000
0200
0300
0002
,
0003
0000
0000
2000
,
3000
0000
0000
0002
,
0003
0000
0000
0000
,
0000
2000
3000
0010
,
0010
0010
0000
0100
,
0000
0100
0000
0001
,
0001
0001
0000
1000
,
0000
1000
0000
0010
,
0010
0010
0000
0100
,
0000
0100
0000
0001
,
0000
0001
0000
0010
,
0010
0010
0000
0200
,
0000
0000
0300
0000
,
0000
0000
0000
0020
,
0000
0000
0030
0000
,
0000
0000
0000
0002
,
0003
0000
0000
2000
,
3000
0000
0000
0002
,
0003
0000
0000
0000
,
0000
0000
0000
1000
,
1000
1000
0000
0100
,
0000
0100
0000
0010
,
0010
0010
0000
0001
,
0000
0001
0000
0100
,
0100
0100
0000
0010
,
0000
0010
0000
1000
,
0000
1000
0000
0100
,
0100
0100
0000
0010
,
0000
0010
0000
0001
,
0000
0001
0000
0100
,
0000
0100
0000
0010
,
0000
0010
0000
1000
,
0000
1000
0000
0100
,
0000
0100
0000
0010
,
0000
0010
0000
0001
,
0000
0001
0000
2002
,
0000
0000
0000
0000
,
0000
0000
0000
0000
,
3003
0000
0000
0000
;

//---------------dance-single - ----------------
#NOTES:
     dance-single:
     :
     Medium:
     8:
     0.247576,0.336670,0.166944,0.214642,0.000000,218.000000,197.000000,21.000000,27.000000,0.000000,0.000000,0.247576,0.336670,0.166944,0.214642,0.000000,218.000000,197.000000,21.000000,27.000000,0.000000,0.000000:
0000
0000
0000
0000
,
0000
0000
0000
0000
,
0000
0000
0000
0000
,
0000
0000
0000
0000
,
0000
0000
0000
0000
,
0000
0000
0000
0000
0000
0000
1000
1000
,
1000
0000
0100
0000
0100
0000
0010
0010
,
0010
0000
0001
0000
0001
0000
0100
0100
,
0100
0000
0010
0000
0010
0000
1000
1000
,
1000
0100
0100
0020
,
0031
0000
1000
0000
0001
0001
0200
0000
,
0310
0000
1000
0000
0010
0010
2000
0000
,
3001
0000
1000
0000
0100
0100
0001
0000
,
0100
1000
1001
0001
,
0100
0000
0010
0000
0100
0100
0001
0000
,
1000
0000
0010
0000
1000
1000
0010
0000
,
0100
0000
0001
0000
0100
0100
1000
0000
,
0100
0001
1001
0022
,
0033
1000
0100
0022
,
0033
1000
0100
0011
,
0101
1010
1001
0200
,
0010
0020
0330
0002
,
0000
0203
0000
2300
,
0000
3200
0000
0302
,
0000
0023
0000
0200
,
0000
0330
0000
1000
,
1000
0000
0010
0100
0010
0000
0100
0000
,
0101
0001
0001
1000
,
1000
0000
0100
1000
0100
0000
0010
0000
,
1001
0001
0001
0100
,
0100
0000
0010
1000
0010
0000
1000
0000
,
0100
0100
0011
1100
,
1010
0100
0010
0010
,
1000
0001
1000
0001
1000
0000
0200
0000
,
0000
0000
0000
0000
,
0300
0000
0000
0020
,
0000
0000
0000
0000
0000
0000
0000
0030
,
0000
0000
0000
2000
,
0000
3020
0000
0032
,
0000
0203
0000
2300
,
0000
3002
0000
0203
,
0000
0000
0300
0010
,
1000
0010
1000
0000
0001
0000
1000
0001
,
1000
0001
0100
0100
,
0010
0000
1000
0010
1000
0000
0001
0000
,
0100
0001
0100
0000
0010
0000
0010
0000
,
1000
0001
1000
0000
1000
0000
0001
0010
,
0001
1000
1100
1001
,
0001
0010
0100
0100
,
1000
0001
1001
1000
,
1000
0000
0000
0010
0010
0000
0100
0000
,
0100
0000
0000
0001
0001
0000
1000
0000
,
1100
0001
0011
0100
,
0010
0010
0010
0000
1000
0000
0001
0000
,
0100
0000
0000
0010
0010
0000
1000
0000
,
0100
0000
0000
1000
1000
0000
0010
0000
,
0110
0000
0001
0000
1001
0000
0001
0001
,
0001
0100
1000
2002
,
0000
0000
0000
0000
,
0000
0000
0000
0000
,
0000
0000
3003
0000
;

//---------------dance-single - ----------------
#NOTES:
     dance-single:
     :
     Easy:
     6:
     0.147637,0.193973,0.007950,0.206692,0.000000,130.000000,129.000000,1.000000,26.000000,0.000000,0.000000,0.147637,0.193973,0.007950,0.206692,0.000000,130.000000,129.000000,1.000000,26.000000,0.000000,0.000000:
0000
0000
0000
0000
,
0000
0000
0000
0000
,
0000
0000
0000
0000
,
0000
0000
0000
0000
,
0000
0000
0000
0000
,
0000
0000
0000
1000
,
1000
1000
0000
0001
,
0001
0001
0000
0100
,
0100
0100
0000
0010
,
0010
0010
0000
2000
,
3100
0000
0010
0002
,
0103
0000
0010
2000
,
3100
0000
0010
0001
,
0001
1000
1000
0020
,
0130
0000
0001
2000
,
3010
0000
0100
0002
,
0013
0000
0001
0010
,
0100
0100
0100
2000
,
3000
0000
0000
0002
,
0003
0000
0000
0200
,
0010
0010
0010
0310
,
0000
2000
3000
0002
,
0003
0000
0000
0200
,
0300
0000
0000
0020
,
0030
0000
0000
2000
,
0000
0002
3003
0001
,
0001
0001
0000
1000
,
1000
1000
0000
0010
,
0010
0010
0000
0100
,
0100
0100
0000
0001
,
0001
0001
0000
0010
,
0010
0010
0000
0100
,
0100
0100
0000
1000
,
1000
1000
0000
0002
,
0000
0000
0000
0003
,
0000
0000
0000
2000
,
0000
0000
0000
3000
,
0000
0000
0000
0020
,
0000
0000
0000
0230
,
0000
0000
0000
0320
,
0000
0000
0000
0130
,
0000
0000
0000
0100
,
0001
0100
0001
0010
,
0000
0100
0100
0100
,
1000
0010
1000
0100
,
0000
0010
0010
0010
,
0001
0100
0010
1000
,
0000
0001
0001
0001
,
0000
1000
1000
1000
,
0000
0010
0010
0100
,
0100
0100
0000
0001
,
0001
0001
0000
2000
,
0000
3100
0000
0002
,
0000
0103
0000
1000
,
1000
1000
0000
0010
,
0010
0010
0000
0200
,
0000
0301
0000
0002
,
0000
1003
0000
2002
,
0000
0000
0000
0000
,
0000
0000
0000
0000
,
0000
0000
0000
0000
,
3003
0000
0000
0000
;

//---------------dance-double - ----------------
#NOTES:
     dance-double:
     :
     Hard:
     11:
     0.366822,0.460685,0.190793,0.270290,0.047698,323.000000,299.000000,24.000000,34.000000,0.000000,0.000000,0.366822,0.460685,0.190793,0.270290,0.047698,323.000000,299.000000,24.000000,34.000000,0.000000,0.000000:
00000000
00000000
00000000
00000000
,
00000000
00000000
00000000
00000000
,
00000000
00000000
00000000
00000000
,
00000000
00000000
00000000
00000000
,
00000000
00000000
00000000
00000000
,
00000000
00000000
00000000
00000000
00000000
00000000
10000000
01000000
,
10000000
10000000
00010000
01000000
00010000
00010000
00100000
00001000
,
00100000
00100000
00001000
00010000
00001000
00001000
00000100
00000010
,
00000100
00000100
00000001
00000010
00000001
00000001
00001000
00000001
,
00001000
00001000
00000100
00010000
00000100
00000100
00010000
00001000
,
00010000
00000000
00001000
00100000
00000000
00100000
00001000
00000000
00010000
00000000
01000000
00000000
10000000
00000000
01000000
00000000
,
00100000
00000000
01000000
10000000
00000000
10000000
01000000
00000000
00100000
00000000
00010000
00000000
00100000
00000000
00001000
00000000
,
00100000
00000000
00001000
00010000
00000000
00010000
00001000
00000000
00000100
00000000
00000100
00000000
00000001
00000000
00000010
00000000
,
00001000
00010000
01000000
10000000
00200000
00000000
01300000
00010000
,
01000000
00000000
00001000
00100000
00000000
00100000
00001000
00000000
00010000
00000000
00001000
00000000
00000100
00000000
00000010
00000000
,
00001000
00000000
00000001
00001000
00000000
00001000
00000001
00000000
00000010
00000000
00000100
00000000
00001000
00000000
00000010
00000000
,
00010000
00000000
00001000
01000000
00000000
01000000
00001000
00000000
00010000
00000000
01000000
00000000
10000000
00000000
00100000
00000000
,
00010000
00001000
00000100
00000001
00000010
00000000
00002001
00000000
,
00000001
00000010
00003001
00000120
,
00010000
00001000
00010030
02000000
,
23000000
00000000
30200000
00000000
01300000
02000000
00000000
00000000
,
03000000
20020000
30030000
20000000
,
00010000
30020000
00001000
00032000
,
00000001
00003002
00001000
00002003
,
00010000
00023000
10000000
20030000
,
00010000
00000000
00020000
00000000
30030000
00000000
10010000
10000000
,
00100000
00100000
01000000
00010000
00100000
00001000
00020000
00000000
,
00001000
00001000
00031000
00000000
00010100
00000000
00010100
00000100
,
00000010
00000010
00000001
00000100
00000010
00010000
00002000
00000000
,
00010000
00010000
00013000
00000000
01001000
00000000
01001000
00001000
,
00010000
00010000
00001000
00000100
00000010
00000100
00001001
00000000
,
00000001
00000100
00001000
00000000
00011000
00000000
00101000
00000000
,
01000000
10000000
00100000
00000000
10010000
00000000
10010000
10000000
,
00100000
00010000
00001000
00000100
00000001
00000000
00002002
00000000
,
00000000
00000000
00000000
00000000
,
00000000
00003003
00000000
20020000
,
00000000
00000000
00000000
00000000
,
00000000
30030000
00000000
20000000
,
00000000
32000000
00000000
03020000
,
00000000
00032000
00000000
00003020
,
00000000
00000032
00000000
00002000
,
00000000
00000000
00000000
00000000
00003003
00000000
00000001
00000010
,
00000001
00000010
00000100
00001000
00000100
00001000
00000010
00010000
,
00001000
00001000
00100000
00000000
01000000
10000000
00100000
01000000
,
00100000
01000000
00010000
10000000
00010000
10000000
01000000
00010000
,
00001000
00001000
00010000
00000000
00010000
00001000
00000100
00000010
,
00001000
00000010
00001000
00000001
00000100
00000001
00000100
00001000
,
00000100
00000100
00000010
00000000
00010000
00001000
00100000
00000000
,
00100000
00010000
10000000
00010000
10000000
00010000
00100000
00001000
,
00010000
00010000
00001000
00001000
00000100
00000000
00000010
00001000
,
00000010
00000010
00000100
00000001
00000100
00000100
00000001
00001000
,
00000001
00000001
00000100
00001000
00010000
00010000
02000000
00000000
,
13000000
00000000
10000000
00100000
01000000
00000000
01100000
00000000
,
01001000
00000000
00101000
00000000
00011000
00000000
00010000
00001000
,
00010000
00010000
00000010
00000100
00000010
00000010
00001000
00000010
,
00000100
00000100
00000001
00000100
00001000
00001000
00020000
00000000
,
01030000
00000000
10000000
01000000
00010000
00000000
01010000
00000000
,
11000000
10100000
01100000
02002000
,
00000000
00000000
00000000
00000000
,
00000000
00000000
00000000
00000000
,
00000000
00000000
00000000
00000000
,
03003000
00000000
00000000
00000000
;

//---------------dance-double - ----------------
#NOTES:
     dance-double:
     :
     Medium:
     8:
     0.258933,0.412192,0.238491,0.222591,0.000000,228.000000,198.000000,30.000000,28.000000,0.000000,0.000000,0.258933,0.412192,0.238491,0.222591,0.000000,228.000000,198.000000,30.000000,28.000000,0.000000,0.000000:
00000000
00000000
00000000
00000000
,
00000000
00000000
00000000
00000000
,
00000000
00000000
00000000
00000000
,
00000000
00000000
00000000
00000000
,
00000000
00000000
00000000
00000000
,
00000000
00000000
00000000
00000000
00000000
00000000
00010000
00010000
,
00010000
00000000
01000000
00000000
00001000
00000000
00100000
00100000
,
00100000
00000000
00001000
00000000
00001000
00000000
00000100
00000100
,
00000100
00000000
00000010
00000000
00000010
00000000
00000100
00000100
,
00000100
00001000
00001000
00020000
,
01030000
00000000
10000000
00000000
00100000
00100000
02000000
00000000
,
03010000
00000000
00100000
00000000
00010000
00010000
20000000
00000000
,
31000000
00000000
00010000
00000000
00001000
00001000
00000100
00000000
,
00000001
00000010
00001001
00000001
,
00000010
00000000
00001000
00000000
00010000
00010000
00002000
00000000
,
01003000
00000000
00100000
00000000
10000000
10000000
00200000
00000000
,
01300000
00000000
00010000
00000000
10000000
10000000
00010000
00000000
,
00001000
00000001
00001001
00000022
,
00000033
00001000
00000100
00000022
,
00000033
00001000
00000100
00000011
,
00001100
00101000
01010000
02000000
,
00100000
00200000
03300000
20000000
,
00000000
30020000
00000000
00032000
,
00000000
00003002
00000000
00000103
,
00001000
00020000
00000000
00002000
,
00000000
00033000
00000000
00010000
,
00010000
00000000
01000000
00100000
01000000
00000000
10000000
00000000
,
11000000
00010000
01010000
00100000
,
00100000
00000000
00001000
00010000
00001000
00000000
00000100
00000000
,
00001100
00000001
00000101
00000010
,
00000010
00000000
00000100
00001000
00000100
00000000
00010000
00000000
,
00011000
00001000
00101000
00110000
,
00011000
00001100
00000011
00001001
,
00000001
00000010
00000100
00001000
00010000
00000000
02000000
00000000
,
00000000
00000000
00000000
00000000
,
03000000
00000000
00000000
00200000
,
00000000
00000000
00000000
00000000
00000000
00000000
00000000
00300000
,
00000000
00000000
00000000
20000000
,
00000000
30200000
00000000
00320000
,
00000000
00032000
00000000
00003200
,
00000000
00000302
00000000
00000023
,
00000000
00000000
00000030
00000001
,
00001000
00000100
00001000
00000000
00000010
00000000
00010000
00000100
,
00010000
00010000
01000000
01000000
,
10000000
00000000
00100000
10000000
00100000
00000000
01000000
00000000
,
00001000
00100000
00001000
00000000
00010000
00000000
00010000
00000000
,
00000010
00000100
00000010
00000000
00001000
00000000
00000001
00000010
,
00000001
00001100
00011000
01001000
,
00100000
00100000
01000000
01000000
,
11000000
00110000
10010000
00010000
,
00010000
00000000
00000000
01000000
01000000
00000000
00001000
00000000
,
00001000
00000000
00000000
00010000
00010000
00000000
00000100
00000000
,
00001100
00000010
00000011
00000100
,
00001000
00001000
00001000
00000000
00010000
00000000
00010000
00000000
,
01000000
00000000
00000000
00100000
00100000
00000000
10000000
00000000
,
01000000
00000000
00000000
10000000
10000000
00000000
10000000
00000000
,
11000000
00000000
00010000
00000000
01010000
00000000
00010000
00010000
,
00010000
00100000
00001000
00022000
,
00000000
00000000
00000000
00000000
,
00000000
00000000
00000000
00000000
,
00000000
00000000
00000000
00000000
,
00033000
00000000
00000000
00000000
;

//---------------dance-double - ----------------
#NOTES:
     dance-double:
     :
     Easy:
     6:
     0.145366,0.193973,0.007950,0.206692,0.000000,128.000000,127.000000,1.000000,26.000000,0.000000,0.000000,0.145366,0.193973,0.007950,0.206692,0.000000,128.000000,127.000000,1.000000,26.000000,0.000000,0.000000:
00000000
00000000
00000000
00000000
,
00000000
00000000
00000000
00000000
,
00000000
00000000
00000000
00000000
,
00000000
00000000
00000000
00000000
,
00000000
00000000
00000000
00000000
,
00000000
00000000
00000000
10000000
,
10000000
10000000
00000000
00010000
,
00010000
00010000
00000000
00001000
,
00001000
00001000
00000000
00000001
,
00000001
00000001
00000000
00000002
,
00000103
00000000
00001000
00020000
,
00031000
00000000
00100000
02000000
,
03100000
00000000
00010000
10000000
,
10000000
00010000
00010000
00200000
,
00301000
00000000
00010000
00002000
,
00013000
00000000
00000100
00000020
,
00000130
00000000
00000001
00000001
,
00000010
00000010
00001000
00020000
,
00030000
00000000
00000000
00020000
,
00030000
00000000
00000000
02000000
,
23000000
30200000
01300000
00100000
,
00000000
20000000
30000000
00020000
,
00030000
00000000
00000000
00002000
,
00003000
00000000
00000000
00000002
,
00000003
00000000
00000000
00002000
,
00000000
00000002
00003003
00000100
,
00000100
00000100
00000000
00001000
,
00001000
00001000
00000000
00010000
,
00010000
00010000
00000000
01000000
,
01000000
01000000
00000000
10000000
,
10000000
10000000
00000000
00100000
,
00100000
00100000
00000000
00010000
,
00010000
00010000
00000000
00001000
,
00001000
00001000
00000000
00020000
,
00000000
00000000
00000000
00030000
,
00000000
00000000
00000000
00002000
,
00000000
00000000
00000000
00003000
,
00000000
00000000
00000000
00000020
,
00000000
00000000
00000000
00000030
,
00000000
00000000
00000000
00000002
,
00000000
00000000
00000000
00000003
,
00000000
00000000
00000000
00000100
,
00000001
00000100
00000001
00000010
,
00000000
00001000
00001000
00001000
,
00100000
00010000
00100000
00010000
,
00000000
10000000
10000000
10000000
,
01000000
00100000
01000000
00100000
,
00000000
00010000
00010000
00010000
,
00000000
00001000
00001000
00001000
,
00000000
00000001
00000001
00001000
,
00001000
00001000
00000000
00000010
,
00000010
00000010
00000000
00001000
,
00000000
00001000
00000000
00020000
,
00000000
00031000
00000000
01000000
,
01000000
01000000
00000000
00100000
,
00100000
00100000
00000000
00200000
,
00000000
10300000
00000000
20000000
,
00000000
30010000
00000000
20020000
,
00000000
00000000
00000000
00000000
,
00000000
00000000
00000000
00000000
,
00000000
00000000
00000000
00000000
,
30030000
00000000
00000000
00000000
;
