#TITLE:prompt;
#SUBTITLE:Beatmania IIDX 19th - Lincle;
#ARTIST:wxs ft. spiLa;
#CREDIT:;
#MUSIC:prompt.mp3;
#SELECTABLE:YES;
#BACKGROUND:;
#BANNER:;
#CDTITLE:;
#OFFSET:-0.401973;
#SAMPLESTART:0.000;
#SAMPLELENGTH:0.000;
#BPMS:0=198.009,2=197.995,3=198.009,5=197.995,6=198.009,10=197.995,11=198.009,13=197.995,14=198.009,16=197.995,17=198.009,21=197.995,22=198.009,24=197.995,25=198.009,29=197.995,30=198.009,32=197.995,33=198.009,37=197.995,38=198.009,39=197.995,40=198.009,42=197.995,43=198.009,45=197.995,46=198.009,47=197.995,48=198.009,50=197.995,51=198.009,53=197.995,54=198.009,55=197.995,56=198.009,58=197.995,59=198.009,61=197.995,62=198.009,63=197.995,64=198.009,66=197.995,67=198.009,69=197.995,70=198.009,71=197.995,72=198.009,74=197.995,75=198.009,77=197.995,78=198.009,79=197.995,81=198.009,82=197.995,84=198.009,85=197.995,86=198.009,87=197.995,89=198.009,90=197.995,92=198.009,93=197.995,94=198.009,95=197.995,97=198.009,98=197.995,100=198.009,101=197.995,102=198.009,103=197.995,105=198.009,106=197.995,108=198.009,109=197.995,110=198.009,111=197.995,113=198.009,114=197.995,116=198.009,117=197.995,118=198.009,119=197.995,121=198.009,122=197.995,124=198.009,125=197.995,126=198.009,127=197.995,129=198.009,130=197.995,132=198.009,133=197.995,134=198.009,135=197.995,137=198.009,138=197.995,140=198.009,141=197.995,142=198.009,143=197.995,145=198.009,146=197.995,148=198.009,149=197.995,150=198.009,151=197.995,153=198.009,154=197.995,156=198.009,157=197.995,160=198.009,161=197.995,164=198.009,165=197.995,168=198.009,169=197.995,172=198.009,173=197.995,176=198.009,177=197.995,180=198.009,181=197.995,184=198.009,185=197.995,188=198.009,189=197.995,192=198.009,193=197.995,196=198.009,197=197.995,200=198.009,201=197.995,204=198.009,205=197.995,208=198.009,209=197.995,212=198.009,213=197.995,216=198.009,217=197.995,220=198.009,221=197.995,224=198.009,225=197.995,228=198.009,229=197.995,232=198.009,233=197.995,236=198.009,237=197.995,240=198.009,241=197.995,244=198.009,245=197.995,248=198.009,249=197.995,252=198.009,253=197.995,256=198.009,257=197.995,260=198.009,261=197.995,264=198.009,265=197.995,268=198.009,269=197.995,272=198.009,273=197.995,276=198.009,277=197.995,280=198.009,281=197.995,284=198.009,285=197.995,288=198.009,289=197.995,292=198.009,293=197.995,296=198.009,297=197.995,300=198.009,301=197.995,304=198.009,305=197.995,308=198.009,309=197.995,312=198.009,313=197.995,314=198.009,315=197.995,316=198.009,317=197.995,318=198.009,319=197.995,320=198.009,321=197.995,322=198.009,323=197.995,324=198.009,325=197.995,326=198.009,327=197.995,328=198.009,329=197.995,330=198.009,331=197.995,332=198.009,333=197.995,334=198.009,335=197.995,336=198.009,337=197.995,338=198.009,339=197.995,340=198.009,341=197.995,342=198.009,343=197.995,344=198.009,345=197.995,346=198.009,347=197.995,348=198.009,349=197.995,350=198.009,351=197.995,352=198.009,353=197.995,354=198.009,355=197.995,356=198.009,357=197.995,358=198.009,359=197.995,360=198.009,361=197.995,362=198.009,363=197.995,364=198.009,365=197.995,366=198.009,367=197.995,368=198.009,369=197.995,370=198.009,371=197.995,372=198.009,373=197.995,374=198.009,375=197.995,376=198.009,377=197.995,378=198.009,379=197.995,380=198.009,381=197.995,382=198.009,383=197.995,384=198.009,385=197.995,386=198.009,387=197.995,388=198.009,389=197.995,390=198.009,391=197.995,392=198.009,393=197.995,394=198.009,395=197.995,396=198.009,397=197.995,398=198.009,399=197.995,400=198.009,401=197.995,402=198.009,403=197.995,404=198.009,405=197.995,406=198.009,407=197.995,408=198.009,409=197.995,410=198.009,411=197.995,412=198.009,413=197.995,414=198.009,415=197.995,416=198.009;
#STOPS:;

//---------------dance-solo - ----------------
#NOTES:
     dance-solo:
     :
     Challenge:
     11:
     0.000,0.000,0.000,0.000,0.000:
100010
000100
000010
000001
000000
000010
000100
001000
,
000010
010000
001000
100000
000010
010000
000100
010000
,
100001
010000
000100
001000
000100
000001
010000
001000
,
100000
000100
000001
001000
000010
010000
000010
100000
,
101000
000100
010000
000010
000010
000100
001000
010010
,
100000
000000
000100
000000
000001
000000
000001
000000
000010
000000
010100
001000
000001
000000
000000
000000
,
100100
000001
000100
000000
100010
000000
000100
000000
100010
000001
000010
000000
100001
000000
000100
000000
,
101000
000010
001000
000000
100100
000000
000100
000000
100010
000000
000001
000000
100100
000010
000001
000000
,
100010
000100
001000
000000
100100
000000
000001
000000
100010
000100
001000
000000
100100
000000
000001
000000
,
100010
000100
001000
000000
100100
000000
000001
000000
110000
000000
000010
000000
110000
000000
000100
000000
,
100001
000010
001000
000000
101000
000000
000100
000000
100001
000010
001000
000000
101000
000000
000100
000000
,
100001
000010
001000
000000
101000
000000
000100
000000
100010
000000
001000
000000
100010
000100
001000
000000
,
101000
010000
000010
000000
100100
000000
000001
000000
101000
010000
000010
000000
100100
000000
000001
000000
,
101000
010000
000010
000000
100100
000000
000010
000000
110000
000000
000001
000000
110000
000000
000001
000000
,
100210
100000
100000
100010
,
100000
000000
100000
020310
100000
000000
130200
000000
,
100312
100000
100000
100010
,
100000
000000
000000
000000
100000
000000
000000
000000
100013
000100
001000
010000
100200
000000
000000
000000
,
120310
100000
100000
100010
,
100000
000000
100000
000010
130000
000000
100002
000010
,
100203
000000
000001
000000
100000
000000
000001
000000
100000
010000
000001
000000
010000
000000
102310
000000
,
000000
100000
100000
000010
100000
000010
103000
000010
,
100001
000000
000000
000000
,
000000
000000
000000
000000
,
001010
000000
000000
000000
,
000000
000000
000000
000000
,
100100
000000
000000
000000
000000
000000
000000
110010
,
000000
000000
100000
000000
001000
000000
100000
000000
000000
000000
100000
000000
001000
000010
000100
001000
,
110000
000010
001000
000000
100001
000000
000010
000000
101000
000010
000100
000000
100001
000000
000010
000000
,
101000
000010
000100
000000
100001
000000
000010
000000
101000
000000
000100
000000
100001
000000
000010
000000
,
100100
001000
010000
000000
100001
000000
000010
000000
100100
001000
010000
000000
100001
000000
000010
000000
,
100100
001000
010000
000000
100001
000000
000010
000000
100100
000000
010000
000000
100001
000000
000010
000000
,
100100
000010
000001
000000
100001
000000
010000
000000
100100
000010
000001
000000
100001
000000
010000
000000
,
100100
000010
000001
000000
100001
000000
010000
000000
100100
000000
000001
000000
100001
000000
010000
000000
,
001001
000000
001001
000000
100100
010010
100100
011000
,
000000
000000
000101
000000
000101
000000
000000
000000
100000
010000
001000
000000
000001
000010
000100
000000
,
100100
001000
101000
000010
100001
000001
100100
000010
,
101000
000001
101000
000000
100000
000000
100000
000000
,
100100
001000
101000
000010
100100
000001
100100
000001
,
101000
000100
110000
000000
100000
000000
100000
000000
,
101000
000100
100100
000010
100001
000001
110000
000010
,
100100
000001
100010
000000
100000
000000
100000
000000
,
100000
000000
110000
000001
100001
000010
100001
000001
,
100010
000100
101000
000000
120000
000000
130020
000000
,
120230
000000
000000
000000
002300
003002
000000
000000
,
230023
000000
002030
003200
,
300322
000230
002323
203000
,
320032
000000
032203
000000
,
203320
000000
000032
000000
,
320203
000000
000000
032000
000000
000000
023000
000000
,
131300
000000
100100
100100
000000
100001
000000
100010
,
000000
000000
000101
000000
000101
000000
000000
000000
000001
000010
000100
001000
010000
100000
010000
001000
,
100001
010000
001000
000100
101000
000100
000010
000001
100010
000001
000100
000001
110000
001000
000100
001000
,
100100
000001
000100
000010
100001
010000
000100
000010
101000
000100
000010
000001
100100
000010
000001
010000
,
101000
000100
000010
000001
101000
000100
000010
010000
101000
000100
001000
000100
100010
000001
010000
001000
,
100100
000010
001000
000100
100010
010000
001000
000100
101000
000100
001000
000100
100010
001000
000100
000001
,
100010
000000
100010
001010
000000
010010
000101
000000
,
101000
010100
000000
100100
010010
000000
100001
000000
,
010010
000100
010000
000010
001000
000100
100000
000001
010000
000100
010000
001000
,
100000
000000
000000
000100
000000
000000
001000
000000
000000
010000
000000
000000
000100
000000
000010
000000
000001
000000
000010
000000
000100
000000
001000
000000
,
100201
000000
000000
000000
000000
000320
000032
000203
,
000000
000000
000000
002300
,
113010
000000
101010
000000
101010
001100
010101
110100
,
000000
000000
100000
000000
101010
000000
000000
000000
100001
000010
000100
001000
110001
000000
000000
000000
,
100010
010000
101100
000010
100001
001000
100110
010000
,
100010
010000
101100
000010
100001
001000
100110
010000
,
001001
000010
110100
000010
010100
000010
010101
100000
,
001101
000010
010101
001000
110100
000001
101010
010000
,
110000
001000
010000
000100
101000
000100
001000
000010
100100
000010
000100
000001
101000
000100
001000
000010
,
100001
000010
000100
000001
100010
000100
001000
000010
100100
001000
010000
000100
101000
010000
000100
001000
,
110000
001000
110100
000010
100001
000100
101010
010000
,
100100
000000
100100
000000
000000
001010
000000
000000
010001
000000
000000
100001
000000
000000
010010
000000
,
100001
010000
100110
001000
000101
001000
110010
000100
,
100001
010000
100110
001000
000101
001000
110010
000100
,
100010
010000
001011
000100
010001
000010
110100
001000
,
010011
100000
010101
100000
011001
100000
011010
000100
,
100001
000010
000100
001000
100100
000010
000100
001000
110000
001000
000100
000010
100001
000010
000100
001000
,
100010
000100
010000
001000
100001
000010
001000
000100
100010
000100
010000
001000
100001
000010
010000
001000
,
100000
001000
100010
000100
100001
010000
100100
001000
,
100010
000100
101001
010000
100101
001000
100011
000100
,
100012
000000
100000
000000
100000
000000
100203
020000
,
100000
000000
100000
000000
100000
000000
130320
000002
,
100000
100000
100000
110033
,
100100
000000
101000
000000
110000
000010
100000
000000
,
100200
000000
100000
000000
100000
000000
100320
002000
,
100000
000000
100000
000000
100000
000000
123030
000002
,
100000
000000
100000
000000
100000
030013
101000
000000
,
100010
000100
100001
010000
100000
000100
100000
000000
,
100010
010000
000100
010000
101001
000000
001010
000000
100000
000000
010000
000100
111000
000000
001001
000000
,
100000
000000
010000
000100
111000
000000
001001
000000
100000
000000
001100
000000
101100
000000
000000
000000
,
100011
000100
001000
010000
101010
000000
000110
000000
100000
000000
000010
000100
111000
000000
000110
000000
,
100000
000000
000010
000100
111000
000000
000110
000000
100000
000000
011000
000000
111000
000000
000000
000000
,
001001
000000
000000
100010
001000
010000
000010
000000
000000
010001
000100
001000
,
000001
000000
000000
100100
010000
000100
000001
000010
000100
001000
000100
000010
,
010001
000000
000000
100100
010010
100100
010010
000000
000000
001001
010010
001001
,
010010
000000
000000
100100
010100
101000
001001
001010
000101
100001
001010
010100
,
100001
010000
001000
000100
001000
000010
000100
001000
,
000001
000010
001000
000100
000010
010000
001000
000010
,
010000
000100
100000
000001
100000
001000
000001
100000
,
000100
010000
100000
001000
010000
000100
010000
000001
,
000000
000000
000000
000000
,
000000
000000
000000
000000
,
000000
000000
000000
000000
,
000000
000000
000000
000000
,
000000
000000
000000
000000
;
