#TITLE:oratio;
#SUBTITLE:HYMNUS;
#ARTIST:Jun Wakita;
#CREDIT:;
#MUSIC:oratio.mp3;
#SELECTABLE:YES;
#BACKGROUND:;
#BANNER:;
#CDTITLE:;
#DISPLAYBPM:162.000:162.000;
#OFFSET:-1.51;
#SAMPLESTART:0.000;
#SAMPLELENGTH:0.000;
#BPMS:0=162.003,3=161.993,4=162.003,5=161.993,6=162.003,8=161.993,9=162.003,11=161.993,12=162.003,14=161.993,15=162.003,18=161.993,19=162.003,21=161.993,22=162.003,24=161.993,25=162.003,27=161.993,28=162.003,30=161.993,31=162.003,33=161.993,34=162.003,35=161.993,36=162.003,38=161.993,39=162.003,41=161.993,42=162.003,44=161.993,45=162.003,47=161.993,48=162.003,50=161.993,51=162.003,53=161.993,54=162.003,56=161.993,57=162.003,59=161.993,60=162.003,62=161.993,63=162.003,65=161.993,66=162.003,68=161.993,69=162.003,71=161.993,72=162.003,75=161.993,76=162.003,78=161.993,79=162.003,81=161.993,82=162.003,84=161.993,85=162.003,87=161.993,88=162.003,90=161.993,91=162.003,93=161.993,94=162.003,96=161.993,97=162.003,99=161.993,100=162.003,102=161.993,103=162.003,105=161.993,106=162.003,108=161.993,109=162.003,111=161.993,112=162.003,114=161.993,115=162.003,117=161.993,118=162.003,120=161.993,121=162.003,123=161.993,124=162.003,126=161.993,127=162.003,129=161.993,130=162.003,132=161.993,133=162.003,135=161.993,136=162.003,138=161.993,139=162.003,141=161.993,142=162.003,144=161.993,145=162.003,147=161.993,148=162.003,149=161.993,150=162.003,152=161.993,153=162.003,155=161.993,156=162.003,158=161.993,159=162.003,161=161.993,162=162.003,164=161.993,165=162.003,167=161.993,168=162.003,170=161.993,171=162.003,173=161.993,174=162.003,176=161.993,177=162.003,179=161.993,180=162.003,182=161.993,183=162.003,185=161.993,186=162.003,188=161.993,189=162.003,191=161.993,192=162.003,194=161.993,195=162.003,197=161.993,198=162.003,200=161.993,201=162.003,203=161.993,204=162.003,206=161.993,207=162.003,209=161.993,210=162.003,212=161.993,213=162.003,215=161.993,216=162.003,218=161.993,219=162.003,221=161.993,222=162.003,224=161.993,225=162.003,227=161.993,228=162.003,230=161.993,231=162.003,233=161.993,234=162.003,236=161.993,237=162.003,239=161.993,240=162.003,242=161.993,243=162.003,245=161.993,246=162.003,248=161.993,249=162.003,251=161.993,252=162.003,254=161.993,255=162.003,257=161.993,258=162.003,260=161.993,261=162.003,263=161.993,264=162.003,266=161.993,267=162.003,269=161.993,270=162.003,272=161.993,273=162.003,275=161.993,276=162.003,278=161.993,279=162.003,281=161.993,282=162.003,284=161.993,285=162.003,287=161.993,288=162.003,290=161.993,291=162.003,293=161.993,294=162.003,296=161.993,297=162.003,299=161.993,300=162.003,302=161.993,303=162.003,306=161.993,307=162.003,309=161.993,310=162.003,312=161.993,313=162.003,315=161.993,316=162.003,318=161.993,319=162.003,321=161.993,322=162.003,324=161.993,325=162.003,327=161.993,328=162.003,330=161.993,331=162.003,333=161.993,334=162.003,336=161.993,337=162.003,339=161.993,340=162.003,342=161.993,343=162.003,345=161.993,346=162.003,348=161.993,349=162.003,351=161.993,352=162.003,354=161.993,355=162.003,357=161.993,358=162.003;
#STOPS:;

//---------------dance-single - ----------------
#NOTES:
     dance-single:
     :
     Easy:
     5:
     0.000,0.000,0.000,0.000,0.000:
0000
0000
0000
0000
,
0000
0000
0000
0000
,
0000
0000
0000
0000
,
0000
0000
0000
0000
,
0000
0000
0000
0000
,
0000
0000
0000
0000
,
0000
0000
0000
0000
,
0000
0000
0000
0000
,
1001
0000
0001
0010
,
0001
0000
0000
0000
,
1001
0000
1000
0100
,
1000
0000
0000
0000
,
0000
0000
0100
0000
,
0010
0000
0001
0000
,
0101
0000
0010
0000
,
0100
0000
1000
0000
,
1010
0000
0100
0000
,
0010
0000
0001
0000
,
0001
0001
1000
1000
,
0010
0010
1000
1000
,
1000
1000
0001
0001
,
0100
1001
1000
0001
,
1000
0000
0010
0100
,
0010
0000
1000
0010
,
1000
0000
0001
0100
,
0001
0000
1000
0100
,
1000
0000
0001
0010
,
0001
0000
1000
0001
,
1000
0000
0001
1000
,
0001
0000
1001
0110
,
1000
0100
0010
0000
,
0100
0010
0001
0000
,
1000
0100
0001
0000
,
1000
0010
0001
0000
,
1000
0100
0010
0000
,
0100
0010
0001
0010
,
0000
0001
0001
0010
,
0000
1000
1000
0100
,
1001
0000
0000
0000
,
1100
0000
0000
0000
,
0011
0000
0000
0000
,
0101
0000
0000
0000
,
1010
0000
0000
0000
,
1001
0001
1000
0001
,
1001
1000
1010
1000
,
1100
0100
0110
0010
,
0011
0010
0110
0100
,
1100
1000
1001
0010
,
1000
0000
0010
0100
,
0001
0100
0010
0000
,
0000
0000
0000
0000
,
1000
0000
0100
0010
,
0001
0010
0100
0000
,
0000
0000
1000
0000
,
1000
0010
0100
0001
,
1000
0010
0100
0001
,
0100
0010
1000
0001
,
0100
0010
1000
0100
,
0010
0001
0010
0100
,
1000
0000
0100
1000
0100
0000
0000
0000
,
0000
1001
1001
0100
,
0001
0100
0010
1000
,
0010
0100
0011
0000
,
0110
0000
1100
0000
,
0110
0000
1000
0010
,
1000
0100
0001
0100
,
0001
0010
1100
0000
,
0110
0000
0001
0010
,
1100
0010
1000
0100
,
0010
0100
0001
0010
,
0100
0010
1000
0010
,
0001
0010
0001
0010
,
1000
0010
1000
0100
,
0001
0100
1000
0010
,
0001
0010
1000
0010
,
0100
0001
0001
0010
,
0100
1000
1001
0010
,
1001
0000
1001
0100
,
1001
0000
0010
0001
,
0001
0010
0100
1000
,
1000
0100
1001
0100
,
1001
0000
1001
0010
,
1001
0000
0100
0010
,
0010
0100
0001
1000
,
1000
0001
1001
1000
,
0001
1000
0011
1000
,
0001
0000
0000
0000
1000
0000
0000
0000
0000
0011
0000
0000
0000
0000
0000
0000
,
0000
0000
0000
0000
,
0000
0000
0000
0000
,
0000
0000
0000
0000
,
0000
0000
0000
0000
;

//---------------dance-single - ----------------
#NOTES:
     dance-single:
     :
     Medium:
     8:
     0.000,0.000,0.000,0.000,0.000:
0000
0000
0000
0000
,
0000
0000
0000
0000
,
0000
0000
0000
0000
,
0000
0000
0000
0000
,
0000
0000
0000
0000
,
0000
0000
0000
0000
,
0000
0000
0000
0000
,
0000
0000
0000
0000
,
1001
0000
0001
1000
,
0001
0000
0000
0000
,
1000
0000
1000
0001
,
1000
0000
0000
0000
,
0000
0000
0200
0000
,
0320
0000
0032
0000
,
1003
0000
0000
0010
1000
0000
0000
0010
,
1000
0000
0000
0100
1000
0000
0000
0000
,
0001
0000
0000
0100
0001
0000
0000
0100
,
0001
0000
0000
0010
0001
0000
0010
0000
,
1010
1000
1000
1000
,
0101
0001
0001
0001
,
0110
1000
1000
1000
,
1000
0000
0001
0000
0001
0100
0001
0000
,
1000
0010
0100
0001
,
0010
0100
1000
0000
0100
0000
0010
0000
,
0001
0100
0010
1000
,
0100
0010
0001
0000
0010
0000
0100
0000
,
0100
0001
0010
0001
,
0010
0100
1000
0000
0100
0000
0010
0000
,
0010
1000
0100
1000
,
0100
0010
0001
0000
0010
0000
0100
0000
,
1000
0100
0001
0000
,
1000
0100
0010
0000
,
1000
0100
0001
0000
,
1000
0010
0001
0000
,
1000
0100
0010
0000
,
1000
0100
0010
0100
,
0001
0100
0100
1000
,
0010
0100
0100
1000
,
0001
0100
0010
1000
,
0010
1000
0100
0001
,
0100
0001
1000
0010
,
0100
0001
1000
0010
,
0022
0033
2200
3300
,
1001
0000
0001
0000
0001
0010
0100
0000
,
1001
0001
1010
0010
,
1100
0100
1100
1000
,
1010
1000
0110
0100
,
0101
0100
0011
0010
,
0012
0000
0013
0100
,
1000
0100
0012
0000
,
0000
0000
0000
0003
,
2100
0000
3100
0010
,
0001
0010
2100
0000
,
0000
0000
0000
3100
,
0100
0010
0001
0100
,
0010
0001
1000
0100
,
0010
1000
0100
0010
,
0010
0100
1000
0010
,
0100
0000
1000
0000
0001
0001
1000
1000
,
0010
0010
0100
0100
1001
0000
0000
0000
,
0000
0000
1001
0000
0001
0010
1000
0000
,
1100
0000
1100
0000
0001
0100
1000
0000
,
1100
1100
0120
0000
,
0230
0000
2300
0000
,
3200
0000
0300
0000
1000
0100
0001
0000
,
0011
0000
0011
0000
1000
0010
0001
0000
,
0011
0011
0210
0000
,
0320
0000
2030
3020
,
0230
0302
1003
0010
,
0100
0000
0001
0000
1000
0010
0100
0000
,
0001
1000
0010
0100
,
0001
0000
1000
0000
0010
0100
0001
0000
,
1000
0010
0100
0001
,
1000
0000
0010
0000
0100
0001
1000
0000
,
0010
0100
0001
0010
,
0100
0000
1000
0000
0001
0010
1000
0001
,
0010
1000
0001
0010
1000
0000
0010
0001
,
0010
0000
0110
0000
1100
0000
0100
1000
,
0100
0000
0110
0000
1000
0010
0001
1000
,
0010
0001
0010
1000
0001
0100
1000
0001
,
0100
1000
0100
0001
0101
0000
0100
0001
,
0100
0000
0110
0000
1010
0000
0010
1000
,
0010
0000
0110
0000
1000
1000
0100
0100
,
0010
0010
0001
0001
0010
0100
0010
1000
,
0100
0010
0100
0001
1001
0000
1000
0000
,
0020
0030
0100
0010
0002
0003
1000
0100
,
0020
0000
0030
0000
1000
0000
0010
0000
0000
0001
0100
0000
0000
0000
0000
0000
,
0000
0000
0000
0000
,
0000
0000
0000
0000
,
0000
0000
0000
0000
,
0000
0000
0000
0000
;

//---------------dance-single - ----------------
#NOTES:
     dance-single:
     :
     Hard:
     12:
     0.000,0.000,0.000,0.000,0.000:
0000
0000
0000
0000
,
0000
0000
0000
0000
,
0000
0000
0000
0000
,
0000
0000
0000
0000
,
0000
0000
0000
0000
,
0000
0000
0000
0000
,
0000
0000
0000
0000
,
0000
0000
0000
0000
,
0002
0003
0001
1000
,
0002
0000
0003
0000
,
1000
0000
0010
0010
,
0200
0000
0000
0000
,
0000
0000
0320
0000
,
0032
0000
2003
0000
,
3001
0000
0000
0010
1000
0000
0000
0001
,
0100
0000
0000
0100
1000
0000
0000
0000
,
0010
0000
0000
0100
0001
0000
0000
1000
,
0010
0000
0000
1000
0100
1000
0001
0010
,
0001
0000
1000
0100
1000
0000
1100
0000
,
0011
0000
0001
0010
0001
0000
1010
0000
,
0101
0000
1000
0100
1000
0010
0100
0001
,
0010
0001
0010
0000
1000
0100
1000
0100
,
0001
0000
0010
0100
0001
0000
0011
0000
,
1100
0000
0100
0010
1000
0010
0100
0000
,
1010
0000
0100
0010
1000
0000
1100
0000
,
0011
0000
0100
0010
0001
0010
0100
0000
,
0101
0000
0010
0100
0001
0000
0101
0000
,
1100
0000
1000
0010
0001
0010
1000
0000
,
1001
0000
0001
1000
0100
0000
0011
0000
,
1100
0000
0100
0010
1000
0010
0001
0010
,
1001
0100
0010
0000
,
1000
0010
0001
0000
,
0100
0010
0001
0000
,
1000
0100
0001
0000
,
1000
0010
0001
0000
,
1000
0010
0001
0010
,
0100
1000
0100
0001
,
0100
1000
0010
0001
,
1001
0000
0010
1000
1000
0000
0100
0000
,
0011
0000
0010
0001
0001
0000
0100
0000
,
1100
0000
1000
0100
0100
0000
0010
0000
,
0011
0000
0001
0010
0010
0000
1000
0000
,
1100
0000
0001
0010
0001
0000
0010
0100
,
0010
0000
0100
1000
0100
0000
1000
0100
,
1001
0000
0100
0010
0001
0000
0010
0100
,
1000
0000
0100
0010
0001
0000
0010
0100
,
1000
0000
0010
0001
1000
0000
0100
1000
,
0001
0010
0100
1000
0010
0001
0100
0010
,
0120
1000
1030
0011
,
1010
1100
0021
0001
,
0100
0100
0031
1100
,
0012
0100
1003
1010
,
1100
0110
0021
1000
,
1000
0031
0110
1100
,
1000
0100
1000
0010
1000
0100
1000
0010
,
0100
0001
0010
0001
0100
0001
0010
0001
,
0100
0010
1000
0100
1000
0010
0100
0001
,
0010
0100
1000
0001
0010
0100
0010
0001
,
1000
0100
0010
0001
1000
0100
0010
0100
,
0010
0001
0010
0100
1001
0000
0000
0000
,
0000
0000
0000
0000
1000
0100
1000
0100
1000
0000
0100
0000
1000
0000
0010
0000
,
0100
0001
0010
0001
0100
0010
1000
0100
,
1000
0010
0110
0001
1100
0001
0100
0010
,
1100
0010
0100
1000
0110
1000
0100
1000
,
0011
0000
1000
0000
0001
0010
0001
0010
0001
0000
0100
0000
0010
0000
1000
0000
,
0100
0001
0010
0100
1000
0001
0010
0100
,
0010
0100
1100
0100
0110
0010
0001
1000
,
1100
0010
0001
0100
0110
0010
0011
0001
,
1001
0000
1000
0000
1100
0000
0010
0000
1000
0000
1000
0100
1000
0000
0100
0000
,
0010
0000
0001
0010
0001
0000
0010
0000
0100
0000
1000
0010
1000
0000
0010
0000
,
0100
0000
0001
0100
0001
0000
0100
0000
1000
0000
0100
1000
0100
0000
0010
0000
,
0001
0000
0010
0001
0010
0000
0100
0000
1000
0000
0010
1000
0010
0000
0100
0000
,
0001
0000
0100
0001
0100
0000
0010
0000
0001
0000
0100
1000
0010
0000
0010
0000
,
1000
0000
0010
0001
0100
0000
0100
0000
0001
0000
0010
0100
1000
0000
0100
0000
,
1000
0000
0100
0010
0001
0000
0010
0000
0100
0000
0010
0001
1000
0000
0100
0000
,
0010
0000
0100
1000
0001
0000
0010
0000
1000
0100
0010
0100
1000
0100
0001
0100
,
1000
0010
0001
0010
1000
0100
0010
0100
1000
0000
0100
0000
1000
0000
0000
0000
,
1100
0000
0110
0000
0001
0010
0001
0000
,
0011
0000
0000
0000
0110
0000
0000
0000
1000
0000
0100
0010
0001
0000
0010
0000
,
0001
0000
0010
0100
1000
0000
0100
0000
0010
0000
0100
0010
0001
0000
0010
0000
,
0100
0000
0010
0100
1000
0000
0100
0000
1000
0000
0010
0000
1000
0000
0000
0000
,
1010
0000
0011
0000
0001
0100
0001
0000
,
0101
0000
0000
0000
1100
0000
0000
0000
1000
0000
0100
0010
0001
0000
0100
0000
,
1000
0000
0010
0000
1000
0000
0001
0000
1000
0100
1000
0100
0000
0000
0001
0010
,
0001
0010
0000
1000
0100
0000
0010
0000
1002
0000
0000
0000
0203
0000
0000
0000
,
0320
0000
1030
0010
0200
0000
0310
0100
,
0002
0000
0000
0000
1003
0000
0200
0000
0000
0310
0001
0000
0000
0000
0000
0000
,
0000
0000
0000
0000
,
0000
0000
0000
0000
,
0000
0000
0000
0000
,
0000
0000
0000
0000
;

//---------------dance-single - ----------------
#NOTES:
     dance-single:
     :
     Challenge:
     15:
     0.000,0.000,0.000,0.000,0.000:
0010
0100
1000
0100
,
0001
0010
0100
0010
,
0010
0100
1000
0100
,
0001
0010
0100
0010
,
1000
0100
0010
0100
,
0100
0010
0001
0010
,
1000
0100
0010
0100
,
0100
0010
0001
0000
,
1002
0000
2003
3020
,
2030
0000
0000
3000
,
2001
0000
3010
0010
,
0200
0000
0000
0000
,
0000
0000
0320
0000
,
0032
0000
0023
0000
,
0031
0000
0000
0000
0000
0000
0001
0010
0100
0000
0000
0000
0000
0000
0001
0010
,
1000
0000
0000
0000
0000
0000
0001
0100
1000
0000
0000
0000
0000
0000
1000
0000
,
1000
0000
0000
0000
0000
0000
1000
0100
0010
0000
0000
0000
0000
0000
1000
0100
,
0020
0000
0000
0000
0000
0000
0000
0000
0130
0000
1000
0100
1000
0000
0100
0000
,
0011
0101
1010
1100
,
0110
0000
0011
0000
0101
0000
1001
1000
,
1010
1100
0101
1010
,
0001
0010
0001
0010
0000
0000
0000
0000
1000
0000
1000
0000
0010
0000
0010
0000
,
1000
0100
1000
0100
1000
0000
0100
0000
0001
0010
0001
0010
0001
0000
0010
0000
,
1000
0100
1000
0010
1000
0000
0010
0000
0001
0010
0001
0100
0001
0000
0100
0000
,
0100
1000
0100
0010
0100
0000
1000
0000
0010
0001
0010
0100
0010
0000
0001
0000
,
0010
0100
1000
0010
0100
0000
0010
0000
0100
0010
0001
0100
0010
0000
0100
0000
,
0010
0100
1000
0001
0010
0000
0001
0000
0100
0010
0001
1000
0100
0000
1000
0000
,
0100
0010
1000
0100
0010
0000
1000
0000
0010
0100
0001
0010
0100
0000
0001
0000
,
1000
0100
0010
0001
0010
0000
0010
0000
0001
0010
0100
1000
0100
0000
0100
0000
,
1000
0010
1000
0010
0100
0000
0100
0000
0001
0100
0001
0100
0001
0100
0001
0100
,
1000
0100
0100
0010
0001
0000
0000
0000
,
1000
0010
1000
0100
0001
0000
0000
0000
,
1000
0100
0010
1000
0010
0000
0000
0000
,
1000
0000
0010
0000
1000
0000
0010
0000
0001
0000
0000
0000
0000
0000
1000
0100
,
0010
1000
0100
0001
0010
0000
0000
0000
,
1000
0010
0100
0001
0100
0010
1000
0100
,
1000
0100
0001
0010
0001
0010
0100
1000
,
0100
0000
1000
0000
0001
0000
0010
0000
0001
0000
0010
0000
0100
0000
1000
0100
,
1001
0000
0000
0000
0000
0000
0000
0000
0000
0000
0000
0000
0000
0000
0010
0100
,
1000
0000
0000
0000
0000
0000
0000
0000
0000
0000
0000
0000
0000
0000
1000
0100
,
0001
0000
0000
0000
0000
0000
0000
0000
0000
0000
0000
0000
0000
0000
0001
0100
,
1000
0000
0000
0000
0000
0000
0000
0000
0000
0000
0000
0000
0000
0000
1000
0100
,
0010
0010
0010
0010
,
0010
0000
0000
0000
0010
0000
0000
0000
1000
0100
0010
1000
0100
0010
0001
0100
,
0001
0010
0100
0010
0001
0000
0101
0000
1000
0100
0010
0100
1000
0000
1010
0000
,
0001
0010
0100
1000
0100
0000
0110
0000
1000
0100
0010
0001
0010
0000
0110
0000
,
0010
0100
1000
0100
0010
0000
0011
0000
0100
0010
0001
0010
0100
0000
1100
0000
,
0001
0100
1000
0100
0010
0000
1010
0000
1000
0010
0001
0010
0100
0000
0101
0000
,
0002
0100
0103
0011
,
0110
1100
2020
0000
,
0130
0001
0010
3100
,
0002
0100
0013
1100
,
0110
0011
0220
0000
,
1300
1000
0130
0011
,
1000
0010
0100
0001
0100
0001
1000
0010
,
0100
1000
0001
0010
0100
1000
0010
0100
,
0001
0010
0100
0010
1000
0100
0010
0100
,
0001
0010
0100
0010
1000
0010
0100
0001
,
0010
0001
0100
0010
1000
0100
1000
0010
,
0100
0000
0001
0000
1000
0100
1000
0100
1000
0000
0000
0000
2000
0000
0000
0000
,
3020
0000
0000
0000
0031
0100
0001
0100
0001
0010
0001
0010
0100
1000
0100
1000
,
0010
0100
0010
0100
0001
0010
0001
0010
0100
1000
0100
1000
0010
0100
0010
0100
,
0001
0010
0001
0010
2100
0000
0000
0000
3102
0000
0000
0000
0000
0000
0000
0000
,
0123
0000
2130
0000
,
3120
0000
0000
0000
0130
0000
0000
0000
1000
0100
1000
0100
1000
0010
1000
0010
,
0100
0010
0100
0010
0100
0001
0100
0001
0100
0010
0100
0010
1000
0010
1000
0010
,
0100
0001
0100
0001
0210
0000
0000
0000
0312
0000
0000
0000
0000
0000
0000
0000
,
2013
0000
3012
0213
,
2310
0000
0000
0000
3012
0000
0000
0000
0013
0100
0010
0100
1000
0100
1000
0000
,
0100
0000
0001
0010
0001
0000
0010
0000
1000
0100
0010
0100
0010
0001
0010
0000
,
0001
0000
1000
0100
1000
0000
0100
0000
0001
0100
1000
0001
0010
0100
1000
0000
,
0100
0000
0010
0001
0010
0000
0001
0000
0010
0100
1000
0100
0010
0001
0010
0000
,
0100
0000
1000
0100
1000
0000
0100
0000
0001
0010
0100
1000
0001
0010
0100
0000
,
0010
0000
0001
0010
0001
0000
0010
0000
1000
0100
0010
1000
0100
0010
0001
0000
,
0010
0000
1000
0100
1000
0000
0100
0000
1000
0010
0100
0001
0100
0000
0010
0000
,
1000
0000
0100
0010
0001
0000
0010
0000
1000
0001
0100
0001
1000
0010
0100
0010
,
1000
0100
1000
0010
0100
0001
0100
0001
0010
0000
0000
0000
0101
0000
0010
0100
,
1001
0000
0000
0000
0011
0000
0000
0000
1100
0000
0000
0000
1010
0000
0100
0010
,
1001
0000
0000
0000
1100
0000
0000
0000
1000
0000
0100
0010
1000
0000
0100
0000
,
0010
0000
0100
0000
0001
0000
0010
0000
0001
0000
0010
0100
0001
0000
0010
0000
,
0100
0000
0010
0000
1000
0000
0100
0000
1001
0000
0000
0000
1100
0000
0010
0001
,
1100
0000
0000
0000
0011
0000
0000
0000
1001
0000
0000
0000
0011
0000
0100
1000
,
0011
0000
0000
0000
1100
0000
0000
0000
1000
0000
0100
0000
0010
0000
0100
0010
,
0001
0000
0010
0000
0100
0000
1000
0000
0001
0010
0001
0010
0000
0000
1000
0100
,
1000
0100
0000
0001
0010
0000
0100
0000
1002
0000
0000
0000
2003
0000
0000
0000
,
3200
0000
0302
0023
0230
0000
2300
3020
,
0230
0000
0000
0000
0302
0000
0203
0000
0000
0310
1000
0000
0000
0000
0000
0000
,
0000
0000
0000
0000
,
0000
0000
0000
0000
,
0000
0000
0000
0000
,
0000
0000
0000
0000
;
