#TITLE:Yellow Head Joe;
#SUBTITLE:Beatmania IIDX 19th - LINCLE;
#ARTIST:S-C-U;
#CREDIT:;
#MUSIC:yellow head joe.mp3;
#SELECTABLE:YES;
#BACKGROUND:;
#BANNER:;
#CDTITLE:;
#OFFSET:-0.4;
#SAMPLESTART:0.000;
#SAMPLELENGTH:0.000;
#BPMS:0=187.01,1=186.996,3=187.01,4=186.996,7=187.01,8=186.996,11=187.01,12=186.996,15=187.01,16=186.996,18=187.01,19=186.996,22=187.01,23=186.996,25=187.01,26=186.996,29=187.01,30=186.996,32=187.01,33=186.996,36=187.01,37=186.996,40=187.01,41=186.996,44=187.01,45=186.996,48=187.01,49=186.996,52=187.01,53=186.996,56=187.01,57=186.996,60=187.01,61=186.996,64=187.01,65=186.996,68=187.01,69=186.996,72=187.01,73=186.996,76=187.01,77=186.996,80=187.01,81=186.996,84=187.01,85=186.996,88=187.01,89=186.996,92=187.01,93=186.996,96=187.01,97=186.996,100=187.01,101=186.996,104=187.01,105=186.996,108=187.01,109=186.996,112=187.01,113=186.996,116=187.01,117=186.996,120=187.01,121=186.996,124=187.01,125=186.996,128=187.01,129=186.996,132=187.01,133=186.996,136=187.01,137=186.996,140=187.01,141=186.996,144=187.01,145=186.996,148=187.01,149=186.996,152=187.01,153=186.996,156=187.01,157=186.996,160=187.01,161=186.996,164=187.01,165=186.996,168=187.01,169=186.996,172=187.01,173=186.996,176=187.01,177=186.996,180=187.01,181=186.996,184=187.01,185=186.996,188=187.01,189=186.996,192=187.01,193=186.996,196=187.01,197=186.996,200=187.01,201=186.996,204=187.01,205=186.996,208=187.01,209=186.996,212=187.01,213=186.996,216=187.01,217=186.996,220=187.01,221=186.996,224=187.01,225=186.996,228=187.01,229=186.996,232=187.01,233=186.996,236=187.01,237=186.996,240=187.01,241=186.996,244=187.01,245=186.996,248=187.01,249=186.996,252=187.01,253=186.996,256=187.01,257=186.996,260=187.01,261=186.996,264=187.01,265=186.996,268=187.01,269=186.996,272=187.01,273=186.996,276=187.01,277=186.996,280=187.01,281=186.996,284=187.01,285=186.996,288=187.01,289=186.996,292=187.01,293=186.996,296=187.01,297=186.996,298=187.01,299=186.996,300=187.01;
#STOPS:;

//---------------dance-solo - ----------------
#NOTES:
     dance-solo:
     :
     Challenge:
     12:
     0.000,0.000,0.000,0.000,0.000:
100000
100100
000000
101001
000000
010000
100100
001000
,
100010
000100
100000
001000
100010
000100
100001
000010
,
100000
000000
100001
000000
000000
000000
100110
000000
000000
000000
000010
001000
100010
000000
000010
000000
,
100100
000000
000100
000000
100000
000000
000100
010000
100100
000000
000010
000000
100010
000000
000010
000000
,
100000
101000
000000
110001
000000
010000
101000
000100
,
101000
000010
100000
001000
100100
000001
100010
000001
,
100000
000000
100100
000000
000000
000000
110001
000000
000000
000000
001000
000001
101000
000000
001000
000000
,
101000
000000
000100
000000
100000
000000
001000
000010
101000
000000
001000
000000
101000
000000
000001
000000
,
100000
000000
100100
000000
000000
000000
000000
000000
110010
001000
000000
010000
100100
000000
001000
000100
,
100000
001000
000010
000000
100100
000010
000001
000000
100001
000100
000000
000001
100010
000000
000010
001000
,
100000
000000
000001
000000
000100
000000
000000
000000
100100
001000
000000
000000
000010
000001
000000
000000
110000
000000
001000
000000
000000
000000
010000
000000
100010
000000
000000
000000
001000
000000
000001
000000
,
100000
000100
001000
000000
100010
000100
000010
000000
101000
010000
000000
000001
100010
000000
000001
010000
,
100000
000000
000010
000000
001000
000000
000000
000000
100010
000100
000000
000000
001000
010000
000000
000000
100100
000000
000001
000000
000000
000000
000100
000000
100001
000000
000000
000000
001000
000000
000010
000000
,
100000
001000
000010
000000
101000
010000
001000
000000
100100
001000
000000
000100
101000
000000
001000
010000
,
100000
000000
000001
000000
000010
000000
000000
000000
101000
010000
000000
000000
000100
000010
000000
000000
101000
000000
000001
000000
000000
000000
000100
000000
110000
000000
000000
000000
000100
000000
001000
000000
,
100000
000010
001000
000000
100100
000001
001000
000000
101000
010000
000000
000001
101000
000000
000100
001000
,
100000
000000
000010
000000
000100
000000
000000
000000
101000
010000
000000
000000
000001
001000
000000
000000
110000
000000
000010
000000
000000
000000
010000
000000
100100
000000
000000
000000
010000
000000
001000
000000
,
100000
000100
000010
000000
100001
001000
000001
000000
100010
000100
000000
000010
101000
000000
000001
000100
,
100000
000000
000010
000000
001000
000000
000000
000000
100010
010000
000000
000000
000100
010000
000000
000000
101000
000000
010000
000000
000000
000000
010000
000000
101000
000000
000000
000000
001000
000000
000010
000000
,
100000
000010
000001
000000
101000
000010
000100
000000
101000
010000
000000
001000
100010
000000
001000
000001
,
100000
000000
001000
000000
010000
000000
000000
000000
100100
001000
000000
000000
000100
000010
000000
000000
100001
000000
010000
000000
000000
000000
000001
000000
110000
000000
000000
000000
000010
000000
010000
000000
,
100000
000010
010000
000000
110000
001000
010000
000000
101000
000010
000000
001000
100001
000000
010000
000010
,
100000
000000
001000
000000
000001
000000
000000
000000
100100
010000
000000
000000
000100
000010
000000
000000
000010
000000
000001
000000
000000
000000
000010
000000
001000
000000
000000
000000
000100
000000
000001
000000
,
000000
001000
010000
000000
000100
000010
000001
000000
000100
000010
000000
000100
010000
000000
001000
000010
,
000000
000000
000010
000000
010000
000000
000000
000000
001000
010000
000000
000000
000100
000010
000000
000000
101001
000000
000000
000000
010000
000000
000000
000000
100100
000000
000000
000000
001000
000000
000000
000000
,
100100
000010
101000
000100
110000
001000
100100
000010
,
100001
001000
100010
000100
100001
000010
101000
010000
,
100000
000100
100001
000010
101000
010000
100000
000100
,
100001
000010
101000
010000
101000
000010
110000
000100
,
110000
001000
100010
000100
101000
000100
100001
000010
,
100001
000000
001000
000000
100100
000000
001000
000000
100001
000010
000000
000010
101000
000000
001000
000000
,
100010
000100
000000
000100
110000
000000
010000
000000
100010
000001
000000
000001
100100
000000
000100
000000
,
100001
010000
000000
000000
000010
010000
000000
000000
100100
010000
000000
000000
000000
000000
000000
000000
101010
000000
000000
000000
000001
000000
000000
000000
100100
000000
000000
000000
000010
000000
000000
000000
,
101000
000100
100010
000001
101000
000100
100010
000100
,
100001
010000
101000
001000
100001
000010
100100
000100
,
100000
010000
100001
000010
100100
000100
100000
010000
,
100001
000010
100100
000100
100100
000001
100100
000001
,
100100
000000
010000
000000
100100
000000
010000
000000
101000
000100
010000
000010
110000
000001
001000
000100
,
101000
000010
010000
000100
101000
000001
010000
000010
101001
000000
010101
000000
000000
000000
011100
000000
,
000000
001101
000000
111000
000000
101010
010110
000000
,
000000
000000
010000
001000
000100
001000
100100
000010
100001
000000
000100
000001
100000
001000
000010
000000
,
101000
000000
010000
001000
100100
000010
000100
000010
100001
000000
010000
000001
100000
001000
000001
000000
,
100100
000000
010000
001000
100100
000010
000001
001000
100001
000000
010000
000100
100000
000100
000001
000000
,
100000
000010
000000
001000
100000
000100
000000
000000
110000
001000
010000
000100
101000
000010
000100
000001
,
100010
000001
000100
000010
101000
000100
010000
001000
110000
000000
000100
001000
100000
000100
000010
000000
,
101000
000000
010000
001000
100100
010000
000100
000010
100001
000000
000100
000010
100000
000010
000001
000000
,
100010
000000
010000
001000
100100
000001
000010
000100
101000
000000
000010
001000
100000
000010
000100
000000
,
100010
000100
000000
000001
101000
000000
000001
001000
100000
000001
000010
000000
100001
000010
000000
001000
,
100100
000000
010000
101000
110000
000100
101000
000010
100001
000000
001000
000010
100000
000100
000010
000000
,
100100
000000
010000
000001
100100
000010
000001
001000
100001
000000
000100
000010
100000
010000
000100
000000
,
101000
000000
010000
000100
100001
001000
000010
000100
100001
000000
001000
000010
100000
000010
000001
000000
,
100000
000010
000000
000100
100000
001000
000000
000000
101000
000100
000010
000001
100010
000100
010000
001000
,
100001
000010
000100
001000
110000
000001
000010
001000
110000
000000
000100
000001
100000
000010
000001
000000
,
100100
000000
001000
000000
110000
000000
000100
001000
100010
000000
010000
000100
100000
001000
000010
000000
,
100100
000000
001000
000000
100010
000000
000100
001000
000001
000000
000100
000001
000000
000100
010000
000000
,
000100
010000
000000
000010
001000
000000
000001
000000
000000
000000
000000
000000
000000
000000
000000
000000
,
000000
000000
000000
000000
000000
000000
000000
000000
101001
000100
000000
001000
000010
000000
001000
000001
,
000000
010000
000100
000000
000100
000001
000000
000010
000001
000000
000010
000001
000000
000100
000010
000000
,
000100
000000
000010
000000
100000
000000
110000
000100
100000
000000
010000
000100
100000
000000
000000
000000
101001
000000
000010
000000
000000
000000
001000
000000
010000
000000
000000
000000
001000
000000
000010
000000
,
000000
000100
010000
000000
001000
000001
100000
000010
101001
000000
100010
000001
000000
010000
000010
000000
,
010000
000000
000100
000000
100000
000000
010000
000100
100000
000000
010000
001000
100000
000000
100000
000000
110001
000000
000100
000000
000000
000000
000010
000000
100100
000000
000000
000000
001000
000000
000001
000000
,
100000
001000
010000
000000
100010
001000
000000
001000
100100
000000
010000
001000
100000
000100
000010
000000
,
101000
000000
000001
000000
000000
000000
100100
001000
100000
000000
000100
010000
100000
000000
000000
000000
101000
000000
000010
000000
000000
000000
001000
000000
100100
000000
000000
000000
001000
000000
010000
000000
,
100000
001000
000001
000000
101000
000010
000000
001000
100100
000000
001000
010000
100000
001000
000001
000000
,
101000
000000
100010
000000
000000
000000
101000
010000
100000
000000
001000
000010
100000
000000
000000
000000
110001
000000
000100
000000
000001
000000
010000
000000
101000
000000
000000
000000
000101
000000
000010
000000
,
100000
010000
000101
000000
101000
000010
000001
000100
100010
000000
000101
000010
100000
001000
010001
000000
,
100010
000000
000100
000000
000001
000000
100100
010000
100000
000000
001000
010000
100001
000000
000000
000000
101001
000000
000100
000000
000001
000000
010000
000000
101000
000000
000000
000000
010001
000000
000010
000000
,
100000
000100
000011
000000
110000
001000
000001
001000
100010
000000
001001
000010
100000
000100
010001
000000
,
101000
000000
110000
000000
000001
000000
100010
001000
100000
000000
000010
010000
100001
000000
000000
000000
101100
000000
000010
000000
000001
000000
000100
000000
100010
000000
000000
000000
010001
000000
000100
000000
,
100000
010000
000101
000000
110000
000100
000001
000100
101000
000000
010001
000100
100000
000010
010001
000000
,
100100
000000
001000
000000
000001
000000
000100
010000
100000
000000
100010
001000
100000
000000
000000
000000
001000
000000
100111
000000
000000
000000
010000
000000
101110
000000
000000
000000
000010
000000
110101
000000
,
000000
001000
110110
000000
000100
110011
000000
100000
011110
000000
000010
011101
000000
100000
010111
000000
,
000100
111001
000000
000100
011010
000100
100011
000000
000000
000000
000000
000000
000000
000000
000000
000000
,
000000
000000
000000
000000
,
000000
000000
000000
000000
,
000000
000000
000000
000000
;
