#TITLE:The Sampling Paradise;
#SUBTITLE:Beatmania IIDX 19th - Lincle;
#ARTIST:Mamonis;
#CREDIT:;
#MUSIC:The Sampling Paradise.mp3;
#SELECTABLE:YES;
#BACKGROUND:;
#BANNER:;
#CDTITLE:;
#OFFSET:-0.455986;
#SAMPLESTART:0.000;
#SAMPLELENGTH:0.000;
#BPMS:0=150;
#STOPS:;

//---------------dance-single - ----------------
#NOTES:
     dance-single:
     :
     Challenge:
     19:
     0.000,0.000,0.000,0.000,0.000:
1001
0000
0010
0000
1000
0000
0100
0000
0000
0001
0000
0000
0000
0000
0000
0000
,
0010
0000
0000
0000
0100
0000
0000
0000
1000
0000
0010
0000
0001
0000
0001
0100
,
0010
1000
0100
0010
1000
0010
0001
0100
0010
0001
0001
0001
2100
0000
0010
0000
,
3100
0000
0010
0000
0100
0010
1000
0001
0010
1000
0010
0100
1000
0000
0000
0000
,
0101
0000
0010
0000
0100
0000
0001
0000
0000
1000
0000
0000
0100
0000
0010
0000
,
0001
0010
0001
0010
0100
0010
0100
0010
0100
1000
0100
1000
0100
0001
0100
0001
,
0010
1000
0010
1000
0001
1000
0001
1000
0220
0000
0000
0000
2332
0000
0000
0000
,
3013
0100
1000
0010
0001
0000
0010
0000
1000
0000
0000
0000
0022
0000
0000
0000
,
1033
0100
1000
0010
0000
0001
0000
0010
0000
0010
1000
0000
0000
0000
0000
0000
,
0100
0000
0100
0010
0000
1000
0000
0100
0000
0100
0000
0001
0100
0000
0010
0100
,
1000
0000
0100
0010
0000
0100
0000
0010
0000
1000
0010
0000
0000
0000
0000
0000
,
0000
1000
0010
0100
0001
0000
1000
0100
0000
0010
0000
1000
0100
0000
0010
0001
,
1010
0001
0100
0010
0000
1000
0000
0100
0000
0001
1000
0000
0000
0000
0000
0000
,
0100
0000
0002
0000
0103
0000
1000
0010
0000
0100
0000
0001
1000
0000
0100
0000
,
0010
0000
1000
0100
0000
0010
0000
0001
0000
0010
1000
0000
0000
0000
0000
0000
,
1100
0000
0100
0101
0000
0010
1010
0000
1100
0110
0011
0000
1010
0000
1001
0000
,
1100
0001
1000
0001
0100
0001
0010
0001
1000
0100
0001
0010
0001
1000
0001
1000
,
0010
1000
0100
1000
0010
0100
0010
0100
1000
0100
0010
0100
0010
0001
2000
0000
,
3010
0100
0001
0010
0100
1000
0010
0100
0001
0010
0100
1000
0100
0010
1000
0100
,
0010
0001
0100
0010
1000
0100
0010
0001
1000
0010
0100
0001
0100
0010
2000
0000
,
3010
0001
0100
0010
0000
1000
0000
0000
0100
1000
0010
0100
0000
0001
0000
0000
,
0100
0001
0010
1000
0010
0000
0000
0000
0010
0100
0010
0100
0001
1000
0001
1000
,
0010
0000
1000
0000
0010
1000
0000
0100
0000
0001
0000
1000
0000
0100
0001
0000
,
1002
0000
2000
0000
,
3013
1000
0010
0001
0100
0010
0000
0001
0000
0001
0000
0100
0000
0010
1000
0010
,
0100
0001
0010
1000
0100
0010
0000
0001
0000
0001
0000
0010
0000
1000
0100
0010
,
0001
0000
0001
0000
0100
0000
0010
1000
0000
0010
1000
0010
0000
0100
0010
0001
,
0100
0000
0000
0000
0000
0000
0010
0000
0000
1000
0000
0000
0000
0000
0000
0001
0010
0000
0100
0000
1000
0000
0000
0000
0000
0000
0000
0100
0000
0000
0001
0000
0000
0000
0000
0000
0001
0000
1000
0000
0001
0000
1000
0000
0000
0010
0000
0000
,
0001
0010
1000
0100
1000
0001
0000
0010
0000
0100
0000
0001
0000
0010
1000
0010
,
0100
0001
1000
0000
0001
0001
0000
0100
0000
0001
0000
0100
0000
0001
0100
0001
,
0100
1000
1000
1000
1100
1100
1100
1100
,
2100
0000
0000
0000
0000
0000
0000
0000
0000
0001
0000
0010
3000
0100
0010
0001
,
1000
0100
1000
0010
0100
0001
0000
0011
0000
0101
0000
1010
0000
0100
1000
0100
,
0010
0100
0001
1000
0100
0010
0000
0101
0000
1100
0000
0011
0000
1000
0100
0010
,
0101
0000
1010
0000
0011
0000
0100
1100
0000
0010
0100
0001
0000
1000
0001
0010
,
0001
0000
0000
0000
0000
0000
0010
0000
0000
1010
0000
0000
0000
0000
0000
0101
0000
0000
0010
0000
0000
1100
0000
0000
0000
0000
0000
1000
0000
0000
0001
0000
0000
0000
0000
0000
0001
0000
0010
0000
0100
0000
1000
0000
0000
0010
0000
0000
,
1000
0100
1000
0010
0100
0001
0000
0001
1000
0010
1000
0001
0100
0001
0000
0010
,
0100
0010
1000
0001
0010
0001
0000
0010
0001
0100
0001
1000
0100
1000
0000
0001
,
0010
0000
0000
0100
0000
0000
0000
0000
0000
0010
0000
0000
0100
0000
0000
1000
0000
0000
0000
0000
0000
0001
0000
0000
0010
0000
0000
0100
0000
0000
0000
0000
0000
0001
0000
0000
0010
0000
0100
0000
1000
0000
0001
0000
0010
0000
0100
0000
,
0020
0032
0203
2300
3200
0300
0002
0000
2000
0000
0000
0000
0200
0000
3303
0000
,
1010
0010
0011
0001
1001
1000
1010
0010
,
0110
0100
1100
1000
1001
0001
0101
0100
,
0110
0010
0011
0010
0110
0010
1010
1000
,
0100
0021
0130
0021
1030
0102
1003
0102
,
1103
0100
0101
0001
0011
0010
1010
1000
,
1001
0001
0101
0100
0110
0010
0011
0001
,
1001
1000
1010
1000
1100
1000
1010
1000
,
0100
2001
3100
2001
3100
0012
0103
0012
,
0103
0010
1000
0100
0010
0001
0000
0011
0000
0101
0000
0000
0001
0010
0001
0100
,
0001
0000
0000
1000
0000
0000
0001
0000
0000
0100
0000
0000
0010
0000
0000
1000
0000
0000
0000
0000
0000
0110
0000
0000
0000
0000
0000
0011
0000
0000
0000
0000
0000
0000
0000
0000
0001
0000
0010
0000
0100
0000
1000
0000
0000
0001
0000
0000
,
1100
0010
1001
0100
1001
0000
0000
0000
,
2000
0000
0000
0000
,
3011
0000
0000
0010
1001
0000
0010
0000
1100
0000
0001
0100
0101
0000
1000
0000
,
0110
0000
1000
0100
0001
0000
0010
0000
1000
0000
0110
0000
1001
0000
0000
0000
,
0011
0000
0000
0010
0011
0000
1010
0000
0200
0320
0031
0000
1100
0000
1100
0000
,
0011
0000
0010
1001
0000
0000
0011
0000
1100
0000
0101
0000
1010
0000
0110
0000
,
1001
0000
0010
0100
0011
0000
1000
0000
0001
1000
0000
0000
1010
0000
0100
0000
,
0001
0000
0100
0000
0010
0000
1000
0000
0000
0100
0000
0000
0001
0000
0000
0010
0000
0000
2100
0000
0000
0000
0000
0000
0000
0000
0000
3200
0000
0000
0000
0000
0000
2300
0000
0000
3020
0000
0000
0000
0000
0000
0032
0000
0000
0000
0000
0000
,
1103
0000
0000
0000
0000
0000
0020
0000
0000
0000
0000
0000
0130
0000
0000
0000
0000
0000
0002
0000
0000
0000
0000
0000
0103
0000
0010
0000
0100
0000
2000
0000
0000
0000
0000
0000
3200
0000
0000
0000
0000
0000
0320
0000
0000
2030
0000
0000
,
3102
0000
0000
0000
0000
0000
0000
0000
0000
0200
0000
0000
0300
0000
0000
2000
0000
0000
3000
0000
0000
0200
0000
0000
0303
0000
0000
0000
0000
0000
0001
0000
0010
0000
0100
0000
1000
0000
0000
0000
0100
0000
0000
0000
0010
0000
0000
0000
,
0001
0010
0001
0000
0010
0100
0010
0000
1000
0100
1000
0100
1000
0010
0100
0001
,
1020
0000
0000
0000
1000
0000
0000
0000
1000
0000
0000
0000
2030
3020
0230
0302
,
1003
0100
0010
0100
0001
0010
0000
0011
0000
1100
0000
0101
0000
0001
0010
0100
,
1000
0010
0100
0010
0100
1000
0000
1100
0000
0101
0000
1010
0000
1000
0010
0001
,
0110
0000
1100
0000
0011
0000
0110
0100
0000
1000
0001
0010
0000
0100
1000
0010
,
0001
0000
0000
0000
0000
0000
1000
0000
0000
0001
0000
0000
0000
0000
0000
0100
0000
0000
1000
0000
0000
0100
0000
0000
0000
0000
0000
0010
0000
0000
0001
0000
0000
0010
0000
0000
1000
0000
0100
0000
0010
0000
0001
0000
0000
0010
0000
0000
,
0100
0010
0100
0010
0001
1000
0000
0011
0000
0011
0000
1010
0000
0100
1000
0100
,
0010
0001
0100
1000
0100
0001
0000
1010
0000
0101
0000
0011
0000
0010
1000
0001
,
1100
0000
0001
0000
0100
0000
0010
0001
0000
1000
0010
0000
0001
0000
0010
0000
,
0011
0000
0000
1100
0000
0000
0011
0000
0000
0011
0000
1001
0000
0010
1001
0100
,
0000
0000
0000
0000
,
0000
0000
0000
0000
,
0000
0000
0000
0000
,
0000
0000
0000
0000
,
0000
0000
0000
0000
;
