#TITLE:The Rain Maker;
#SUBTITLE:DJMAX Portable 3;
#ARTIST:Paul Bazooka;
#CREDIT:;
#MUSIC:The Rain Maker.mp3;
#SELECTABLE:YES;
#BACKGROUND:;
#BANNER:;
#CDTITLE:;
#OFFSET:-0.07;
#SAMPLESTART:0.000;
#SAMPLELENGTH:0.000;
#BPMS:0=138.028,1=137.999,11=138.021,12=137.999,22=138.021,23=137.999,35=138.014,36=137.999,51=138.014,52=137.999,61=138.007,62=137.999,69=138.007,70=137.999,77=138.007,78=137.999,85=138.007,86=137.999,93=138.007,94=137.999,101=138.007,102=137.999,118=137.992,119=137.999,135=137.992,136=137.999,137=137.992,138=137.999,154=137.992,155=137.999,156=137.992,157=137.999,173=137.992,174=137.999,175=137.992,176=137.999,192=137.992,193=137.999,195=137.992,196=137.999,212=137.992,213=137.999,215=137.992,216=137.999,230=137.992,231=137.999,245=137.992,246=137.999,249=137.992,250=137.999,264=137.992,265=137.999,268=137.992,269=137.999;
#STOPS:;

//---------------dance-single - ----------------
#NOTES:
     dance-single:
     :
     Challenge:
     15:
     0.000,0.000,0.000,0.000,0.000:
1001
0000
0001
0000
0000
0001
0000
0000
0010
0000
0000
1000
0000
0000
0010
0000
,
0000
0001
0000
0000
0100
0000
0000
0010
0000
0001
0000
1000
0000
0010
0000
0001
,
1001
0000
1000
0000
0000
0010
0000
0000
0100
0000
0000
0001
0000
0000
0010
0000
,
0000
0100
0000
0000
0001
0000
0000
1000
0000
0010
0000
0001
0000
0100
0000
0001
,
1001
0000
0010
0000
0000
0100
1000
0000
0010
0000
0000
0100
0001
0000
0100
0000
,
1000
0001
0000
0000
0010
0000
0100
1000
0000
0010
0000
0100
0010
0000
0001
0000
,
0201
0000
0000
0000
,
0000
0000
0000
0000
0002
0000
0000
0303
,
1001
0000
0100
0001
0000
1000
0010
0000
0010
0100
0000
0000
1000
0010
0100
0000
,
1001
0000
0010
0001
0000
0010
1000
0000
0100
0001
0000
0000
0100
1000
0010
0000
,
1001
0000
0010
1000
0000
0010
0001
0000
0010
1000
0000
0000
0100
0001
0010
0000
,
1010
0000
0100
0010
0000
1000
0100
0000
0001
0100
0000
0000
1000
0010
0001
0000
,
1100
0000
0001
0100
0000
1000
0010
0000
0100
0001
0000
0000
0001
0010
0100
0000
,
1010
0000
0100
0001
0000
0100
1000
0000
0100
0001
0000
0000
0010
0100
1000
0000
,
0110
0000
1000
0010
0000
0010
0001
0000
0010
1000
0000
0000
0100
0001
1000
0000
,
0011
0000
0010
1000
0000
0010
0100
0000
0001
1000
0000
1000
0001
1000
0001
1000
,
0001
0010
1100
0110
0001
0101
0011
1000
,
0101
1000
0110
0001
1100
1010
0010
1100
,
0011
0100
0110
1001
0010
1100
0110
0001
,
1100
0001
0110
1000
0101
0110
0001
1100
,
1010
0010
0110
1100
0001
0110
0011
1000
,
1100
0010
0101
1000
0110
1001
0100
1010
,
0011
0100
0011
1100
0010
0011
0101
1000
,
0011
0100
1001
0010
1100
1100
0010
0011
,
1010
0000
0100
0010
0001
0000
0010
0000
0100
0000
0001
0000
1100
0000
0001
0000
,
1010
0000
0010
1000
0100
0000
0010
0000
0100
0000
0001
0000
0110
0000
1000
0000
,
0101
0000
0010
0100
0001
0000
0100
0000
0010
0000
1000
0000
0110
0000
0001
0000
,
1010
0000
1000
0100
0001
0000
0010
0000
1000
0000
0010
0000
1100
0000
0010
0000
,
1001
0000
0100
0001
0010
0000
0100
0000
1000
0000
0100
0000
0011
0000
0100
0000
,
1001
0000
0010
0100
1000
0000
0100
0000
0010
0000
0001
0000
0110
0000
0001
0000
,
1010
1010
0101
0101
1100
1100
0011
0011
,
1000
0010
0100
0001
1000
0010
0100
0001
0010
0100
1000
0001
0100
0010
1000
0100
,
2002
0000
0000
0000
,
0000
0000
0000
0000
,
0023
0000
0000
0000
,
0000
0000
3232
0000
,
0023
0000
0000
0000
,
0000
0000
0000
0000
,
2332
0000
0000
0000
,
0203
0000
0000
0000
0000
0000
0000
0000
0320
0000
0000
0000
0000
0000
0000
3030
,
1001
0002
0003
2000
3000
0020
0030
2000
,
3000
0002
0003
0200
0300
0002
0003
0200
,
0300
2000
3000
0200
0300
0002
0003
2000
,
3000
0020
0030
0002
0003
0020
0030
1000
,
1001
0010
1100
0010
0101
0010
1100
0010
,
0011
0100
1100
0100
0011
0100
1100
0100
,
0011
0011
1100
1100
0101
0101
1001
1001
,
1000
0010
0100
1000
0010
1000
0001
0010
0200
0000
0000
0000
0000
0000
0300
0000
,
1100
0100
0000
0010
0011
0000
0010
1100
0000
0100
0000
0010
0012
0000
0100
0003
,
1100
0000
0010
0000
1100
0000
0001
0000
1000
1000
0100
0100
0001
0010
0100
1000
,
0000
0000
0001
2000
0000
0000
3022
0000
0033
0000
2200
0000
3300
0000
0202
0000
,
1303
0010
1000
0100
0001
0010
1000
0100
,
1001
0000
0100
1000
0011
0000
0100
0000
1001
0000
0100
0001
1010
0000
0010
0000
,
1100
0000
0001
0010
1100
0000
0001
0000
0011
0000
1000
0010
0101
0000
0010
0000
,
1010
0000
0100
0010
0011
0000
0100
0000
1010
0000
0100
0010
1100
0000
0010
0000
,
0012
0103
0102
1003
0012
1003
0102
0013
,
0000
2100
3010
0102
0003
0012
1003
0120
,
0030
2100
3010
0102
0003
0201
0310
2100
,
3000
0120
0031
2100
3000
0210
0301
0102
,
0103
0000
1000
0000
0100
0000
0001
0000
0010
0001
1000
0100
0010
0100
0001
1000
,
0020
1030
0000
0000
0002
0103
0000
0000
0020
1030
0000
0000
0200
0310
0000
0000
,
2000
3100
0000
0000
2000
3001
0000
0000
0200
0301
0010
0000
1000
0000
0010
0000
,
0001
0100
0001
0100
1000
0010
0001
0010
,
1000
0100
0001
0010
1000
0010
0100
0001
1000
0010
0001
1000
0010
0001
1000
0100
,
1001
0000
0000
0000
,
0000
0000
0000
0000
,
0000
0000
0000
0000
,
0000
0000
0000
0000
,
0000
0000
0000
0000
;

//---------------dance-solo - ----------------
#NOTES:
     dance-solo:
     :
     Challenge:
     10:
     0.000,0.000,0.000,0.000,0.000:
101001
000000
000100
000000
000000
000010
000000
000000
001000
000000
000000
100000
000000
000000
001000
000000
,
000000
000001
000000
000000
010000
000000
000000
001000
000000
000100
000000
000001
000000
001000
000000
000001
,
100100
000000
100000
000000
000000
000010
000000
000000
010000
000000
000000
000100
000000
000000
001000
000000
,
000000
010000
000000
000000
000100
000000
000000
100000
000000
000010
000000
000001
000000
010000
000000
000100
,
000101
000000
001000
000000
000000
000010
010100
000000
001000
000000
000000
010000
000110
000000
010000
000000
,
100001
000100
000000
000000
001000
000000
010001
000010
000000
001000
000000
100000
001000
000010
000100
000001
,
020100
000000
000100
000000
000000
000010
000000
000000
001000
000000
000000
000010
000000
000000
100000
000000
,
000000
001000
000000
000000
000001
000000
000000
000210
000000
100000
000000
001000
000000
000001
030300
000000
,
100100
000000
010000
000001
000010
010000
100000
000010
000000
110000
000000
000010
100000
001000
000001
000000
,
001001
000000
001000
000100
000001
001000
100000
010000
000000
000101
000000
000010
010000
100000
000001
000000
,
110000
000000
001000
100000
000010
001000
000100
000001
000000
100010
000000
000010
010000
000100
001000
000000
,
001010
000000
010000
001000
000001
100000
010000
000010
000000
011000
000000
000010
100000
001000
000100
000000
,
000011
000000
000100
010000
000010
100000
001000
100010
000000
000011
000000
100000
000100
000010
010000
000000
,
001010
000000
100000
000001
000100
001000
100000
000110
000000
100100
000000
000001
001000
010000
000001
000000
,
110000
000000
000010
001000
010000
001000
000010
100001
000000
100010
000000
000100
010000
000001
100000
000000
,
001100
000000
001000
100000
000100
001000
100000
011000
000000
100001
000000
100000
000010
100000
000100
100000
,
001001
000100
110000
010010
000001
110000
001001
001000
,
010010
100000
011000
000001
001010
101000
000010
000101
,
100100
000001
110000
001001
000010
101000
001100
010000
,
000110
001000
101000
000001
010100
101000
000100
100010
,
110000
000001
001010
010001
000100
110000
001010
100000
,
110000
000100
000101
100000
001010
100100
000001
001010
,
000011
000100
100100
110000
001000
000110
010100
100000
,
000011
000100
100100
001000
110000
000011
001000
001100
,
100001
000000
010000
000010
000100
100000
001100
000000
000000
010001
000000
000010
000001
001000
100100
000000
,
101000
000000
001000
100000
010000
000001
001100
000000
000000
110000
000000
000100
010000
000001
101000
000000
,
010100
000000
001000
010000
000100
000001
110000
000000
000000
001001
000000
000010
001000
000001
100100
000000
,
101000
000000
100000
010000
000100
010000
000011
000000
000000
000110
000000
000010
100000
000100
001001
000000
,
100100
000000
010000
000100
001000
000001
110000
000000
000000
001010
000000
100000
000100
000001
011000
000000
,
100100
000000
001000
010000
100000
000001
010100
000000
000000
101000
000000
000010
001000
100000
001001
000000
,
101000
101000
000101
000101
100010
100010
001100
001100
,
100000
000010
100000
000100
100000
000001
010000
000010
010000
100000
001000
000001
001000
010000
001000
100000
,
200202
000000
000000
000000
,
000000
000000
000023
000000
,
002332
000000
000000
000000
,
000000
000000
323223
000000
,
002300
000000
030002
000000
,
000000
000000
000000
000000
,
223233
000000
000000
000000
,
030320
000000
000000
000000
000000
000000
000000
000000
002030
000000
000000
000000
000000
000000
000000
303000
,
100100
000000
000100
000010
010000
000000
100000
001000
000000
000010
000000
000100
000001
000000
100000
010000
,
000010
000000
000001
000100
000000
000100
000000
100000
000000
100000
000000
000100
000001
000000
000100
000000
,
100000
000000
100000
001000
000010
000000
100000
000001
000000
000100
000000
001000
100000
000000
010000
000010
,
000010
000000
001000
100000
000000
010000
000000
000001
000000
100000
000000
000100
000100
000000
000001
000000
,
100010
110000
100010
110000
100010
110000
100010
110000
,
001010
000011
010100
110000
001010
000011
010100
110000
,
100100
001001
000101
101000
010100
010100
100100
100010
,
011000
000001
110000
000010
011000
000001
101000
000100
022002
000000
000000
000000
000000
000000
033003
000000
,
001010
000010
000000
000001
010001
000000
000100
001100
000000
100000
000000
010000
000201
000000
010000
000300
,
001001
000000
000010
000000
100100
000000
000001
000000
100000
010000
001000
000100
000001
000010
000100
001000
,
000000
220000
330000
000202
000303
200020
300030
002200
,
203300
301000
002000
013000
000020
001030
000002
010003
,
000001
000000
010000
100000
000101
000000
000010
000000
100001
000000
000100
000010
100100
000000
010000
000000
,
000011
000000
010000
010000
010001
000000
000010
000000
100100
000000
000010
000010
010100
000000
000001
000000
,
101000
000000
001000
000001
010001
000000
000100
000000
110000
000000
000010
010000
010100
000000
001000
000000
,
001200
010301
010200
100310
021000
130100
210000
301001
,
000000
210000
301001
010200
000300
001200
100301
002001
,
003000
210000
301010
010002
000003
020100
131000
010020
,
011030
012000
003100
010020
100030
020001
031000
010002
,
000103
000010
100000
001000
010000
000001
000100
100000
001000
000001
100000
010000
000010
000001
001000
100000
,
000020
100030
000000
000000
000200
010300
000000
000000
000002
100003
000000
000000
020000
030010
000000
000000
,
200000
300001
000000
000000
000020
000031
000000
000000
020000
030100
001000
000000
100000
000000
000001
000000
,
000100
010000
000010
010000
000001
001000
100000
001000
,
100000
001000
000001
000010
100000
010000
100000
000100
000001
100000
001000
000001
100000
000100
000010
000001
,
100100
000000
000000
000000
,
000000
000000
000000
000000
,
000000
000000
000000
000000
,
000000
000000
000000
000000
,
000000
000000
000000
000000
;
