#TITLE:Shakunetsu Beach Side Bunny;
#SUBTITLE:Beatmania IIDX 18th - Resort Anthem;
#ARTIST:DJ Mass MAD Izm;
#CREDIT:;
#MUSIC:Shakunetsu Beach Side Bunny.mp3;
#SELECTABLE:YES;
#BACKGROUND:;
#BANNER:;
#CDTITLE:;
#OFFSET:-0.29;
#SAMPLESTART:0.000;
#SAMPLELENGTH:0.000;
#BPMS:0=153.001,8=152.992,9=153.001,16=152.992,17=153.001,24=152.992,25=153.001,32=152.992,33=153.001,40=152.992,41=153.001,48=152.992,49=153.001,56=152.992,57=153.001,64=152.992,65=153.001,72=152.992,73=153.001,80=152.992,81=153.001,88=152.992,89=153.001,96=152.992,97=153.001,104=152.992,105=153.001,112=152.992,113=153.001,120=152.992,121=153.001,248=152.992,249=153.001,320=152.999,320.563=153.004,320.625=152.983,320.688=153.002,320.75=153.001;
#STOPS:320.563=0.539206,320.688=1.91175;

//---------------dance-single - ----------------
#NOTES:
     dance-single:
     :
     Challenge:
     17:
     0.000,0.000,0.000,0.000,0.000:
0000
0000
0000
0000
,
0000
0000
0000
0000
,
0000
0000
0000
0000
,
0000
0000
0000
0000
,
0011
0000
0000
0000
0001
0000
0000
0000
1000
0000
0000
0010
0000
0000
0010
0000
,
1010
0000
0000
0000
0100
0000
0000
0000
0001
0000
0000
0100
0000
0000
0100
0000
,
0101
0000
0000
0000
0010
0000
0000
0000
1000
0000
0000
0010
0000
0000
1000
0000
,
1010
0000
0010
0001
0110
0000
0000
0000
,
0002
0000
0000
0000
0203
0000
0000
0000
0001
0000
0000
0001
0000
0000
0301
0000
,
2001
0000
0000
0000
3020
0000
0000
0000
1000
0000
0000
1000
0000
0000
1030
0000
,
1002
0000
0000
0000
0023
0000
0000
0000
0001
0000
0000
0001
0000
0000
0031
0000
,
2001
0000
0000
0000
3200
0000
0000
0000
1000
0000
0000
1000
0000
0000
1300
0000
,
1200
0000
0000
0000
1320
0000
0000
0000
0100
0000
0000
1000
0000
0000
0130
0000
,
0021
0000
0000
0000
0231
0000
0000
0000
0010
0000
0000
0001
0000
0000
0310
0000
,
0001
0100
1000
0100
0000
0000
1000
0010
0001
0010
0000
0000
,
1000
0100
0001
1000
0010
0001
1000
0100
0001
1000
0010
0001
,
0012
0000
0003
0000
2100
0000
3000
0000
0012
0000
0003
2100
0000
3000
1000
0000
,
1100
0000
0000
0000
0011
0000
0000
0000
1100
0000
0000
0011
0000
0000
0011
0000
,
0201
0000
0300
0000
1020
0000
0030
0000
1200
0000
0300
0021
0000
0030
0010
0000
,
0011
0000
0000
0000
1100
0000
1010
0000
0101
0000
0000
0101
0000
0000
1010
0000
,
0102
0000
0003
0000
1002
0000
0003
0000
0012
0000
0003
1002
0000
0003
0001
0000
,
0011
0000
0001
0000
0011
0000
0000
0000
0101
0000
0000
1100
0000
0000
1000
0000
,
2100
0000
3000
0000
2001
0000
3000
0000
2010
0000
3000
2001
0000
3000
1000
0000
,
1100
0000
1000
0000
1100
0000
0100
0000
0101
0000
0000
0101
0000
0000
0001
0000
,
0011
0000
0000
0000
0110
0000
0000
0000
0011
0000
0000
0001
0000
0000
0010
0000
,
0002
0003
0002
0003
0020
0030
0000
0000
0020
0030
0000
2000
3000
0000
0000
0000
,
2100
3000
0000
0000
0200
0300
2000
3000
0200
0300
0000
0200
0300
0000
1000
0000
,
0200
0300
0002
0003
0200
0300
0002
0003
0020
0030
0000
0020
0030
0000
1000
0000
,
1100
0000
0000
0000
0110
0000
0000
0000
1100
0000
0000
1000
0000
0000
0100
0000
,
2000
3000
2000
3000
0200
0300
0000
0000
0200
0300
0000
0002
0003
0000
0001
0000
,
0012
0003
0000
0000
0020
0030
0002
0003
0020
0030
0000
0020
0030
0000
0001
0000
,
0020
0030
2000
3000
0020
0030
2000
3000
0200
0300
0000
0200
0300
0000
0001
0000
,
0001
0010
0001
0010
0001
0010
0001
0010
0001
0100
0001
0100
0001
0100
0001
0100
,
0010
0100
0010
0100
0010
0100
0010
0100
0010
1000
0010
1000
0100
1000
0100
1000
,
0010
1000
0010
1000
0010
1000
0010
1000
0010
1000
0010
1000
0010
1000
0010
1000
,
1010
0000
0000
0000
0110
0000
0011
0000
0110
0000
0000
1100
0000
0000
1000
0000
,
1000
0100
1000
0100
1000
0100
1000
0100
1000
0010
1000
0010
1000
0010
1000
0010
,
0100
0010
0100
0010
0100
0010
0100
0010
0100
0001
0100
0001
0010
0001
0010
0001
,
0100
0010
0100
0010
0100
0010
0100
0010
0100
0001
0100
0001
0100
0001
0100
0001
,
0010
0001
0010
0001
0010
0001
0010
0001
1000
0100
0010
0100
1000
0010
0001
0010
,
0011
0000
0000
0000
1010
0000
0000
0000
1100
0000
0000
0110
0000
0000
0011
0000
,
0101
0000
0000
0000
1100
0000
0000
0000
0011
0000
0000
0110
0000
0000
1100
0000
,
0011
0000
0000
0000
0110
0000
0000
0000
0011
0000
0000
0110
0000
0000
1010
0000
,
0101
0000
0000
0000
0011
0000
0000
0000
1100
0000
0000
1010
0000
0000
0011
0000
,
1100
0000
1100
0000
1100
0000
1100
0000
1100
0000
0000
1010
0000
0000
0010
0000
,
2010
3000
0000
0000
2100
3000
0000
0000
0200
0300
0000
0002
0003
0000
0000
0000
,
1100
0000
0000
0000
0011
0000
1000
0000
0011
0000
0000
0110
0000
0000
1000
0000
,
0001
0000
0100
0000
0001
0000
0100
0000
0010
0000
0000
0010
0000
0000
0100
0000
,
1001
0100
1000
0010
1000
0000
0001
0100
0001
0010
0001
0000
0000
0000
0001
0010
,
0001
0010
0001
0100
0001
0000
1000
0010
1000
0100
1000
0000
0000
0000
0000
0000
,
0100
0010
0100
0001
0100
0000
0010
0100
0010
1000
0010
0000
0000
0000
0200
0300
,
0010
1000
0010
0100
0010
0000
0100
0001
0100
0010
0100
0000
0000
0000
0000
0000
,
1000
0100
0010
0001
0010
0000
0001
0010
0100
1000
0100
0000
0000
0000
1000
0100
,
1000
0010
0100
0001
0010
0000
0001
0100
0010
1000
0100
0000
0000
0000
0000
0000
,
1000
0100
1000
0010
0100
0000
0001
0010
0001
0100
0010
0000
0000
0000
0002
0003
,
0010
0100
1000
0100
0010
0000
0100
0010
0001
0010
0100
0000
0001
0000
0001
0000
,
1001
0000
0000
0000
1100
0000
0000
0000
1010
0000
0000
1001
0000
0000
0100
0000
,
1001
0000
0000
0000
0011
0000
0000
0000
1001
0000
0000
0101
0000
0000
1000
0000
,
0011
0000
0000
0000
1010
0000
0000
0000
0110
0000
0000
0011
0000
0000
0100
0000
,
1010
0000
0000
0000
1100
0000
0101
0000
1100
0000
0000
0110
0000
0000
0101
0000
,
1100
0000
0000
0000
0011
0000
0000
0000
1100
0000
0000
0101
0000
0000
0110
0000
,
1010
0000
0000
0000
0101
0000
0000
0000
1010
0000
0000
0011
0000
0000
1100
0000
,
0011
0000
0000
0000
0011
0000
0000
0000
0011
0000
0000
1100
0000
0000
1100
0000
,
0110
0000
0110
1001
0110
0000
1001
0000
,
0001
0000
0100
0000
1000
0000
0001
0010
0000
0100
0000
0001
0010
0000
0100
0000
,
1000
0000
0010
0000
0001
0000
1000
0100
0000
1000
0100
1000
0010
0000
0010
0000
,
0001
0000
0100
0000
1000
0000
0001
0010
0000
0010
0000
1000
0100
0000
0100
0000
,
0001
0000
0100
0000
1000
0000
0100
0000
0001
0000
0001
0010
0001
0100
0010
0000
,
0010
0000
1000
0000
0010
0000
1000
0000
0001
0000
0001
0010
0000
0010
0000
0000
,
0010
0000
0001
0000
0010
0000
0001
0000
1000
0000
1000
0010
0000
0010
0000
0000
,
1000
0000
0100
0000
0001
0000
0100
0000
1000
0000
1000
0001
0000
1000
0000
0000
,
0001
0000
0010
0000
0100
0000
0010
0000
0001
0000
0001
0100
0000
0100
0000
0000
,
0110
0000
0000
0000
1100
0000
0000
0000
0011
0000
0000
0110
0000
0000
0010
0000
,
0110
0000
0000
0000
0011
0000
0000
0000
1100
0000
0000
0110
0000
0000
0100
0000
,
0101
0000
0000
0000
1010
0000
0000
0000
0110
0000
0000
0011
0000
0000
0010
0000
,
1010
0000
0000
0000
0101
0000
0000
0000
0110
0000
0000
1100
0000
0000
0100
0000
,
1000
0100
1000
0100
1000
0100
1000
0100
1000
0100
1000
0100
1000
0100
1000
0100
,
1000
0010
1000
0010
1000
0010
1000
0010
1000
0010
1000
0010
1000
0010
1000
0010
,
0100
0010
0100
0010
0100
0010
0100
0010
0100
0010
0100
0010
0100
0010
0100
0010
,
1000
0100
0010
0100
0010
0001
0010
0100
0010
0100
1000
0000
MMMM
0000
0000
0000
,
0000
0000
0000
0000
0002
2000
3000
0003
0000
0000
MMMM
0000
0000
0000
1001
0000
0000
0000
0000
0000
0000
0000
0011
0000
0000
0000
0000
0000
0000
0000
1100
0000
,
0000
0000
0110
0000
0000
0110
0000
1001
0000
0000
0000
1100
0000
0000
0000
0011
,
0000
0000
0110
0000
0000
0110
0000
1001
0000
0000
0000
1010
0000
0000
0000
0101
,
0000
0000
0110
0000
0000
0110
0000
1001
0000
0000
0000
0011
0000
1100
0000
0011
,
0000
0000
1010
0000
0000
0101
0000
1100
0000
0000
0000
0011
0000
0000
0000
1010
,
0000
0000
0011
0000
0000
1010
0000
0011
0000
0000
0000
1100
0000
0000
0000
0101
,
0000
0000
1100
0000
0000
1010
0000
1100
0000
0000
0000
0011
0000
0000
0000
0110
,
0000
0000
1001
0000
0000
1100
0000
0110
0000
0000
0000
1100
0000
0110
0000
0011
,
0000
0000
0101
0000
0000
1001
0000
0011
0000
1000
0000
0100
0000
0100
1000
0000
,
0100
0000
0100
1000
0000
0100
0000
0000
0000
0001
0000
0010
0000
0001
0010
0000
,
0001
0010
0001
0010
0000
0010
0000
0000
0000
1000
0010
1000
0000
0010
1000
0000
,
1000
0000
0010
1000
0000
1000
0000
0100
0000
0100
0000
0001
0000
0100
0001
0000
,
0001
0000
0100
0001
0000
0001
0000
1001
0000
0010
0000
1000
0000
0100
0000
1000
,
0000
0010
1000
0000
0100
0000
0000
0001
0000
1000
0000
0001
0000
0100
0000
0001
,
0000
0010
0001
0000
0010
0000
0000
1000
0000
0100
0000
1000
0000
0010
0000
1000
,
0000
0001
1000
0000
0010
0000
0000
0001
0000
0100
0000
0010
0000
1000
0000
0010
,
0000
0100
0001
0000
0010
0000
0000
1100
0000
0000
0000
0011
0000
0000
0000
0110
,
0000
0000
0011
0000
0000
0010
0000
0011
0000
0000
0000
1100
0000
0000
0000
0110
,
0000
0000
1100
0000
0000
0100
0000
0101
0000
0000
0000
0011
0000
0000
0000
0101
,
0000
0000
0011
0000
0000
0010
0000
1010
0000
0000
0000
1100
0000
0000
0000
1010
,
0000
0000
1100
0000
0000
0100
0000
1000
0100
1000
0100
0010
0001
0010
0001
1000
,
0010
1000
0010
0100
0001
0100
0001
1000
0010
0100
0001
1000
0100
0010
0001
1000
,
0010
0100
0001
1000
0100
0010
0001
0100
1000
0010
0001
0100
1000
0010
0001
0010
,
0100
0001
1000
0010
0100
0001
1000
0001
0010
0100
1000
0001
0010
0100
1000
0001
,
0100
0010
1001
0000
0000
0000
0000
0000
0000
0000
0000
0000
0001
0000
0000
0000
,
0000
0000
0000
0000
,
0000
0000
0000
0000
,
0000
0000
0000
0000
;
