#TITLE:RockSTAR;
#SUBTITLE:DJ MAX TECHNIKA 3;
#ARTIST:Mr. Funky;
#CREDIT:;
#MUSIC:Mr.Funky - RockSTAR.mp3;
#SELECTABLE:YES;
#BACKGROUND:;
#BANNER:;
#CDTITLE:;
#OFFSET:-0.164989;
#SAMPLESTART:0.000;
#SAMPLELENGTH:0.000;
#BPMS:0=126;
#STOPS:;

//---------------dance-single - ----------------
#NOTES:
     dance-single:
     :
     Challenge:
     14:
     0.000,0.000,0.000,0.000,0.000:
0001
0001
0001
0001
,
0001
0001
0001
0001
,
0100
0100
0100
0100
,
0100
0100
0100
0100
0100
0001
0100
1000
,
1001
0000
0100
0000
0001
0000
0100
0000
1000
0000
0001
0010
0100
0000
0010
0100
,
1000
0000
1000
0100
0001
0000
0010
0000
0002
0000
0103
0000
1010
0000
0101
0000
,
0001
1000
0010
1000
1000
0001
1100
0000
,
0100
0000
0010
0000
0001
0000
0010
0000
0100
0000
0000
0010
0000
0000
1000
0000
,
1100
0000
1000
0100
0000
1000
0010
0000
0000
0100
0000
0000
0001
0000
1000
0010
,
1000
0000
0000
1000
0000
0000
0001
0000
0000
0100
0000
0000
0010
0000
0100
1000
,
0010
0000
1000
0100
0000
0001
0100
0000
0000
1000
0000
0000
0001
0000
0000
0000
,
0001
0100
0010
1000
0001
0100
0001
1000
0010
0100
0001
0001
0000
0000
0010
0100
,
1100
0000
0000
1000
0000
0000
0001
0000
0000
0010
0000
0000
0110
0000
1000
0100
,
0011
0000
0000
0100
0000
0000
0001
0000
0000
0100
0000
0000
1100
0000
0010
1000
,
0101
0000
0000
0010
0000
0000
0100
0000
0000
0010
0000
0000
0101
0000
0001
0010
,
1100
0000
0000
0100
0000
0000
0001
0000
0000
0010
0000
0000
1100
0000
0001
0100
,
0011
0000
0100
0010
0000
1000
0010
0000
0100
0001
0000
0100
1000
0000
0001
0100
,
1010
0000
0001
0010
0000
1000
0010
0000
0001
0010
0000
0100
0001
0000
0010
0100
,
1010
0000
0010
0100
0000
0010
1000
0000
1000
0010
0000
0100
0001
0000
0001
0010
,
1010
0100
0001
0010
0100
0010
1001
0010
,
1001
0010
1000
0100
1000
0010
0100
0001
0020
0000
1000
0000
0130
0000
0000
0000
,
1000
0100
1000
0010
2000
0000
3100
0000
0001
0100
0001
0010
2000
0000
3010
0000
,
0010
0100
1000
0010
0001
0100
0010
1000
0100
0000
0000
0000
1001
0000
0000
0000
,
0001
0100
0010
0001
1000
0100
0010
1000
0001
0000
0001
1000
0001
1000
0010
1000
,
0101
0010
0001
0100
0001
0100
1000
0100
0002
0000
1000
0000
0103
0000
0000
0000
,
0001
0100
0010
0100
0002
0000
0013
0000
1000
0100
0010
0100
2000
0000
3010
0000
,
0001
0100
0010
1000
0100
0001
0100
1000
0010
0000
0000
0000
1001
0000
0000
0000
,
0011
0000
0110
0000
1100
0000
0110
0000
1001
0010
0100
1000
0220
0000
0330
0000
,
1001
0000
1000
0100
0000
0001
0100
0000
0100
0001
0000
0010
1000
0000
0100
0001
,
1100
0000
1000
0010
0000
0100
0010
0000
0001
1000
0000
0010
1100
0000
1000
0001
,
1010
0000
1000
0100
0000
0001
0100
0000
1000
0010
0000
0100
0011
0000
0001
0100
,
0001
1000
1000
1000
1000
1100
0011
0110
,
1001
0000
0010
0000
1000
0000
0100
0000
0102
0000
0000
1000
0000
0000
0103
0000
,
0000
0000
1000
0000
0010
0000
0100
0000
1020
0000
0000
0001
0000
0000
0130
0000
,
0000
0110
1001
0000
0000
0011
1100
0000
,
1100
0000
0011
0000
1100
0000
1010
0000
0012
0000
0000
0100
0000
0000
1003
0000
,
1001
0001
0110
0001
1010
0001
1010
1010
,
0011
1000
1010
0100
0011
0001
1010
1010
,
0110
0001
0110
1000
0101
1100
1100
0000
,
0101
1000
0010
1000
0010
0001
0010
0001
0010
0100
0010
0100
0010
1000
0100
1000
,
0101
0010
1000
0001
0100
0001
0010
0100
2000
0000
0001
0000
3100
0000
0000
0000
,
0001
0010
0100
0010
2000
0000
3001
0000
0001
0100
0010
0100
2000
0000
3100
0000
,
1000
0010
0100
0001
0010
0100
0001
0100
0010
0000
0000
0000
1001
0000
0000
0000
,
1000
0010
0100
0001
0100
0010
1000
0100
1000
0000
1000
0001
1000
0001
0100
0001
,
1010
0100
0010
0001
0020
0000
0100
0000
1030
0000
0000
0000
1001
0000
0000
0000
,
0010
1000
0010
0100
0002
0000
0013
0000
1000
0010
0100
0010
0200
0000
1300
0000
,
0001
0000
1000
0010
0000
0010
1000
0000
0001
0100
0000
0100
0001
0000
0001
0000
,
1100
0000
1010
0000
0101
0000
0011
0000
0011
0110
1100
0110
0011
0000
0101
0000
,
1001
0000
0010
0001
0000
0100
0001
0000
1000
0010
0000
1000
1100
0000
0001
1000
,
0011
0000
1000
0010
0000
0001
0100
0000
0010
0001
0000
0100
0110
0000
0001
1000
,
1100
0000
0100
0001
0000
0010
1000
0000
0100
0010
0000
0001
1010
0000
0100
0100
,
1100
0021
1000
0001
0130
1100
0110
0011
,
1001
0000
1000
0100
0000
0001
0100
0000
0100
0010
0000
0010
1100
0000
0010
0001
,
0110
0000
0010
1000
0000
0010
0001
0000
0001
1000
0000
1000
0011
0000
1000
0001
,
0101
0000
1000
0010
0000
0100
0010
0000
0001
0010
0000
0010
1001
0000
0001
0010
,
1100
1000
0010
0001
0010
1000
0010
1001
,
0000
0000
1001
0000
0010
0000
1000
0020
0000
0000
0031
0000
0100
0000
0001
2000
,
0000
0000
3100
0000
0001
0000
1000
0200
0000
0000
0301
0000
0110
0000
2002
0000
,
3003
0000
0000
0000
,
0000
0000
0000
0000
,
0000
0000
0000
0000
;
