#TITLE:Right Back;
#SUBTITLE:DJ MAX TECHNIKA 3;
#ARTIST:TANUKI;
#CREDIT:;
#MUSIC:TANUKI - Right Back.mp3;
#SELECTABLE:YES;
#BACKGROUND:;
#BANNER:;
#CDTITLE:;
#OFFSET:-0.216961;
#SAMPLESTART:0.000;
#SAMPLELENGTH:0.000;
#BPMS:0=175,68=87.5,100=175,128.563=175,128.625=175,129.063=175,129.125=175,129.563=175,129.625=175;
#STOPS:128.063=0.3,128.188=0.0428571,128.313=0.0428571,128.438=0.0428571,128.563=0.0428571,128.688=0.0428571,128.813=0.0428571,128.938=0.0428571,129.063=0.0428571,129.188=0.0428571,129.313=0.0428571,129.438=0.0428571,129.563=0.0428571;

//---------------dance-single - ----------------
#NOTES:
     dance-single:
     :
     Challenge:
     17:
     0.000,0.000,0.000,0.000,0.000:
0000
0000
0000
0000
,
0101
1000
0110
1000
0100
0001
1010
0001
,
0010
0001
0110
0001
0100
0010
1100
0001
,
0010
1000
0101
0010
1000
0001
0110
0001
,
0100
0010
1100
0010
0001
0100
0011
0100
,
0010
1000
0101
0010
0001
0010
1100
0010
,
1000
0100
1010
0100
0001
0100
0011
0100
,
1000
0001
0110
1000
0010
0100
0011
0100
,
0010
0000
0001
0100
0010
1000
0010
0100
0001
0000
0000
0000
1001
0000
0010
0001
,
1010
0100
1010
0001
0010
0100
0011
1000
,
0101
0000
0100
1000
0000
0001
0010
0000
0100
0001
0000
1000
0010
0000
0001
1000
,
0010
0000
0100
0010
0000
0100
1000
0000
0010
0001
0000
0100
1000
0000
0100
0001
,
0100
0000
0010
0100
0000
0010
0001
0000
0100
1000
0000
0010
0001
0000
0100
0010
,
1000
0000
1000
0100
0000
0010
0001
0000
0010
1000
0000
0010
0001
0000
1000
0010
,
0001
0000
0010
1000
0000
0010
0001
0000
0100
0010
0000
1000
0010
0000
0100
0001
,
0010
0000
1000
0010
0000
0100
0001
0000
0010
0001
0000
1000
0100
0000
0010
0001
,
0010
0001
1000
0010
0001
0100
1000
0001
0010
0001
0010
0100
1000
0010
0100
0001
,
1100
0010
0001
0100
0000
1000
0100
0010
0000
0000
0000
0000
0000
0000
0000
0000
,
0001
0100
0010
0001
0000
1000
0100
0001
0010
1000
0100
1000
0010
0001
0100
0010
,
1000
0010
0100
1000
0000
0001
0100
0010
0000
0000
0000
0000
0000
0000
0000
0000
,
1000
0010
0100
1000
0000
0001
0100
1000
0100
0001
0100
1000
0001
0010
0100
0010
,
1000
0100
0001
0100
0000
1000
0100
0001
0000
0000
0000
0000
0000
0000
0000
0000
,
1000
0010
0100
1000
0000
0010
0001
0010
1000
0001
0010
0100
0100
0001
0010
0100
,
1000
0100
0001
0010
0000
1000
0100
0001
0000
0000
0000
0000
0000
0000
0000
0000
,
1000
0010
0100
0100
0000
0010
0001
0100
0001
0010
0100
1000
0010
0100
1000
0100
,
1000
1000
1000
1000
,
1000
1000
1000
1000
,
1000
1000
1000
1000
,
1000
0000
0000
0000
1000
0000
0000
0000
1000
0000
0000
0000
1000
0010
1000
0001
,
0010
0000
0000
0100
0000
0000
0010
0000
0000
0100
0000
0000
1000
0000
1000
0000
,
0001
0000
0000
0100
0000
0000
1000
0000
0001
0000
0000
0100
0000
0000
1000
0000
,
0001
0000
0000
0100
0010
0000
0000
1000
0010
0000
0000
0001
1000
0000
0000
0100
,
1000
1000
0010
0100
0001
0010
0100
0010
0001
0100
0010
1000
0100
1000
0000
0000
0000
0000
0000
0010
0000
0000
0000
0000
0000
0100
0000
0000
0000
0000
0000
1000
,
0000
0000
0000
0000
0000
0010
0000
0000
0000
0001
0000
0000
0000
0011
0000
0000
0000
0000
0000
1000
0000
0000
0000
0000
0000
0010
0000
0000
0000
0000
0000
0100
,
0000
0000
0000
0000
0000
1000
0000
0010
0000
0001
0000
0010
0000
1100
0000
0000
0000
0000
0000
0100
0000
0000
0000
0000
0000
0010
0000
0000
0000
0000
0000
1000
,
0000
0000
0000
0000
0000
0010
0000
1000
0000
0100
0000
0001
0000
1010
0000
0000
0000
0000
0000
0100
0000
0000
0000
0000
0000
0001
0000
0000
0000
0000
0000
1000
,
0000
0000
0000
0000
0000
0001
0000
0100
0000
0001
0000
1000
0000
1010
0000
0000
0000
0000
0000
1000
0000
0000
0000
0000
0000
0001
0000
0000
0000
0000
0000
0100
,
0000
0000
0000
0000
0000
0010
0000
0001
0000
0010
0000
0000
0000
1100
0000
0000
0000
0000
0000
0100
0000
0000
0000
0000
0000
0001
0000
0000
0000
0000
0000
1000
,
0000
0000
0000
0000
0000
0001
0000
0010
0000
0001
0000
0100
0000
0011
0000
0000
0000
0000
0000
1000
0000
0000
0000
0000
0000
0010
0000
0000
0000
0000
0000
0001
,
0000
0000
0000
0000
0000
0100
0000
0000
0000
0010
0000
0000
0000
1000
0000
0000
0000
0000
0000
0100
0000
0000
0000
0000
0000
0001
0000
0000
0000
0000
0000
0100
,
0000
0000
0000
0000
0000
1000
0000
0100
0000
0001
0000
0010
0100
0001
0000
0000
0000
0000
1000
0100
0000
0000
0000
0000
0001
0010
0000
0000
0000
0000
0001
0100
,
0000
0000
0000
0000
0000
1000
0000
0000
0000
0010
0000
0000
1000
0100
0000
0000
0000
0000
1000
0001
0000
0000
0000
0000
0010
0100
0000
0000
0000
0000
0010
0001
,
0000
0000
0000
0000
0001
1000
0000
0010
0000
0100
0000
1000
0010
0001
0000
0000
0000
0000
1000
0100
0000
0000
0000
0000
0001
0100
0000
0000
0000
0000
1000
0001
,
0000
0000
0000
0000
0100
1000
0000
0010
0000
0001
0000
0100
0010
0001
0000
0000
0000
0000
1000
0010
0000
0000
0000
0000
0001
0100
0000
0000
0000
0000
0100
0010
,
0000
0000
0000
0000
0001
0010
0000
1000
0000
0010
0000
0001
0100
0010
0000
0000
0000
0000
1000
0100
0000
0000
0000
0000
1000
0010
0000
0000
0000
0000
0010
0001
,
0000
0000
0000
0000
0001
0010
0000
0000
0001
0100
0000
0000
0010
1000
0000
0000
0000
0000
1000
0100
0000
0000
0000
0000
0100
0001
0000
0000
0000
0000
0010
0100
,
0000
0000
0000
0000
1000
0100
0000
0000
0001
0100
0000
0000
1000
0001
0000
0000
0000
0000
0000
0010
0000
0000
0000
0000
0000
1000
0000
0000
0000
0000
0000
0010
,
0000
0000
0000
0000
0000
0001
0000
0000
0000
1000
0000
0000
0000
0120
0000
0000
0000
0000
0000
0000
0000
0001
0000
0000
0000
1000
0000
0000
0000
0000
0000
0000
,
0000
0001
0000
0000
0000
0000
0000
0000
0000
0030
0000
0000
0000
1001
0000
0000
0000
0000
0000
0010
0000
0000
0000
0000
0000
0100
0000
0000
0000
0000
0000
0100
,
0000
0000
0000
0000
0000
0010
0000
0000
0000
0000
0000
0010
0000
0101
0000
0000
0000
1000
0000
0000
0000
0001
0000
0000
0000
0000
0000
0010
0000
0000
0000
0000
,
0000
0100
0000
0000
0000
1000
0000
0000
0000
0010
0000
0000
0000
1001
0000
0000
0000
0000
0000
0000
0000
0010
0000
0000
0000
0000
0000
1000
0000
0101
0000
0000
,
0000
0000
0000
0100
0000
0000
0000
0000
0000
0010
0000
0000
0000
0010
0000
0000
0000
0010
0000
0000
0000
0101
0000
0000
0000
0000
0000
0010
0000
1001
0000
0000
,
0000
0100
0000
0010
0000
1000
0000
0100
0000
0010
0000
0000
0000
1100
0000
0000
0000
0000
0000
0100
0000
0110
0000
0000
0000
0000
0000
0010
0000
0000
0000
0000
,
0000
0010
0000
0000
0000
0000
0000
1000
0000
0000
0000
0000
0000
0010
0000
0000
0000
0001
0000
0000
0000
0010
0000
0000
0000
0000
0000
1000
0000
0110
0000
0000
,
0000
0000
0000
0100
0000
0000
0000
0000
0000
0010
0000
0000
0000
0101
0000
0000
0000
0000
0000
0010
0000
0000
0000
0000
0000
0100
0000
0000
0000
0000
0000
0010
,
0000
0000
0000
0000
0000
1000
0000
0000
0000
0000
0000
0000
0000
0010
0000
0000
0000
0010
0000
0000
0000
0110
0000
0000
0000
0000
0000
0010
0000
1100
0000
0000
,
0000
0010
0000
0000
0000
0000
0000
0000
0000
0001
0000
0000
0000
1001
0000
0000
0000
0000
0000
0000
0000
0001
0000
0000
0000
0000
0000
1000
0000
0011
0000
0000
,
0000
0010
0000
0000
0000
0000
0000
1000
0000
0000
0000
0000
0000
0010
0000
0000
0000
0010
0000
0000
0000
1100
0000
0000
0000
0000
0000
0010
0000
0110
0000
0000
,
0000
0000
0000
1000
0000
0000
0000
0000
0000
0100
0000
0000
0000
0011
0000
0000
0000
0000
0000
0000
0000
0010
0000
0000
0000
0000
0000
0100
0000
1010
0000
0000
,
0000
0000
0000
0010
0000
0000
0000
0000
0000
0100
0000
0000
0000
1000
0000
0000
0000
0100
0000
0000
0000
0011
0000
0000
0000
0000
0000
0100
0000
1001
0000
0000
,
0000
0100
0000
0000
0000
1000
0000
0001
0000
0010
0000
0001
0000
1010
0000
0000
0000
0000
0000
0000
0000
1000
0000
0000
0000
0000
0000
0010
0000
0000
0000
0000
,
0000
0100
0000
0000
0000
0000
0000
0010
0000
0000
0000
0000
0000
0001
0000
0000
0000
0100
0000
0000
0000
0001
0000
0000
0000
0000
0000
0010
0000
1000
0000
0000
,
0000
0100
0000
0000
0000
0000
0000
0001
0000
0000
0000
0000
0000
2000
0000
0000
0000
0000
0000
0000
0000
0000
0000
0000
0000
0000
0000
0000
0000
0000
0000
0000
,
0000
0000
0000
0000
0000
0000
0000
0000
0000
0000
0000
0000
0000
0000
0000
0000
0000
0000
0000
0000
0000
3001
0000
0010
0000
0001
0000
0100
0000
0001
0000
1000
,
0000
0010
0000
1000
0000
0100
0000
1000
0000
0010
0000
0100
0000
0002
0000
0000
0000
0000
0000
0000
0000
0000
0000
0000
0000
0000
0000
0000
0000
0000
0000
0000
,
0000
0000
0000
0000
0000
0003
0000
0000
0000
0000
0000
0000
0000
0000
0000
0000
0000
0000
0000
0000
0000
0000
0000
0000
0000
0000
0000
0000
0000
0000
0000
0000
,
0000
0000
0000
0000
,
0000
0000
0000
0000
,
0000
0000
0000
0000
,
0000
0000
0000
0000
,
0000
0000
0000
0000
,
0000
0000
0000
0000
,
0000
0000
0000
0000
,
0000
0000
0000
0000
,
0000
0000
0000
0000
;
