#TITLE:Online;
#SUBTITLE:GroundbreakinG 2012;
#ARTIST:;
#CREDIT:;
#MUSIC:3-05 - Online.mp3;
#SELECTABLE:YES;
#BACKGROUND:;
#BANNER:;
#CDTITLE:;
#OFFSET:-0.770998;
#SAMPLESTART:0.000;
#SAMPLELENGTH:0.000;
#BPMS:0=167.003,2=166.993,3=167.003,6=166.993,7=167.003,9=166.993,10=167.003,12=166.993,13=167.003,15=166.993,16=167.003,18=166.993,19=167.003,22=166.993,23=167.003,25=166.993,26=167.003,28=166.993,29=167.003,31=166.993,32=167.003,34=166.993,35=167.003,38=166.993,39=167.003,41=166.993,42=167.003,44=166.993,45=167.003,47=166.993,48=167.003,50=166.993,51=167.003,54=166.993,55=167.003,57=166.993,58=167.003,60=166.993,61=167.003,63=166.993,64=167.003,67=166.993,68=167.003,71=166.993,72=167.003,75=166.993,76=167.003,79=166.993,80=167.003,83=166.993,84=167.003,87=166.993,88=167.003,91=166.993,92=167.003,95=166.993,96=167.003,99=166.993,100=167.003,103=166.993,104=167.003,107=166.993,108=167.003,111=166.993,112=167.003,115=166.993,116=167.003,119=166.993,120=167.003,123=166.993,124=167.003,127=166.993,128=167.003,130=166.993,131=167.003,134=166.993,135=167.003,138=166.993,139=167.003,142=166.993,143=167.003,146=166.993,147=167.003,150=166.993,151=167.003,154=166.993,155=167.003,158=166.993,159=167.003,162=166.993,163=167.003,166=166.993,167=167.003,170=166.993,171=167.003,174=166.993,175=167.003,178=166.993,179=167.003,182=166.993,183=167.003,186=166.993,187=167.003,190=166.993,191=167.003,194=166.993,195=167.003,198=166.993,199=167.003,202=166.993,203=167.003,206=166.993,207=167.003,210=166.993,211=167.003,214=166.993,215=167.003,218=166.993,219=167.003,222=166.993,223=167.003,226=166.993,227=167.003,230=166.993,231=167.003,234=166.993,235=167.003,238=166.993,239=167.003,242=166.993,243=167.003,246=166.993,247=167.003,250=166.993,251=167.003,254=166.993,255=167.003,258=166.993,259=167.003,262=166.993,263=167.003,264=166.993,265=167.003,266=166.993,267=167.003,268=166.993,269=167.003,270=166.993,271=167.003,272=166.993,273=167.003,274=166.993,275=167.003,276=166.993,277=167.003,278=166.993,279=167.003,280=166.993,281=167.003,282=166.993,283=167.003,284=166.993,285=167.003,286=166.993,287=167.003,288=166.993,289=167.003,290=166.993,291=167.003,292=166.993,293=167.003,294=166.993,295=167.003,296=166.993,297=167.003,298=166.993,299=167.003,300=166.993,301=167.003,302=166.993,303=167.003,304=166.993,305=167.003,306=166.993,307=167.003,308=166.993,309=167.003,310=166.993,311=167.003,312=166.993,313=167.003,314=166.993,315=167.003,316=166.993,317=167.003,318=166.993,319=167.003,320=166.993,321=167.003,322=166.993,323=167.003,324=166.993,325=167.003,326=166.993,327=167.003,328=166.993,329=167.003,330=166.993,331=167.003,332=166.993,333=167.003,334=166.993,335=167.003,336=166.993,337=167.003,338=166.993,339=167.003,340=166.993,341=167.003,342=166.993,343=167.003,344=166.993,345=167.003,346=166.993,347=167.003,348=166.993,349=167.003,350=166.993,351=167.003,352=166.993,353=167.003,354=166.993,355=167.003,356=166.993,357=167.003,358=166.993,359=167.003,360=166.993,361=167.003,362=166.993,363=167.003,364=166.993,365=167.003,366=166.993,367=167.003,368=166.993,369=167.003,370=166.993,371=167.003,372=166.993,373=167.003,374=166.993,375=167.003,376=166.993,377=167.003,378=166.993,379=167.003,380=166.993,381=167.003,382=166.993,383=167.003,384=166.993,385=167.003,386=166.993,387=167.003,388=166.993,389=167.003,390=166.993,391=167.003,392=166.993,393=167.003,394=166.993,395=167.003,396=166.993,397=167.003,398=166.993,399=167.003,400=166.993,401=167.003,402=166.993,403=167.003,404=166.993,405=167.003,406=166.993,407=167.003,408=166.993,409=167.003,410=166.993,411=167.003,412=166.993,413=167.003,414=166.993,415=167.003,416=166.993,417=167.003,418=166.993,419=167.003,420=166.993,421=167.003,422=166.993,423=167.003,424=166.993,425=167.003,426=166.993,427=167.003,428=166.993,429=167.003,430=166.993,431=167.003,432=166.993,433=167.003,434=166.993,435=167.003,436=166.993,437=167.003,438=166.993,439=167.003,440=166.993,441=167.003,442=166.993,443=167.003,444=166.993,445=167.003,446=166.993,447=167.003,448=166.993,449=167.003,450=166.993,451=167.003,452=166.993,453=167.003,454=166.993,455=167.003,456=166.993,457=167.003,458=166.993,459=167.003,460=166.993,461=167.003,462=166.993,463=167.003,464=166.993,465=167.003,466=166.993,467=167.003,468=166.993,469=167.003,470=166.993,471=167.003,472=166.993,473=167.003,474=166.993,475=167.003,476=166.993,477=167.003,478=166.993,479=167.003,480=166.993,481=167.003,482=166.993,483=167.003,484=166.993,485=167.003,486=166.993,487=167.003,488=166.993,489=167.003,490=166.993,491=167.003,492=166.993,493=167.003,494=166.993,495=167.003,496=166.993,497=167.003,498=166.993,499=167.003,500=166.993,501=167.003,502=166.993,503=167.003,504=166.993,505=167.003,506=166.993,507=167.003,508=166.993,509=167.003,510=166.993,511=167.003,512=166.993,513=167.003,514=166.993,515=167.003,516=166.993,517=167.003,518=166.993,519=167.003,520=166.993,521=167.003,522=166.993,523=167.003,524=166.993,525=167.003,526=166.993,527=167.003;
#STOPS:;

//---------------dance-single - ----------------
#NOTES:
     dance-single:
     :
     Challenge:
     17:
     0.000,0.000,0.000,0.000,0.000:
0001
0001
0000
0000
0000
0000
0000
0000
,
0010
0010
0000
0000
1000
1000
0000
0000
,
0100
0100
0000
0000
0000
0000
0000
0000
,
0001
0010
0000
0000
0100
1000
0000
0000
,
0001
0100
0000
0000
0000
0000
0000
0000
,
0100
0000
0001
0000
0000
0000
0000
0000
0001
0000
0100
0000
0000
0000
0001
1000
,
0010
0001
1000
0000
0000
0000
0000
0000
0001
0000
0000
0000
0000
0000
0000
0000
,
0100
0010
0000
0000
0001
0001
0000
0000
,
1000
1000
0000
0000
0100
0100
0000
0000
,
0010
0010
0000
0000
0001
0001
0000
0000
,
0100
0100
0000
0000
0010
0010
0000
0000
,
1000
1000
0000
0000
0010
0010
0000
0000
,
0001
0001
0000
0000
0000
0000
0000
0000
,
1000
1000
0000
0000
0001
0100
0000
0000
,
0010
1000
0000
0000
0000
0000
0000
0000
,
0001
1000
0000
0000
1000
0001
0000
0000
,
1001
0000
0100
0000
,
1001
0000
0001
0000
,
1001
0000
0010
0000
,
1001
0000
1100
0000
,
1010
0000
0000
0000
,
0011
0000
0000
0000
,
0110
0000
0000
0000
0000
0000
0000
0000
0000
0000
0000
0000
0000
0000
1000
0100
,
0001
0000
0000
0010
0000
0000
0001
0000
0001
0000
0000
0100
0000
0000
0010
0000
,
1001
0010
1000
0001
0010
1000
0001
0010
1000
0001
0010
1000
0001
0010
1000
0001
,
0010
1000
0001
0010
1000
0001
0010
1000
0002
0000
0000
0000
1003
0010
0100
0001
,
1100
0000
0010
0000
0100
0000
0010
0001
1000
0000
0010
0000
1000
0000
0001
0000
,
0101
0000
0010
0000
0100
0000
1000
0010
0001
0000
1000
0000
0010
0000
0100
0000
,
0110
0000
1000
0000
0100
0000
1000
0100
0001
0000
0010
0000
1000
0000
0010
0000
,
1100
0000
0001
0000
1000
0000
0001
0010
0001
0000
1000
0000
1010
0000
0110
0000
,
1001
0000
0100
0000
0001
0000
0100
1000
0001
0000
0100
0000
1000
0000
0010
0000
,
1100
0000
0001
0000
1000
0000
0100
0001
0010
0000
1000
0000
0100
0000
1000
0000
,
0101
0000
0010
0000
1000
0000
0100
0010
0100
0000
0001
0000
1000
0000
0100
0000
,
1100
0000
0001
0000
0001
0000
0100
1000
0001
0000
0100
0000
0001
0010
0100
1000
,
0101
0000
0010
0000
0100
0000
1000
0010
1000
0000
0010
0000
0001
0000
0010
0000
,
1100
0000
0010
0000
1000
0000
0001
0100
0001
0000
0010
0000
0010
0000
1000
0000
,
0110
0000
1000
0000
0010
0000
0001
0100
1000
0000
0100
0000
1000
0000
0100
0000
,
1010
0000
0100
0000
0001
0000
0010
0100
1000
0000
0010
0000
0110
0000
0101
0000
,
1001
0000
0010
0000
0001
0000
0010
0100
1000
0000
0100
0000
1000
0000
0100
0000
,
1001
0000
0010
0000
1000
0000
0010
0001
0100
0000
0001
0000
0100
0000
0010
0000
,
1001
0010
0100
0001
1000
0010
0001
0100
,
1001
0000
0011
1100
0101
1010
2002
3003
,
0101
1000
0010
0100
0012
0000
1000
0003
,
1010
0100
0001
0010
0102
0000
0010
0003
,
1100
0000
0010
0000
1000
0000
0001
0000
0100
0000
0010
0100
0001
0000
1000
0000
,
0100
0001
0010
0100
0010
1000
0100
0010
,
0001
0010
0001
0100
0001
1000
0001
1000
0002
0000
0000
0000
0100
0000
0003
0000
,
1000
0100
1000
0010
1000
0001
1000
0001
2000
0000
0000
0000
0100
0000
3000
0000
,
0101
0000
0010
0000
0001
0000
0010
0000
0100
0000
1000
0010
0100
0000
1000
0000
,
0010
0000
0000
0000
0100
0000
0000
0000
0001
0000
0000
0000
0100
0000
0000
0000
1000
0000
0000
0000
0010
0001
0000
0000
0001
0100
0000
0000
1000
0010
0000
0000
,
1000
0010
0000
0000
0001
0010
0000
0000
0100
1000
0000
0000
0010
1000
0000
0000
0200
0000
0000
0000
0001
0000
0000
0000
0010
0000
0000
0000
1300
0000
0000
0000
,
0010
0001
0000
0000
0010
1000
0000
0000
0100
1000
0000
0000
0100
0010
0000
0000
0002
0000
0000
0000
0100
0000
0000
0000
0010
0000
0000
0000
0103
0000
0000
0000
,
0011
0000
0100
0000
1000
0000
0010
0000
0001
0000
0100
0010
0100
0000
1000
0000
,
0010
0001
0010
0001
0010
1000
0010
1000
,
0010
0100
0010
0001
0100
0010
0100
1000
0220
0000
0000
0000
2332
0000
3003
0000
,
0100
0001
0100
1000
0010
1000
0010
0001
2020
0000
0000
0000
3232
0000
0303
0000
,
1100
0000
0010
0000
1000
0000
0010
0000
0100
0000
0100
0010
0100
0000
0001
0000
,
1000
0100
0010
0001
0100
0010
0001
1010
,
1000
0000
0000
0000
0001
0000
0000
0000
0000
0000
0001
0100
0001
1000
0000
0000
,
0000
0001
0000
0100
,
0000
0000
0000
0000
0010
0000
0000
0000
0000
0000
0010
0000
1000
0100
0000
0000
,
0000
0001
0000
1000
,
0000
0000
0000
0000
0010
0000
0000
0000
0000
0000
0100
0001
1000
0100
0000
0000
,
0000
0010
0000
1000
,
0000
0000
0000
0000
0001
0000
0000
0000
0000
0000
0100
0000
0001
0010
0000
0000
,
0000
0100
0000
1000
,
0011
0000
0000
0000
0001
0000
0000
0000
0000
0000
0001
0100
1000
0010
0000
0000
,
0000
0010
0000
0010
,
0000
0000
0000
0000
1000
0000
0000
0000
0000
0000
0001
0000
0100
0001
0000
0000
,
0000
0000
1000
0000
0000
0000
1000
0100
,
0000
0000
0000
0000
0100
0000
0000
0000
0000
0000
0010
0001
0100
0010
0000
0000
,
0000
0001
0000
0001
,
0000
0000
0000
0000
0010
0000
0000
0000
0000
0000
0100
0000
0001
1000
0000
0000
,
0000
0000
0000
0000
0001
0000
0000
0000
0000
0001
0010
0001
0010
0000
1001
0000
,
1100
0000
0010
0000
0100
1000
0010
0001
0000
0000
0011
0000
1000
0100
0001
0000
,
0101
0000
1000
0000
0010
0100
1000
0001
0000
0000
0010
0000
1000
0100
1000
0000
,
0011
0000
0100
0000
0001
0010
0001
0010
0000
0000
1001
0000
0010
0100
1000
0000
,
1010
0000
0100
0000
0010
0100
0001
0100
0000
0000
0001
1000
0010
1000
0100
1000
,
0011
0000
0001
0000
0100
1000
0100
0001
0000
0000
1100
0000
0100
0001
0010
0000
,
0101
0000
1000
0000
0100
0010
0001
1000
0000
0000
0010
0000
1000
0001
0010
0000
,
0101
0000
1000
0000
0010
1000
0100
0001
0000
0000
1100
0000
0001
1000
0010
0000
,
0011
0000
1000
0000
0010
0100
1000
0010
0002
0000
0000
0000
2003
0000
3100
0010
,
1001
0000
0001
0000
1000
0100
0010
0001
0000
0000
0010
0001
1000
0100
0010
0000
,
1000
0000
0010
0000
0001
0100
0010
1000
0000
0000
0010
0001
0100
0001
0010
0000
,
0100
0000
1000
0000
0100
0010
1000
0100
0000
0000
0001
0010
0001
0010
0001
0000
,
0100
0000
0010
0000
0001
0100
0010
0001
0000
0000
1000
0010
1100
0000
1010
0000
,
1001
0010
1000
0001
,
0100
0000
0000
0000
0001
0000
0000
1000
0000
0000
0001
0000
1000
0000
0010
0000
,
0100
0010
1000
0010
0001
0100
0010
1000
0100
0001
0010
0001
1000
0010
0001
0000
,
1001
0000
0011
1100
1100
0011
1100
0110
,
1002
1000
0203
1300
0000
1010
0000
0002
,
0000
0100
2003
3100
0000
0011
0000
0200
,
0000
0001
0000
1000
0000
0001
0302
2003
,
0000
0000
0001
0000
0000
0000
0100
0000
0000
0000
3002
0003
0002
0003
0020
0030
,
0200
0300
0200
0300
2000
0000
3010
0000
0000
0000
1001
0000
0000
0000
0020
0000
,
0000
0001
2030
3100
0000
0101
0000
0020
,
0000
1000
0000
0001
0000
1000
0032
2003
,
0000
0010
0000
0100
0000
3010
0101
0011
,
1002
0000
2003
3001
0000
0110
0000
2000
,
0000
0001
3020
0130
0000
0011
0000
0002
,
0000
0010
0000
1000
0000
0010
0203
0320
,
0000
0000
0032
0000
0023
0000
0032
0000
0203
0000
0320
0000
2030
3000
2000
3000
,
0020
0030
0020
0030
0002
0000
0103
0000
0000
0000
1100
0000
0000
0000
0002
0000
,
0100
1000
1003
0110
0000
0002
0003
0002
,
0000
0100
0000
0010
0010
0100
0010
0103
,
1001
0000
1100
0011
1010
0101
2002
0000
,
3013
0010
0000
0000
0000
0000
0000
0000
,
0010
1000
0000
0000
0100
0001
0000
0000
,
0100
1000
0000
0000
0010
0010
0000
0000
,
0001
0001
0000
0000
0001
0010
0000
0000
,
0010
0100
0000
0000
0000
0000
0000
0000
,
1000
0100
0000
0000
0100
1000
0000
0000
,
0010
1000
0000
0000
0001
0010
0000
0100
,
0010
0000
0100
1000
0000
0001
1000
0000
,
1001
0100
0010
0100
0001
1000
0010
0001
0010
0100
1000
0100
1000
0000
0000
0000
,
1001
0010
0001
1000
0100
0001
0100
0010
1000
0010
0100
1000
0100
0000
0000
0000
,
0101
0010
1000
0100
0001
0100
0010
0001
0010
0100
1000
0100
0010
0000
0000
0000
,
0011
0100
0001
1000
0100
0010
0001
0100
1000
0010
0100
0010
0001
0000
0000
0000
,
1100
0010
0001
0100
1000
0010
0100
0001
0010
0100
0010
1000
0010
0000
0000
0000
,
1001
0010
0100
0001
0010
1000
0100
0001
0100
0010
0001
0010
0100
0000
0000
0000
,
1010
0100
0001
1000
0010
0100
1000
0001
0010
0001
1000
0100
1000
0000
0000
0000
,
1001
0010
0001
0010
1000
0100
1000
0100
0001
1000
0001
1000
0010
0000
0000
0000
,
2001
0000
3020
0000
,
0231
0000
2300
0000
,
3021
0000
0032
0000
,
1203
0000
2310
0000
,
3102
0000
0003
0000
,
2010
0000
3000
0000
,
0021
0000
0030
0000
,
2100
0000
0000
0000
0000
0000
0000
0000
0000
0000
0000
0000
3100
0001
0100
0001
0100
0001
0010
1000
0010
1000
0010
1000
,
0102
0000
0023
0000
,
0231
0000
2300
0000
,
3210
0000
0302
0000
,
2103
0000
3210
0000
,
0321
0000
0030
0000
,
2001
0000
3000
0000
,
0120
0000
0000
0000
0000
0000
0000
0000
0030
0000
0000
0000
0000
0000
0001
0010
,
1000
0000
0000
0100
0000
0000
0010
0000
1000
0000
0000
0100
0000
0000
0010
0000
,
0001
0010
1000
0001
0010
1000
0001
0010
1000
0001
0010
1000
0001
0010
1000
0001
,
0010
0000
0000
1000
0000
0000
0001
0000
0000
0010
0000
0000
1000
0000
0000
0001
0000
0000
0010
0000
0000
1000
0000
0000
0100
0000
1000
0000
0100
0000
1000
0000
0100
0000
0000
0000
0001
0000
0000
0000
0100
0000
0000
0000
0010
0000
0000
0000
,
0000
0000
0000
0000
,
0000
0000
0000
0000
,
0000
0000
0000
0000
,
0000
0000
0000
0000
,
0000
0000
0000
0000
;
