#TITLE:One More Lovely;
#SUBTITLE:Beatmania IIDX 10th Style;
#ARTIST:Risk Junk;
#CREDIT:;
#MUSIC:One More Lovely.mp3;
#SELECTABLE:YES;
#BACKGROUND:;
#BANNER:;
#CDTITLE:;
#DISPLAYBPM:200.000:200.000;
#OFFSET:-0.225986;
#SAMPLESTART:0.000;
#SAMPLELENGTH:0.000;
#BPMS:0=200,316=199.985,317=200;
#STOPS:;

//---------------dance-single - ----------------
#NOTES:
     dance-single:
     :
     Challenge:
     19:
     0.000,0.000,0.000,0.000,0.000:
0000
0000
0000
0000
,
0000
0000
0000
0000
0000
0000
0000
0000
0001
1000
0001
0000
0020
0000
0000
0030
,
1001
0010
0001
1000
0100
0010
0100
1000
,
0100
1000
0001
0010
0100
0010
0001
0010
,
0001
0100
0010
1000
0100
0001
0010
0001
,
1000
1000
0010
0010
0001
0001
0100
0100
,
1010
0100
0001
0100
0010
1000
0010
0100
,
0001
1000
0010
0100
1000
0010
0100
0001
,
1000
0010
0001
1000
0010
0100
1000
0010
,
0000
0000
0001
0000
0100
0000
0010
0000
1000
0010
0100
1000
0100
0000
0010
0000
,
0001
0010
1000
0010
0001
0010
1000
0010
0001
0010
1000
0010
0001
0010
1000
0010
,
0001
1000
0010
0100
0001
1000
0010
0100
0001
1000
0010
0100
0001
1000
0010
0100
,
1000
0100
0001
1000
0100
0010
0001
0100
1000
0100
0001
1000
0100
0010
0001
0100
,
1000
0100
1000
0100
1000
0010
1000
0010
1000
0001
1000
0001
0100
0001
0100
0001
,
0010
0100
0010
1000
0010
0100
0010
1000
0100
0010
0100
0001
0100
0010
0100
0001
,
1000
0010
0100
0001
1000
0001
0100
0010
1000
0010
0100
0001
1000
0001
0100
0010
,
0100
1000
0001
0100
0010
1000
0001
0010
0100
1000
0001
0100
0010
1000
0001
0010
,
1000
0100
1000
0010
1000
0001
1000
0001
1000
0001
1000
0001
0100
0001
0010
0001
,
1000
0100
0010
0100
0010
0001
0010
0001
1000
0001
1000
0100
1000
0100
0010
0100
,
0011
1100
0000
0011
1100
0011
0000
0010
,
1100
0100
0011
0100
1010
0100
0011
0010
,
0001
0010
0100
0001
0010
0001
0010
0100
1000
0010
0100
1000
0001
0010
0100
1000
,
0001
0010
1000
0001
0010
0001
0010
0100
1000
0010
0100
1000
0001
0010
0100
1000
,
0001
0100
1000
0001
0100
0001
0100
0010
1000
0010
0100
1000
0001
0010
0100
1000
,
0010
0100
1000
0010
0100
0010
0100
0001
1000
0010
0100
1000
0001
0010
0100
1000
,
0100
0010
0001
0100
0010
0100
0010
1000
0001
0100
0010
0001
1000
0100
0010
0001
,
1000
0010
0001
1000
0010
1000
0010
0100
0001
0100
0010
0001
1000
0100
0010
0001
,
1000
0100
0001
1000
0100
1000
0100
0010
0001
0100
0010
0001
1000
0100
0010
0001
,
1000
0100
0010
1000
0100
1000
0100
0010
0001
0100
0010
0001
1100
0000
0000
0000
,
0011
0010
0001
0101
,
0110
1010
0101
0110
,
0101
1000
0100
0011
,
0110
1100
0101
1010
,
1100
0010
0001
0011
,
0110
0011
1100
0110
,
0011
0010
0001
0110
,
1100
0100
0000
0011
0000
1100
0000
0000
,
0001
0000
0000
0000
0000
0000
0000
0000
0001
1000
0001
0000
0020
0000
0000
0030
,
1100
0010
0101
0001
0110
1000
0101
0010
,
0101
0001
0101
0010
1010
0100
1010
1000
,
1010
0010
0011
0100
0011
1000
0110
0001
,
1100
0010
0101
0100
1010
0001
0110
0001
,
1100
0001
0110
1000
0011
1000
0110
0001
,
1010
0001
0110
1000
0101
0010
1100
0001
,
0110
1000
0011
0100
1010
0001
0110
0001
,
2200
0000
0000
3300
0120
0000
0002
0000
0033
0000
0002
0000
1000
0000
0003
0000
,
1001
0100
0001
0011
,
0101
0011
1001
0110
,
1100
0010
0001
0101
,
1001
0101
0011
0110
,
1100
0100
1000
0110
,
0011
1100
0110
0011
,
1100
0010
1000
0110
,
0011
0010
0000
1100
0000
0011
0000
0000
,
1001
0100
1010
0100
0011
0100
1010
0100
,
1001
0010
0101
0010
1100
0010
0101
0010
,
1100
0001
1010
0001
0110
0001
1010
0001
,
0011
1000
0101
1000
0110
1000
0101
1000
,
0110
1000
0110
0001
0110
1000
0110
0001
,
1010
0001
0110
1000
0110
0001
0110
1000
,
0101
1000
0110
0001
0110
1000
0110
0001
,
1100
0001
0110
0001
1010
0001
0110
0001
,
1000
0100
1000
0100
0010
1000
0010
1000
0010
0001
0010
0001
0010
1000
0010
1000
,
0100
0010
0100
0010
0001
0010
0001
0010
1000
0010
1000
0010
0100
1000
0100
1000
,
0100
0001
0100
0001
0010
0100
0010
0100
1000
0010
1000
0010
0001
0100
0001
0100
,
1000
0100
1000
0100
0001
1000
0001
1000
0100
0001
0100
0001
0010
1000
0010
1000
,
0010
0001
0010
0001
0100
1000
0100
1000
0100
0001
0100
0001
0010
1000
0010
1000
,
0100
0010
0100
0010
1000
0010
1000
0010
1000
0100
1000
0100
0010
0001
0010
0001
,
1000
0100
0010
0001
1000
0100
0010
0001
0100
0010
0001
1000
0100
0010
0001
1000
,
0010
0001
1000
0100
0010
0001
1000
0100
0001
1000
0100
0010
0001
1000
0100
0010
,
0202
0303
2020
3030
0220
0330
2200
3300
,
0202
0303
0022
0033
2200
3300
0022
0033
,
2200
3300
2200
3300
0022
0033
0022
0033
,
0202
0000
0303
0000
0202
0000
0303
0000
2020
0000
3030
0000
0010
0001
1000
0000
,
2200
0000
0000
3300
0202
0000
0000
0303
,
0202
0303
0220
0330
0202
0303
2200
3300
,
2020
3030
2200
3300
0022
0033
2020
3030
,
0022
0033
2200
3300
0220
0330
2002
3003
,
1001
0010
1000
0100
0001
0010
1000
0100
0001
0010
1000
0100
0001
0010
1000
0100
,
0010
0100
1000
0010
0001
0010
0100
0001
0010
0100
1000
0010
0001
0010
0100
0001
,
1000
0010
0100
0001
1000
0010
0100
0001
1000
0010
0100
0001
1000
0010
0100
0001
,
0010
1000
0100
1000
0010
0100
0010
0100
0001
0010
0001
0010
0100
1000
0100
1000
,
0001
0010
0100
1000
0001
0010
0100
1000
0001
0010
0100
1000
0001
0010
0100
1000
,
0001
0010
1000
0010
0001
0010
1000
0010
0001
0010
1000
0010
0001
0010
1000
0010
,
0100
0010
0001
1000
0100
0010
0001
0010
0100
0010
0001
1000
0100
0010
0001
0010
,
1000
0010
1000
0001
1000
0010
1000
0001
1000
0010
1000
0001
1000
0010
0100
0010
,
0001
1000
0001
0100
0001
1000
0001
0100
0001
1000
0001
0100
0001
1000
0001
0100
,
1000
0010
0100
0001
0010
0100
1000
0100
0001
0100
0010
1000
0100
0010
0001
0010
,
1000
0100
0001
0010
1000
0010
0100
1000
0100
0001
0010
0001
0010
0100
0001
1000
,
0100
0001
1000
0100
0001
1000
0100
2002
0000
0000
0000
0000
0000
0000
0000
0000
,
3003
0000
0000
0000
,
0000
0000
0000
0000
,
0000
0000
0000
0000
,
0000
0000
0000
0000
,
0000
0000
0000
0000
,
0000
0000
0000
0000
,
0000
0000
0000
0000
;
