#TITLE:Go Beyond!!;
#SUBTITLE:Beatmania IIDX 15th - DJ Troopers;
#ARTIST:Ryu vs Sota;
#CREDIT:;
#MUSIC:Go Beyond!!.mp3;
#SELECTABLE:YES;
#BACKGROUND:;
#BANNER:;
#CDTITLE:;
#OFFSET:-0.37;
#SAMPLESTART:0.000;
#SAMPLELENGTH:0.000;
#BPMS:0=200;
#STOPS:;

//---------------dance-single - ----------------
#NOTES:
     dance-single:
     :
     Hard:
     11:
     0.000,0.000,0.000,0.000,0.000:
0000
0000
0000
0000
,
0000
0000
0000
0000
,
0000
0000
0000
0000
,
0000
0000
0000
0000
,
0000
0000
0000
0000
,
0000
0000
0000
0000
,
0000
0000
0000
0000
,
0000
0000
0000
0000
,
1001
0000
0000
1001
0000
0000
1001
0000
0100
0000
0010
0000
1000
0000
0001
0000
,
0011
0000
0011
0000
1100
1100
0000
0101
,
0000
1010
0000
0110
0000
1001
0000
0000
,
1000
0010
1000
0010
0100
0001
0100
1001
,
0000
1010
0000
1100
0000
1001
0000
0001
,
1001
0000
1001
0000
1010
1010
0000
0011
,
0000
0011
0000
1100
0000
1100
0000
0000
,
1000
0010
0001
0100
1000
0010
0001
0100
,
1000
0100
0010
0001
,
1000
0010
1000
0010
0001
0100
0001
0100
,
1000
0010
0100
0001
,
1000
0100
1000
0100
0001
0010
0001
0010
,
1000
0010
0100
0010
,
1000
0001
1000
0001
1000
0001
1000
0001
,
1000
0000
0001
0000
,
0000
0110
0000
1001
,
0000
0000
0000
0000
1001
1000
1010
0000
,
2000
0000
3020
0000
,
0230
0000
0302
0000
,
2003
0000
0000
0000
,
0000
0000
3200
0000
,
2300
0000
3002
0000
,
0023
0000
0230
0000
,
0320
0000
0000
0000
,
0000
0000
2030
0000
,
3002
0000
0023
0000
,
0230
0000
2300
0000
,
3020
0000
0000
0000
,
0000
0000
0032
0000
,
2003
0000
3020
0000
,
0230
0000
0302
0000
,
2003
0000
0000
0000
,
0000
0000
3200
0000
,
0302
0000
0000
0000
,
0000
0000
0023
0000
,
2030
0000
0000
0000
,
0000
0000
3200
0000
,
0320
0000
0032
0000
,
0023
0000
0230
0000
,
2300
0000
0000
0000
,
0000
0000
0000
0000
,
0000
0000
3000
0000
,
0000
0110
0000
1001
,
0000
0000
1001
0110
,
0000
0000
0000
0000
,
1000
0100
1000
0100
0001
0010
0001
0010
,
1000
0010
1000
0010
0001
0100
0001
0100
,
1000
0001
1000
0010
1000
0100
1000
0010
,
1000
0001
1000
0010
1000
0100
1000
0010
,
1000
0100
1000
0100
0001
0010
0001
0010
,
0001
0100
0001
1000
0001
0100
0001
0010
,
0001
0100
0001
1000
0001
0100
0001
0010
,
1000
0010
1000
0000
0010
0000
1000
0000
0001
0100
0001
0000
0100
0000
0001
0000
,
1000
0010
0100
0001
0100
0010
1000
0100
,
0001
0100
0010
1000
0010
0100
0001
0010
,
1000
0100
0010
0001
1000
0100
0010
0001
,
0010
0001
0100
0010
0100
0001
1000
0010
,
1000
0010
1000
0010
0100
0010
0100
0010
,
0001
0100
0001
0100
0010
0100
0010
0100
,
1000
0010
0100
0001
1000
0010
0100
0001
,
1000
0010
1000
0000
0001
0100
0001
0000
1000
0010
1000
0000
0001
0100
0001
0000
,
2000
0001
3002
0100
,
0203
0010
0320
1000
,
2030
0010
0010
0010
,
0010
0010
3020
0001
,
0032
1000
2003
0010
,
3020
0001
0032
0100
,
0203
0010
0010
0010
,
0010
0010
2300
0000
,
3020
0100
0230
0001
,
0302
0100
0203
0010
,
0320
1000
1000
1000
,
1000
1000
2030
0100
,
3200
0001
0302
0100
,
0203
0010
0320
1000
,
2030
0010
0000
0010
,
0000
0000
3002
0000
,
0203
0000
0000
0000
,
0000
0000
0000
0300
0002
0000
0000
0000
,
2003
0000
0000
0000
,
0000
0000
0000
3000
0002
0000
0000
0000
,
0203
0000
0320
0000
,
2030
0000
3002
0000
,
0203
0000
0000
0000
,
0000
0000
0000
0000
,
0000
0000
0000
0000
,
0000
0000
0000
0000
0000
0000
0000
0300
,
0000
0000
0000
0000
,
0000
0000
0000
0000
,
0000
0000
0000
0000
,
0000
0000
0000
0000
,
0000
0000
0000
0000
;

//---------------dance-single - ----------------
#NOTES:
     dance-single:
     :
     Challenge:
     16:
     0.000,0.000,0.000,0.000,0.000:
0000
0000
0000
0000
,
0000
0000
0000
0000
,
0000
0000
0000
0000
,
0000
0000
0000
0000
,
0000
0000
0000
0000
,
0000
0000
0000
0000
,
0000
0000
0000
0000
,
0000
0000
0000
0000
,
1000
0000
0000
0001
0000
0000
1000
0000
0001
0010
0001
0010
0001
0010
0001
0000
,
1001
0000
0101
0000
1100
1100
0000
0101
,
0000
0110
0000
1010
0000
1100
0000
0000
,
0001
0010
0001
0010
0100
0010
0100
1010
,
0000
0101
0000
1100
0000
0011
0100
0010
,
1100
0000
0011
0000
1010
1010
0000
1010
,
0000
0011
0000
1100
0000
0101
0000
0000
,
1000
0010
0100
0001
0010
0100
1000
0100
,
0010
0001
0000
0000
0100
0010
0000
0000
1000
0100
0000
0000
1000
0010
0000
0000
,
1000
0100
1000
0100
1000
0010
1000
0010
,
1100
0011
0110
1100
,
0001
0010
0001
0010
0001
0100
0001
0100
,
0011
0110
0011
1100
,
1000
0010
0100
0001
1000
0010
0100
0001
,
0000
1000
0100
0000
0010
0000
0000
0000
,
0000
0000
0011
0000
0000
0000
2100
3100
,
0000
0000
0000
0000
2000
3001
0002
0003
,
2000
0000
3020
0000
,
0032
0000
0203
0000
,
2300
0000
0000
0000
,
0000
0000
3200
0000
,
0302
0000
0203
0000
,
0320
0000
2030
0000
,
3020
0000
0000
0000
,
0000
0000
0230
0000
,
2300
0000
3002
0000
,
2003
0000
3020
0000
,
0230
0000
0000
0000
,
0000
0000
0320
0000
,
0032
0000
0023
0000
,
2030
0000
3020
0000
,
0230
0000
0000
0000
,
0000
0000
0320
0000
,
2030
0000
0000
0000
,
0000
0000
3200
0000
,
2300
0000
0000
0000
,
0000
0000
3200
0000
,
0302
0000
0023
0000
,
0230
0000
2300
0000
,
3200
0000
0000
0000
,
0000
0000
0300
0000
,
0000
0000
0000
0000
,
0000
0001
0000
1000
,
0000
0000
1001
0110
,
0000
1001
0000
0000
,
1000
0100
1000
0100
1000
0010
0100
0010
0100
0001
0010
0001
0010
0100
0010
0100
,
1000
0100
0010
0001
0010
0100
1000
0001
0010
0100
1000
0001
0010
0100
1000
0100
,
1000
0001
0010
0001
0010
0100
0010
0100
0010
1000
0100
0010
0001
0100
0010
0001
,
0010
0001
1000
0100
0010
0001
0100
0010
0100
1000
0001
0010
0100
1000
0010
0100
,
1001
0010
0010
0100
0001
0010
0100
1000
,
0010
0100
0010
0100
1000
0100
0010
0100
,
0001
0010
0100
0010
0100
1000
0100
0010
,
0001
0010
0001
0010
0001
0010
0001
0010
0001
1000
0001
1000
0001
1000
0001
1000
,
0001
0010
0100
1000
0001
0010
0100
1000
,
0010
0100
1000
0100
0010
0001
1000
0100
,
0010
0001
0010
0001
0010
0100
1000
0010
,
0100
0010
0001
0010
0100
1000
0010
0100
,
0001
0100
0010
1000
0010
0100
1000
0001
,
1000
0010
0100
1000
0100
0010
0001
1000
,
0001
0010
0100
0010
0100
1000
0010
0001
,
0100
1000
0001
0010
0100
1000
0001
0010
0100
1000
0001
0010
0100
1000
0100
0010
,
0002
1000
2003
0010
,
3020
0100
0230
0001
,
0302
0100
1000
0100
,
1000
0100
2003
0010
,
3020
0100
0230
0010
,
0302
0010
0203
0001
,
2300
0001
0100
0001
,
0010
0001
3200
0000
,
2300
0010
3200
0001
,
0320
1000
0032
0100
,
2003
0010
0001
0100
,
0010
0001
3020
1000
,
2030
0001
3020
1000
,
0230
0001
0302
1000
,
0023
0100
0000
0100
,
0000
0000
2030
0000
,
3002
0000
0000
0000
,
0000
0000
2023
0000
,
3232
0000
0000
0000
,
0000
0000
0000
0000
2323
0000
0000
0030
,
3022
0000
2233
0000
,
3322
0000
0000
0030
2023
0000
0000
0000
,
3232
0000
0000
0000
,
0000
0000
0000
0000
,
0000
0000
0000
0000
,
0000
0000
0000
0000
,
0303
0000
0000
0000
,
0000
0000
0000
0000
,
0000
0000
0000
0000
,
0000
0000
0000
0000
,
0000
0000
0000
0000
;
