#TITLE:GOLDEN CROSS;
#SUBTITLE:Beatmania IIDX 17th - SIRIUS;
#ARTIST:DJ REMO-CON vs DJ TAKA;
#CREDIT:;
#MUSIC:GOLDEN CROSS.mp3;
#SELECTABLE:YES;
#BACKGROUND:;
#BANNER:;
#CDTITLE:;
#OFFSET:-0.38;
#SAMPLESTART:0.000;
#SAMPLELENGTH:0.000;
#BPMS:0=150;
#STOPS:70.875=0.1,71.8125=0.05,71.9375=0.05,72.0625=0.05,72.1875=0.05,72.3125=0.05,72.4375=0.05,72.5625=0.05,72.6875=0.05,72.8125=0.05,72.9375=0.05,73.0625=0.05,73.1875=0.05,73.3125=0.05,73.4375=0.05,73.5625=0.05,73.6875=0.05,73.8125=0.05,73.9375=0.05,74.0625=0.05,74.1875=0.05,74.3125=0.05,74.4375=0.05,74.5625=0.05,74.6875=0.05,74.8125=0.05,74.9375=0.05,75.0625=0.05,75.1875=0.05,75.3125=0.05,75.4375=0.05,75.5625=0.05,75.6875=0.05,75.8125=0.05,75.9375=0.05,76.0625=0.05,76.1875=0.05,76.3125=0.05,76.4375=0.05,76.5625=0.05,76.6875=0.05,76.8125=0.05,76.9375=0.05,77.0625=0.05,77.1875=0.05,77.3125=0.05,77.4375=0.05,77.5625=0.05,77.6875=0.05,77.8125=0.05,77.9375=0.05,78.0625=0.05,78.1875=0.25,78.3125=0.15,78.4375=0.05,78.5625=0.05,78.6875=0.05,78.8125=0.25,78.9375=0.15,79.0625=0.05,79.1875=0.05,79.3125=0.05,79.4375=0.05,79.5625=0.05,79.6875=0.05,79.8125=0.05,79.9375=0.05,80.0625=0.05,80.1875=0.05,80.3125=0.05,80.4375=0.05,80.5625=0.05,80.6875=0.05,80.8125=0.05,80.9375=0.05,81.0625=0.05,81.1875=0.05,81.3125=0.05,81.4375=0.05,81.5625=0.05,81.6875=0.25,81.8125=0.05,81.9375=0.05,82.0625=0.05,82.1875=0.25,82.3125=0.15,82.4375=0.05,82.5625=0.05,82.6875=0.05,82.8125=0.05,82.9375=0.05,83.0625=0.05,83.1875=0.05,83.3125=0.05,83.4375=0.05,83.5625=0.05,83.6875=0.05,83.8125=0.25,83.9375=0.15,88.0625=0.15,88.1875=0.15,89.3125=0.15,89.4375=0.15,90.5625=0.15,90.6875=0.15,91.8125=0.15,91.9375=0.15,93.0625=0.15,93.1875=0.15,94.3125=0.15,95.9375=0.15,96.0625=0.15,97.1875=0.15,97.3125=0.15,178.188=0.45,178.313=0.75,178.438=0.1,178.5=0.1,178.563=0.1,178.688=0.15,180.063=0.25,205.25=0.1;

//---------------dance-single - ----------------
#NOTES:
     dance-single:
     :
     Challenge:
     19:
     0.000,0.000,0.000,0.000,0.000:
0000
0000
0000
0000
,
0000
0000
0000
0000
0000
0001
0000
0000
,
1001
0000
0010
0100
1000
0000
0100
0010
0001
0000
0100
0010
1000
0000
0010
0100
,
0001
0000
0010
1000
0100
0000
0100
0001
0010
0000
1000
0010
0001
0000
0001
0010
,
1000
0000
0100
0001
0100
0000
0100
1000
0100
0000
0010
0001
0010
0000
1000
0001
,
1000
0000
0010
0001
0010
0000
1010
0000
1001
0000
0100
0010
0101
0000
1010
0000
,
1001
0000
0010
1000
0100
0000
0100
1000
0100
0000
0001
0100
1000
0000
0110
0000
,
1100
0000
0000
0000
0000
0000
0100
0000
0000
0010
0000
0000
0001
0000
0000
0000
0000
0000
0001
0000
0100
0000
0001
0000
0010
0000
0000
0000
0000
0000
0010
0000
0000
0000
0000
0000
0011
0000
0000
0000
0000
0000
0110
0000
0000
0000
0000
0000
,
1100
0000
0100
0010
0001
0000
1000
0010
0001
0000
1000
0100
0001
0000
1000
0100
,
1000
0001
1000
0010
1000
0100
1000
0010
1000
0001
1000
0001
0000
0001
1000
0001
,
1001
0000
1000
0100
0010
0000
0100
0010
0100
0000
1000
0010
0001
0000
0010
0001
,
0100
0000
0010
1000
0100
0000
1000
0010
0100
0000
0001
0010
1000
0000
0010
0100
,
1000
0000
0100
0010
0001
0000
0010
0100
0001
0000
0010
1000
0010
0000
0010
0100
,
0010
0000
1000
0010
0100
0000
0001
0100
0010
0000
1000
0010
1100
0000
0110
0000
,
1001
0000
1000
0100
0010
0000
0100
0001
0010
0000
1000
0010
0001
0000
1000
0010
,
0100
0000
0100
0010
0001
0000
0100
0010
1000
0000
0100
1000
0010
0000
0001
0100
,
1000
0000
0000
0000
0000
0000
0010
0000
0000
1000
0000
0000
0100
0000
0000
0000
0000
0000
0001
0000
0000
0010
0000
0000
1000
0000
0000
0000
0000
0000
0001
0010
0001
0010
0000
0000
1100
0000
0000
0000
0000
0000
0110
0000
0000
0000
0000
0000
,
1001
0000
0001
0000
0010
0000
0100
0000
0010
0000
1000
0000
0100
0000
0010
0000
0001
0000
0100
0000
0001
0000
0100
0000
0100
0000
0010
0000
0100
0000
1001
0010
,
0100
0010
1000
0100
0010
0001
0100
1000
0010
0001
0100
0010
0001
1000
0010
0100
1000
0010
0001
1000
0100
0001
0010
0100
1000
0010
1000
0100
0001
0010
1000
0100
,
0001
1000
0100
0010
0100
0001
1000
0001
0100
0010
1000
0010
0001
0100
0001
0010
0001
0010
0100
1000
0100
1000
0010
0010
1001
0010
1000
0010
0100
0001
0100
0001
,
0010
0100
1000
0100
0010
0001
1000
0100
0010
0001
0010
0100
0010
1000
1000
0010
0100
0010
0001
0001
0010
0100
0010
1000
0100
0001
0010
0100
0010
0001
0010
0100
,
1001
0000
0010
0000
1000
0000
0100
0000
0010
0000
0001
0000
1000
0000
0100
0000
0001
0000
0100
0000
1000
0000
0100
0010
0001
1000
0010
0000
1000
0000
0100
0000
,
1001
0011
0001
0000
0100
0000
0010
0000
1000
0000
1010
1100
0100
0000
0010
0000
1000
0000
0001
0000
0101
1010
1000
0000
0010
0000
0100
0000
1000
0000
1010
0011
,
0100
0000
0010
0000
0001
0000
1000
0000
0011
1100
1000
0000
0010
0000
0100
0000
0001
0000
0110
1100
0000
0000
0000
1000
0000
0010
0000
0100
0000
1000
0000
0101
,
1100
0100
0000
0010
0000
0001
0000
0100
0000
0110
1001
0100
0000
0010
0000
0001
0000
0010
0000
1001
0000
0000
0000
0100
0000
1000
0000
0010
0000
0000
0000
0100
,
0000
0010
0000
0100
0000
0000
0000
0001
0000
0100
0000
0010
0000
1000
0000
0100
0000
0010
0000
0001
0000
0000
0000
0100
0000
0010
0000
1000
0000
0000
0000
0100
,
0000
0000
0000
0010
0000
0000
0000
0000
0000
0001
0000
0000
0000
0000
0000
0000
0000
0000
0000
0000
0000
1001
0000
0000
0000
0000
0000
0000
0000
0000
0000
0000
0000
0001
0000
0000
0000
0100
0000
0000
0000
0001
0000
0000
0000
0100
0000
0000
0000
0001
0000
0000
0000
0100
0000
0000
0000
1001
0000
0000
0000
0000
0000
0000
0000
0000
0000
0000
0000
0001
0000
0000
1000
0000
0000
0001
0000
0000
0000
0000
0000
1001
0000
0000
0000
0000
0000
0000
0000
0000
0000
0000
0000
1000
0000
0000
,
0010
1000
0000
1100
0000
0000
0000
0001
0010
0001
0000
0101
0000
0000
0000
1000
0010
1000
0000
0101
0000
0010
0000
1000
0000
0010
0000
1000
0000
0001
0000
0100
,
0000
0001
0000
0100
0000
1000
0000
0010
0000
0100
0000
0001
0000
0100
0000
1000
0000
0010
0000
2002
0000
0000
0000
0000
0000
0000
0000
0000
0000
0000
0000
3020
,
0000
0000
0000
0000
0000
0000
0000
2030
0000
0000
0000
3020
0000
0000
0000
0000
0000
0030
0000
2023
0000
0000
0000
0000
0000
0000
0000
0000
0000
0000
0000
0230
,
0000
0000
0000
0000
0000
0000
0000
0302
0000
0000
0000
0023
0000
0000
0000
0000
0000
0030
0000
3220
0000
0000
0000
0000
0000
0000
0000
0000
0000
0000
0000
0032
,
0000
0000
0000
0000
0000
0000
0000
2003
0000
0000
0000
3002
0000
0000
0000
0000
0000
0300
0000
0223
0000
0330
0000
0000
0000
0022
0000
0033
0000
0000
0000
2200
,
0000
3300
0000
0220
0000
0330
0000
0000
0000
2200
0000
3300
0000
0000
0000
0220
0000
0330
0000
0101
0000
0000
0000
0010
0000
1000
0000
0010
0000
0000
0000
0100
,
0000
0001
0000
0100
0000
0001
0000
0100
0000
0000
0000
0012
0000
0000
0000
0013
0000
0000
0000
1001
0000
0000
0000
0100
0000
0000
0000
0001
0000
0000
0000
0010
,
0000
1000
0000
0000
0000
0100
0000
0001
0000
0000
0000
2001
0000
0000
0000
3001
0000
0000
0000
1001
0000
0000
0000
0100
0000
0001
0000
0100
0000
0001
0000
1200
,
0000
0000
0000
2300
0000
0000
0000
3002
0000
0000
0000
2203
0000
0000
0000
0000
0000
0300
0000
3202
0000
0303
0000
0000
0000
0220
0000
0330
0000
0000
0000
2002
,
0000
3003
0000
0202
0000
0303
0000
0000
0000
0220
0000
0330
0000
0000
0000
2020
0000
3030
0000
1001
0000
0010
0000
1000
0000
0100
0000
0001
0000
1000
0000
0100
,
0000
0001
0000
0010
0000
0001
0000
0100
0000
0010
0000
1000
0000
0100
0000
0001
0000
1000
0000
0010
0000
0100
0000
0001
0000
0010
0000
0100
0000
1000
0000
0010
,
0000
0100
0000
1000
0000
0010
0000
0001
0000
0100
0000
0010
0000
1000
0000
0100
0000
0001
0000
2002
0000
0000
0000
0000
0000
0000
0000
0000
0000
0000
0000
0023
,
0000
0000
0000
0000
0000
0000
0000
0230
0000
0000
0000
0320
0000
0000
0000
0000
0000
0000
0000
3031
0000
0010
0000
0100
0000
1000
0000
0010
0000
0001
0000
1000
,
0000
0100
0000
0010
0000
0001
0000
0100
0000
1000
0000
0010
0000
0001
0000
0100
0000
1000
0000
0010
0000
0100
0000
1000
0000
0001
0000
0100
0000
0010
0000
0001
,
0000
0100
0000
0001
0000
1000
0000
0010
0000
1000
0000
0001
0000
0100
0000
0010
0000
1000
0000
0100
0000
0010
0000
0001
0000
0100
0000
1000
0000
0010
0000
1000
,
0000
0100
0000
0010
0000
0001
0000
1000
0000
0100
0000
2001
0000
0000
0000
3001
0000
0000
0000
0100
0000
0010
0000
1000
0000
0100
0000
0001
0000
0010
0000
1000
,
0000
0000
0000
0100
0000
0000
0000
0000
0000
0001
0000
0000
0000
0000
0000
0010
0000
0000
0000
0000
0000
1000
0000
0000
0000
0000
0000
0100
0000
0000
0000
0000
0000
0012
0000
0000
0000
0000
0000
0000
0000
0010
0000
0000
0000
0000
0000
0000
0000
0010
0000
0003
0000
0000
0000
0000
0000
2002
0000
0000
0000
0000
0000
3003
0000
0000
0000
0000
0000
0000
0000
0000
0000
0000
0000
0220
0000
0000
0000
0000
0000
0330
0000
0000
0000
0000
0000
0000
0000
0000
0000
0000
0000
0022
0000
0000
,
0000
0000
0000
0033
0000
0000
0000
0000
0000
0022
0000
0000
0000
0000
0000
0033
0000
0000
0000
0000
0000
0000
0000
0000
0000
0000
0000
0220
0000
0000
0000
0000
0000
0330
0000
0000
0000
0000
0000
0000
0000
0000
0000
0000
0000
2200
0000
0000
0000
0000
0000
3300
0000
0000
0001
0000
0000
0001
0000
0010
0000
0100
0000
1000
0000
0000
0001
0000
0000
0010
0000
0000
0200
0000
0000
0000
0000
0000
0300
0000
0000
0000
0000
0000
1000
0000
0000
0100
0000
0000
0020
0000
0000
0000
0000
0000
,
0030
0000
0000
1000
0000
0000
0000
0100
0000
0000
0000
0001
0000
0000
0000
1000
0000
0000
0000
0010
0000
0000
0000
0001
0000
0000
0000
1000
0000
0000
0000
0100
0000
0000
0000
0001
0000
0000
0000
1001
0000
0000
0000
0000
0000
0000
0000
0000
0000
0000
0000
1000
0000
0000
0000
0000
0000
0000
0000
0000
0000
0000
0000
0001
0000
0000
0000
0000
0000
0100
0000
0000
0000
0000
0000
0001
0000
0000
0000
0000
0000
0100
0000
0000
0000
0000
0000
1001
0000
0000
0000
0000
0000
0000
0000
0000
,
0000
0001
0000
0000
0000
1000
0000
0100
0000
1000
0000
0010
0000
1001
0000
0000
0000
0001
0000
0000
0000
0100
0000
0001
0000
0010
0000
0001
0000
0101
0000
0000
,
0000
0010
0000
0000
0000
0100
0000
1000
0000
0010
0000
0001
0000
1100
0000
0000
0000
0100
0000
0000
0000
0010
0000
0100
0000
0010
0000
0001
0000
1001
0000
0000
,
0000
1000
0000
0000
0000
1000
0000
0001
0000
0010
0000
0100
0000
1100
0000
0000
0000
0001
0000
0000
0000
0100
0000
0001
0000
0010
0000
0001
0000
0101
0000
0000
,
0000
1000
0000
1100
0000
0000
0000
0000
0000
0001
0100
0001
0100
0001
0000
0010
0000
0100
0000
1000
0000
0001
0000
0010
0000
1000
0000
0001
0000
0100
0000
1000
,
0000
0010
0000
0001
0000
0100
0000
1000
0000
0010
0000
0100
0000
0010
0000
0001
0000
0100
0000
0010
0000
1000
0000
0010
0000
0001
0000
0100
0000
0010
0000
1000
,
0000
0100
0000
0010
0000
0001
0000
0100
0000
0001
0000
0001
0000
0010
0000
1000
0000
0010
0000
0100
0000
0001
0000
1000
0000
0100
0000
0010
1000
0010
1000
0010
,
0000
0000
0000
1000
0000
0000
0000
1001
0000
0000
0000
1001
0000
0000
0000
0100
0000
0010
0000
0002
0000
0000
0000
0023
0000
0000
0000
0030
0000
0100
0000
0010
,
0000
0010
0000
0002
0000
0000
0000
0023
0000
0000
0000
1031
0000
0000
0000
0010
0000
0000
0000
1001
0000
0000
0000
0100
0000
0000
0000
0010
0000
1000
0000
0000
,
0000
0010
0000
0001
0000
0000
0000
0100
0000
0000
0000
1100
0000
0000
0000
0010
0000
0000
0000
0011
0000
0000
0000
0100
0000
0000
0000
0010
0000
1000
0000
0000
,
0000
0100
0000
0010
0000
0000
0000
0001
0000
0000
0000
0011
0000
0000
0000
0010
0000
0000
0000
1010
0000
0000
0000
0010
0000
0000
0000
0010
0000
1000
0000
0000
,
0000
0010
0000
1000
0000
0000
0000
0100
0000
0000
0000
0101
0000
0000
0000
0010
0000
0000
0000
1100
0000
0000
0000
0001
0000
0000
0000
1001
0000
0000
0000
0010
,
0000
0000
0000
0100
0000
0000
0000
1001
0000
0000
0000
1001
0000
0000
0000
0100
0000
0010
0000
0002
0000
0000
0000
0023
0000
0000
0000
0030
0000
1000
0000
0010
,
0000
0100
0000
0002
0000
0000
0000
0023
0000
0000
0000
0030
0000
0000
0000
0001
0000
0100
0000
2000
0000
0000
0000
3200
0000
0000
0000
0300
0000
0001
0000
0010
,
0000
1000
0000
0200
0000
0000
0000
0302
0000
0000
0000
0003
0000
0000
0000
0100
0000
1000
0000
0002
0000
0000
0000
0023
0000
0000
0000
0030
0000
0000
0000
0010
,
0000
0001
0000
0020
0000
0000
0000
0230
0000
0000
0000
1301
0000
0100
0000
0001
0000
0100
0000
0001
0000
0100
0000
0001
0000
0100
0000
1001
0000
0010
0000
1000
,
0000
0010
0000
1000
0000
0010
0000
1000
0000
0010
0000
1001
0000
0000
0000
1000
0000
0010
0000
1000
0000
0000
0000
0100
0000
0010
0000
0100
0000
0000
0000
0100
,
0000
0001
0000
0100
0000
0000
0000
0010
0000
0001
0000
0010
0000
0000
0000
1000
0000
0010
0000
1000
0000
0000
0000
0001
0000
0100
0000
0001
0000
0000
0000
0001
,
0000
0010
0000
0001
0000
0000
0000
1001
0000
0000
0000
0101
0000
0000
0000
1000
0001
1000
0000
0100
0000
0000
0000
0001
0010
0000
0000
1000
0100
0000
0000
0001
,
0100
0000
0000
1000
0010
0000
0000
0001
1000
0000
0000
1001
0000
0100
0000
0010
0000
0001
0000
1000
0000
0100
0000
0010
0000
0001
0000
1000
0000
0100
0000
0010
,
0000
0000
0000
0001
0000
0000
0000
0000
0000
1000
0000
0000
0000
0010
0000
0000
0000
0100
0000
0000
0000
0010
0000
0000
0000
0001
0000
0000
0000
0100
0000
0000
0000
1001
0000
0000
0000
0000
0000
0000
0000
0000
0000
0000
0000
0000
0000
0000
0000
0000
0000
0000
0000
0000
0000
0000
0000
0000
0000
0000
0000
0000
0000
0000
0000
0000
0000
0000
0000
0000
0000
0000
0000
0000
0000
0000
0000
0000
0000
0000
0000
0000
0000
0000
0000
0000
0000
0000
0000
0000
0000
0000
0000
0000
0000
0000
,
0000
0000
0000
0000
,
0000
0000
0000
0000
,
0000
0000
0000
0000
,
0000
0000
0000
0000
,
0000
0000
0000
0000
,
0000
0000
0000
0000
,
0000
0000
0000
0000
,
0000
0000
0000
0000
,
0000
0000
0000
0000
;
